#VERSION:0.83;
#TITLE:-Aite;
#SUBTITLE:;
#ARTIST:ginkiha;
#TITLETRANSLIT:;
#SUBTITLETRANSLIT:;
#ARTISTTRANSLIT:;
#GENRE:;
#ORIGIN:;
#CREDIT:;
#BANNER:bn.png;
#BACKGROUND:bg.png;
#PREVIEWVID:;
#JACKET:jacket.png;
#CDIMAGE:;
#DISCIMAGE:;
#LYRICSPATH:;
#CDTITLE:;
#MUSIC:audio.mp3;
#OFFSET:-0.189000;
#SAMPLESTART:82.380272;
#SAMPLELENGTH:14.999987;
#SELECTABLE:YES;
#BPMS:0.000=210.000;
#STOPS:299.000=0.285;
#DELAYS:;
#WARPS:286.000=13.000;
#TIMESIGNATURES:0.000=4=4;
#TICKCOUNTS:0.000=4;
#COMBOS:0.000=1;
#SPEEDS:0.000=1.000=0.000=0;
#SCROLLS:0.000=1.000;
#FAKES:;
#LABELS:0.000=Song Start;
#BGCHANGES:;
#KEYSOUNDS:;
#ATTACKS:
;

//---------------dance-single - ----------------
#NOTEDATA:;
#CHARTNAME:;
#STEPSTYPE:dance-single;
#DESCRIPTION:;
#CHARTSTYLE:Rajeious's Chart;
#DIFFICULTY:Challenge;
#METER:18;
#RADARVALUES:0.869468,1.146438,0.160341,0.554513,0.390831,911.000000,887.000000,24.000000,83.000000,0.000000,0.000000,0.000000,0.000000,0.000000,0.869468,1.146438,0.160341,0.554513,0.390831,911.000000,887.000000,24.000000,83.000000,0.000000,0.000000,0.000000,0.000000,0.000000;
#CREDIT:Rajeious's Chart;
#NOTES:
// measure 0
0000
0000
0000
0000
,  // measure 1
0000
0000
0000
0000
,  // measure 2
0000
0000
0000
0000
,  // measure 3
0000
0000
0000
0000
,  // measure 4
0000
0000
0000
0000
,  // measure 5
0000
0000
0000
0000
,  // measure 6
0000
0000
0000
0000
,  // measure 7
0000
0000
0000
0000
,  // measure 8
0001
0010
0001
1000
0100
0010
0001
1000
,  // measure 9
0000
1000
0010
1000
0100
0000
0100
0010
,  // measure 10
0001
0010
0001
1000
0000
1000
0100
1000
,  // measure 11
0010
0100
0001
0010
0001
0100
0010
1000
,  // measure 12
0100
0010
0100
1000
0001
0000
0001
0010
,  // measure 13
0000
0010
0100
0010
0100
0000
1000
0001
,  // measure 14
0010
0100
0010
0001
0000
1000
0100
0001
,  // measure 15
0000
0000
1000
0000
0010
0000
1000
0000
0001
1000
0001
1000
0001
0000
0000
0000
,  // measure 16
1000
0000
0010
0100
0000
0001
0010
0100
,  // measure 17
0000
0000
1000
0000
0100
0000
0010
0000
0001
0000
1000
0000
0010
0100
0010
0000
,  // measure 18
1000
0000
1000
0100
1000
0010
0000
0100
,  // measure 19
0000
0000
0001
0000
0010
0000
0100
0000
1000
0000
0010
0000
0100
0001
0100
0000
,  // measure 20
0001
1000
0100
0010
0000
0001
1000
0001
,  // measure 21
0000
0000
1000
0000
0001
0000
0010
0000
0100
0000
1000
0000
0001
0010
0001
0000
,  // measure 22
1000
0000
1000
0100
0010
0001
0000
0100
,  // measure 23
0000
0010
1000
0100
1000
0100
0010
0000
,  // measure 24
1001
0000
0100
0010
0100
0001
0000
1000
,  // measure 25
0000
0000
0010
0000
0000
0000
1000
0000
0001
0000
1000
0000
0100
0010
0100
0010
,  // measure 26
0001
0000
0001
0000
1000
0100
0010
0100
,  // measure 27
0000
0100
1000
0000
0001
0010
0100
1000
,  // measure 28
0000
0001
0100
0001
0000
1000
0000
1000
,  // measure 29
0000
0000
0001
0000
0000
0000
0001
0000
1000
0000
0001
0000
1000
0010
1000
0010
,  // measure 30
0100
0000
0100
0001
1000
0001
0000
1000
,  // measure 31
0000
0010
0100
0001
0010
0100
1000
0000
,  // measure 32
0001
1000
0001
0100
0001
1000
0001
1000
,  // measure 33
0010
0000
0110
0000
0100
0010
1000
0000
,  // measure 34
0001
1000
0010
0100
0000
0100
0001
1000
,  // measure 35
0000
1000
0100
0100
0000
1000
0010
0100
,  // measure 36
0001
0010
0100
1000
0100
0010
0001
1000
,  // measure 37
0010
0100
0001
0000
1010
0000
1000
0010
,  // measure 38
0100
0000
0001
1000
0000
0010
0100
0010
,  // measure 39
0100
0000
0001
1000
0001
1000
0010
0100
0010
0100
0001
0000
1000
0000
0000
0000
,  // measure 40
0001
0010
0001
0100
0010
1000
0001
0010
,  // measure 41
0000
0001
0001
1000
0010
0100
0010
1000
,  // measure 42
0010
0000
1000
0001
0010
0000
0101
0000
,  // measure 43
0001
0100
0001
1000
0000
1000
1000
0001
,  // measure 44
0100
0001
0100
0010
0100
0001
0100
0010
,  // measure 45
1000
0100
1000
0001
1000
0100
1000
0001
,  // measure 46
1000
0000
0010
0110
0000
0001
1000
1001
,  // measure 47
0000
0100
0020
0000
1030
0001
1000
0001
,  // measure 48
0200
0000
0301
0010
0002
0000
0103
0010
,  // measure 49
1000
0200
0000
0000
1300
0200
0000
0000
1300
0200
0000
0000
2300
0000
0000
0000
,  // measure 50
3001
0010
0100
0010
0001
0000
0100
0000
0010
0100
1000
0100
0010
0000
1000
0000
,  // measure 51
0010
0000
0100
0000
0001
0000
0100
0000
0000
0000
0001
0000
1000
0010
1000
0010
,  // measure 52
1000
0000
0001
0000
1000
0100
0010
0000
0001
1000
0010
1000
0001
0000
0100
0000
,  // measure 53
0010
0200
0000
0000
0310
0200
0000
0000
0310
0200
0000
0000
0320
0000
0000
0000
,  // measure 54
1030
0100
0010
0100
1000
0000
0001
0000
0100
0010
0001
0010
0100
0000
0010
0000
,  // measure 55
1000
0001
0010
0100
0001
0100
0010
0001
,  // measure 56
1000
0000
0100
1000
0000
1000
0000
0010
,  // measure 57
0000
1000
0000
0001
0010
0001
0010
0000
,  // measure 58
0100
0000
1000
0000
0010
0100
0000
0001
,  // measure 59
0000
0001
0100
0000
0001
0010
1000
0010
,  // measure 60
0001
0000
0100
0001
0000
1000
0000
1000
,  // measure 61
0000
0001
0000
0001
0010
0001
0010
0000
,  // measure 62
0001
0000
0100
0000
0010
1000
0000
0001
,  // measure 63
0000
0010
0100
1000
0001
0100
0010
0000
,  // measure 64
1000
0100
0010
0100
1000
0001
0100
0010
,  // measure 65
0100
0000
0001
0000
1000
0000
0100
0000
0010
0000
0001
0000
1000
0100
1000
0100
,  // measure 66
1000
0001
0010
0100
1000
0001
1000
0100
,  // measure 67
0010
0000
0100
0000
1000
0000
0001
0000
0100
0000
0001
0000
0100
0010
0100
0010
,  // measure 68
0100
0001
1000
0001
0010
0100
0010
0001
,  // measure 69
1000
0010
1000
0100
0010
0100
1000
0001
,  // measure 70
1000
0010
1000
0010
1000
0010
1000
0010
1000
0010
1000
0010
1000
0010
1000
0010
,  // measure 71
0000
0000
0000
0000
,  // measure 72
0000
0000
0000
0000
,  // measure 73
0000
0000
0000
0000
,  // measure 74
0000
0000
0000
0000
,  // measure 75
0002
0000
0000
0000
0000
0000
0000
0000
0000
0000
0000
0000
0000
0000
0000
0000
0000
0000
0000
0000
0000
0000
0000
0000
0000
0000
0000
0000
0000
0000
0000
0000
0000
0000
0000
0000
0000
0000
0000
0000
0000
0000
0000
0000
0000
0000
0000
0003
0101
0000
0000
0000
0000
0000
0000
0000
0000
0000
0000
0000
0000
0000
0000
0000
0000
0000
0000
0000
0000
0000
0000
0000
0000
0000
0000
0000
0000
0000
0000
0000
0000
0000
0000
0000
0000
0000
0000
0000
0000
0000
0000
0000
0000
0000
0000
0000
2000
0000
0000
0000
0000
0000
0000
0000
0000
0000
0000
0000
0000
0000
0000
0000
0000
0000
0000
0000
0000
0000
0000
0000
0000
0000
0000
0000
0000
0000
0000
0000
0000
0000
0000
0000
0000
0000
0000
0000
0000
0000
0000
0000
0000
0000
0000
3000
1010
0000
0000
0000
0000
0000
0000
0000
0000
0000
0000
0000
0000
0000
0000
0000
0000
0000
0000
0000
0000
0000
0000
0000
0000
0000
0000
0000
0000
0000
0000
0000
0000
0000
0000
0000
0000
0000
0000
0000
0000
0000
0000
0000
0000
0000
0000
0000
,  // measure 76
2000
3020
0032
2003
3002
0023
2030
3002
,  // measure 77
2003
0000
0000
0000
0000
0000
0000
0000
0000
0000
0000
0000
0000
0000
0000
0000
0000
0000
0000
0000
0000
0000
0000
0000
0000
0000
0000
0000
0000
0000
0000
0000
0000
0000
0000
0000
0000
0000
0000
0000
0000
0000
0000
0000
0000
0000
3000
0000
1100
0000
0000
0000
0000
0000
0000
0000
0000
0000
0000
0000
0000
0000
0000
0000
0000
0000
0000
0000
0000
0000
0000
0000
0000
0000
0000
0000
0000
0000
0000
0000
0000
0000
0000
0000
0000
0000
0000
0000
0000
0000
0000
0000
0000
0000
0000
0000
0020
0000
0000
0000
0000
0000
0000
0000
0000
0000
0000
0000
0000
0000
0000
0000
0000
0000
0000
0000
0000
0000
0000
0000
0000
0000
0000
0000
0000
0000
0000
0000
0000
0000
0000
0000
0000
0000
0000
0000
0000
0000
0000
0000
0000
0000
0000
0030
0011
0000
0000
0000
0000
0000
0000
0000
0000
0000
0000
0000
0000
0000
0000
0000
0000
0000
0000
0000
0000
0000
0000
0000
0000
0000
0000
0000
0000
0000
0000
0000
0000
0000
0000
0000
0000
0000
0000
0000
0000
0000
0000
0000
0000
0000
0000
0000
,  // measure 78
0002
2003
3200
0320
0032
0203
0320
2030
,  // measure 79
3200
0000
0000
0000
0000
0000
0000
0000
0000
0000
0000
0000
0000
0000
0000
0000
0000
0000
0000
0000
0000
0000
0000
0000
0000
0000
0000
0000
0000
0000
0000
0000
0000
0000
0000
0000
0000
0000
0000
0000
0000
0000
0000
0000
0000
0000
0000
0300
1100
0000
0000
0000
0000
0000
0000
0000
0000
0000
0000
0000
0000
0000
0000
0000
0000
0000
0000
0000
0000
0000
0000
0000
0000
0000
0000
0000
0000
0000
0000
0000
0000
0000
0000
0000
0000
0000
0000
0000
0000
0000
0000
0000
0000
0000
0000
0000
0020
0000
0000
0000
0000
0000
0000
0000
0000
0000
0000
0000
0000
0000
0000
0000
0000
0000
0000
0000
0000
0000
0000
0000
0000
0000
0000
0000
0000
0000
0000
0000
0000
0000
0000
0000
0000
0000
0000
0000
0000
0000
0000
0000
0000
0000
0000
0030
0011
0000
0000
0000
0000
0000
0000
0000
0000
0000
0000
0000
0000
0000
0000
0000
0000
0000
0000
0000
0000
0000
0000
0000
0000
0000
0000
0000
0000
0000
0000
0000
0000
0000
0000
0000
0000
0000
0000
0000
0000
0000
0000
0000
0000
0000
0000
0000
,  // measure 80
0002
0023
0230
0302
0203
0320
0032
2003
,  // measure 81
3020
0000
0000
0000
0000
0000
0000
0000
0000
0000
0000
0000
0000
0000
0000
0000
0000
0000
0000
0000
0000
0000
0000
0000
0000
0000
0000
0000
0000
0000
0000
0000
0000
0000
0000
0000
0000
0000
0000
0000
0000
0000
0000
0000
0000
0000
0000
0030
0210
0000
0000
0000
0000
0000
0000
0000
0000
0000
0000
0000
0000
0000
0000
0000
0000
0000
0000
0000
0000
0000
0000
0000
0000
0000
0000
0000
0000
0000
0000
0000
0000
0000
0000
0000
0000
0000
0000
0000
0000
0000
0000
0000
0000
0000
0000
0300
0102
0000
0000
0000
0000
0000
0000
0000
0000
0000
0000
0000
0000
0000
0000
0000
0000
0000
0000
0000
0000
0000
0000
0000
0000
0000
0000
0000
0000
0000
0000
0000
0000
0000
0000
0000
0000
0000
0000
0000
0000
0000
0000
0000
0000
0000
0000
0003
0021
0000
0000
0000
0000
0000
0000
0000
0000
0000
0000
0000
0000
0000
0000
0000
0000
0000
0000
0000
0000
0000
0000
0000
0000
0000
0000
0000
0000
0000
0000
0000
0000
0000
0000
0000
0000
0000
0000
0000
0000
0000
0000
0000
0000
0000
0000
0000
,  // measure 82
0031
0000
1000
0000
0100
0000
0000
1100
0000
0000
0010
0000
1000
0001
1000
0001
,  // measure 83
2000
0000
0000
0000
0000
0000
0000
0000
0000
0000
0000
0000
0000
0000
0000
0000
0000
0000
0000
0000
0000
0000
0000
0000
0100
0000
0000
0000
0000
0000
0000
0000
0000
0000
0000
0000
0000
0000
0000
0000
0000
0000
0000
0000
0000
0000
0000
3000
0100
0000
0000
0000
0000
0000
0000
0000
0000
0000
0000
0000
0000
0000
0000
0000
0000
0000
0000
0000
0000
0000
0000
0000
1000
0000
0000
0000
0000
0000
0000
0000
0000
0000
0000
0000
0000
0000
0000
0000
0000
0000
0000
0000
0000
0000
0000
0000
0002
0000
0000
0000
0000
0000
0000
0000
0000
0000
0000
0000
0000
0000
0000
0000
0000
0000
0000
0000
0000
0000
0000
0000
0010
0000
0000
0000
0000
0000
0000
0000
0000
0000
0000
0000
0000
0000
0000
0000
0000
0000
0000
0000
0000
0000
0000
0003
0010
0000
0000
0000
0000
0000
0000
0000
0000
0000
0000
0000
0000
0000
0000
0000
0000
0000
0000
0000
0000
0000
0000
0000
0001
0000
0000
0000
0000
0000
0000
0000
0000
0000
0000
0000
0000
0000
0000
0000
0000
0000
0000
0000
0000
0000
0000
0000
,  // measure 84
0020
0032
0203
0320
2030
3200
0302
0203
,  // measure 85
2300
0000
0000
0000
0000
0000
0000
0000
0000
0000
0000
0000
0000
0000
0000
0000
0000
0000
0000
0000
0000
0000
0000
0000
0001
0000
0000
0000
0000
0000
0000
0000
0000
0000
0000
0000
0000
0000
0000
0000
0000
0000
0000
0000
0000
0000
0000
3000
0001
0000
0000
0000
0000
0000
0000
0000
0000
0000
0000
0000
0000
0000
0000
0000
0000
0000
0000
0000
0000
0000
0000
0000
0100
0000
0000
0000
0000
0000
0000
0000
0000
0000
0000
0000
0000
0000
0000
0000
0000
0000
0000
0000
0000
0000
0000
0000
0002
0000
0000
0000
0000
0000
0000
0000
0000
0000
0000
0000
0000
0000
0000
0000
0000
0000
0000
0000
0000
0000
0000
0000
1000
0000
0000
0000
0000
0000
0000
0000
0000
0000
0000
0000
0000
0000
0000
0000
0000
0000
0000
0000
0000
0000
0000
0003
1000
0000
0000
0000
0000
0000
0000
0000
0000
0000
0000
0000
0000
0000
0000
0000
0000
0000
0000
0000
0000
0000
0000
0000
0010
0000
0000
0000
0000
0000
0000
0000
0000
0000
0000
0000
0000
0000
0000
0000
0000
0000
0000
0000
0000
0000
0000
0000
,  // measure 86
0200
0320
0230
0320
2030
3200
0320
0032
,  // measure 87
0023
0000
0000
0000
0000
0000
0000
0000
0000
0000
0000
0000
0000
0000
0000
0000
0000
0000
0000
0000
0000
0000
0000
0000
0001
0000
0000
0000
0000
0000
0000
0000
0000
0000
0000
0000
0000
0000
0000
0000
0000
0000
0000
0000
0000
0000
0000
0030
0001
0000
0000
0000
0000
0000
0000
0000
0000
0000
0000
0000
0000
0000
0000
0000
0000
0000
0000
0000
0000
0000
0000
0000
1000
0000
0000
0000
0000
0000
0000
0000
0000
0000
0000
0000
0000
0000
0000
0000
0000
0000
0000
0000
0000
0000
0000
0000
0020
0000
0000
0000
0000
0000
0000
0000
0000
0000
0000
0000
0000
0000
0000
0000
0000
0000
0000
0000
0000
0000
0000
0000
0100
0000
0000
0000
0000
0000
0000
0000
0000
0000
0000
0000
0000
0000
0000
0000
0000
0000
0000
0000
0000
0000
0000
0000
0130
0000
0000
0000
0000
0000
0000
0000
0000
0000
0000
0000
0000
0000
0000
0000
0000
0000
0000
0000
0000
0000
0000
0000
0001
0000
0000
0000
0000
0000
0000
0000
0000
0000
0000
0000
0000
0000
0000
0000
0000
0000
0000
0000
0000
0000
0000
0000
,  // measure 88
2000
3200
2300
3200
0320
2030
3020
0032
,  // measure 89
2003
0000
0000
0000
0000
0000
0000
0000
0000
0000
0000
0000
0000
0000
0000
0000
0000
0000
0000
0000
0000
0000
0000
0000
0000
0000
0000
0000
0000
0000
0000
0000
0000
0000
0000
0000
0000
0000
0000
0000
0000
0000
0000
0000
0000
0000
0000
3000
1020
0000
0000
0000
0000
0000
0000
0000
0000
0000
0000
0000
0000
0000
0000
0000
0000
0000
0000
0000
0000
0000
0000
0000
0000
0000
0000
0000
0000
0000
0000
0000
0000
0000
0000
0000
0000
0000
0000
0000
0000
0000
0000
0000
0000
0000
0000
0030
0210
0000
0000
0000
0000
0000
0000
0000
0000
0000
0000
0000
0000
0000
0000
0000
0000
0000
0000
0000
0000
0000
0000
0000
0000
0000
0000
0000
0000
0000
0000
0000
0000
0000
0000
0000
0000
0000
0000
0000
0000
0000
0000
0000
0000
0000
0000
0300
0102
0000
0000
0000
0000
0000
0000
0000
0000
0000
0000
0000
0000
0000
0000
0000
0000
0000
0000
0000
0000
0000
0000
0000
0000
0000
0000
0000
0000
0000
0000
0000
0000
0000
0000
0000
0000
0000
0000
0000
0000
0000
0000
0000
0000
0000
0000
0003
,  // measure 90
1000
0000
0000
1100
0000
0000
0001
0000
0100
0010
0100
0000
0001
0000
0000
0000
,  // measure 91
0001
0010
0001
0000
1000
0100
1000
0000
0010
0100
0010
0000
1000
0001
1000
0001
,  // measure 92
1000
0100
1000
0001
0010
0001
1000
0100
1000
0001
1000
0001
,  // measure 93
0100
0000
0000
0010
0000
0000
1000
0001
0010
0001
0010
0000
0001
0000
1000
0000
,  // measure 94
0001
0100
0001
0000
1000
0000
0010
0100
0010
0100
0001
0000
1000
0000
0010
0000
,  // measure 95
1000
0001
1000
0000
0001
0010
0001
0000
0100
0010
0100
0000
0001
1000
0001
1000
,  // measure 96
0001
0000
0000
0000
0010
0000
0000
0000
0100
0000
0000
0000
0010
0000
0000
0000
0001
0000
0000
0000
1000
0000
0000
0000
0001
0000
0000
0000
0100
0000
0000
0000
0010
0000
0000
0000
1000
0000
0000
0000
0000
0000
0001
0000
0000
0010
0000
0000
,  // measure 97
0001
0000
0000
1000
0000
0000
0001
0000
0100
0010
0100
0010
1000
0000
0001
0000
,  // measure 98
0001
0010
0100
0000
1000
0000
0000
1001
0000
0000
0001
0000
0100
0010
0100
0010
,  // measure 99
0100
0000
0001
0000
0010
0001
0010
0000
0001
1000
0001
0000
0100
0010
0100
0001
,  // measure 100
1000
1000
0100
0100
2000
0000
3020
0000
,  // measure 101
1030
0001
1000
0001
0010
0001
1000
0100
1000
0010
1000
0001
,  // measure 102
0100
0010
0100
0000
0001
1000
0001
0000
1000
0100
1000
0000
0001
0010
0001
0000
,  // measure 103
1000
0010
1000
0001
0010
0100
1000
0100
,  // measure 104
0010
0001
1000
0001
0100
0010
0100
0001
,  // measure 105
1000
0010
1000
0010
1000
0010
1000
0010
1000
0010
1000
0010
1000
0010
1000
0010
,  // measure 106
0000
0000
1000
0000
0100
0000
0010
0000
0100
1000
0001
1000
0001
0000
0000
0000
,  // measure 107
0000
0001
1000
0100
0000
1000
0001
0010
,  // measure 108
0000
0001
1000
0010
0000
1000
0010
1000
,  // measure 109
0000
0001
0100
0001
0000
1000
0100
1000
,  // measure 110
0000
0001
0010
0001
0000
0100
0010
0100
,  // measure 111
0000
0001
1000
0001
0000
1000
0100
1000
,  // measure 112
0000
0001
0010
0001
0000
0100
0010
0100
,  // measure 113
0000
0001
1000
0100
0000
1000
0001
0010
,  // measure 114
0000
0001
0010
0100
1000
0001
0100
0000
,  // measure 115
0001
0000
1000
0100
1000
0001
0000
0001
,  // measure 116
0000
0000
0010
0000
0000
0000
0010
0000
0001
0000
0100
0000
0010
1000
0001
1000
,  // measure 117
0001
0000
0001
0000
1000
0100
0010
0001
,  // measure 118
0000
1000
0010
0000
0100
0010
0100
0001
,  // measure 119
0000
1000
0100
1000
0000
0010
0000
0010
,  // measure 120
0000
0000
1000
0000
0000
0000
1000
0000
0001
0000
0100
0000
0001
1000
0001
1000
,  // measure 121
0010
0000
0100
0000
0100
0001
0000
1000
,  // measure 122
0000
0010
0100
0010
1000
0001
0010
0000
,  // measure 123
0001
1000
0001
0100
0010
0000
0100
0010
,  // measure 124
0000
0100
0001
1000
0100
0010
0001
1000
,  // measure 125
0010
0100
0010
1000
0001
0010
0001
1000
,  // measure 126
0000
1000
0100
0000
1010
0000
0110
0000
,  // measure 127
0001
0010
1000
0010
0001
0000
1000
0100
,  // measure 128
0000
0100
1000
0000
0001
0010
0100
1000
,  // measure 129
0001
0100
1000
0100
0001
0000
0010
0001
,  // measure 130
0000
1000
0001
1000
0100
0010
0001
0000
,  // measure 131
2002
0000
0000
0000
,  // measure 132
3003
0000
0000
0000
;

//---------------dance-single - ----------------
#NOTEDATA:;
#CHARTNAME:;
#STEPSTYPE:dance-single;
#DESCRIPTION:;
#CHARTSTYLE:Rajeious's Chart;
#DIFFICULTY:Hard;
#METER:16;
#RADARVALUES:0.706264,0.837782,0.153660,0.267235,0.080170,740.000000,717.000000,23.000000,40.000000,0.000000,0.000000,0.000000,0.000000,0.000000,0.706264,0.837782,0.153660,0.267235,0.080170,740.000000,717.000000,23.000000,40.000000,0.000000,0.000000,0.000000,0.000000,0.000000;
#CREDIT:Rajeious's Chart;
#NOTES:
0000
0000
0000
0000
,
0000
0000
0000
0000
,
0000
0000
0000
0000
,
0000
0000
0000
0000
,
0000
0000
0000
0000
,
0000
0000
0000
0000
,
0000
0000
0000
0000
,
0000
0000
0000
0000
,
2000
0000
3001
0010
0100
0000
1000
0010
,
0000
0100
0001
1000
0001
0000
1010
0000
,
0200
0000
0000
0310
0000
0010
0000
0100
,
0001
1000
0100
0010
0001
1000
0010
0100
,
0020
0000
1030
0100
0010
0000
0001
1000
,
0000
0010
0100
0001
1000
0000
1001
0000
,
0002
0000
0000
0103
0000
0100
0000
0010
,
0000
1000
0100
0010
0001
1000
0010
0000
,
0100
0000
0001
1000
0000
0100
0000
0010
,
0000
0001
0000
1000
0010
1000
0010
0000
,
0100
0000
0001
0000
0010
0100
0000
1000
,
0000
0001
1000
0000
0010
0100
0010
0100
,
0000
0001
1000
0100
0000
0010
0000
0001
,
0000
1000
0000
0100
1000
0100
1000
0000
,
0010
0000
0100
0000
0001
0010
0000
0100
,
0000
1000
0001
0010
0100
0010
0001
0000
,
1000
0000
1000
0100
0000
0010
0000
0001
,
0000
1000
0000
0100
1000
0100
1000
0010
,
0100
0000
0001
0000
0010
0100
1000
0001
,
0000
0100
0010
0000
1000
0001
0010
0100
,
0000
1000
0010
0100
0000
0001
0000
0010
,
0000
0100
0000
1000
0010
0100
0010
0000
,
1000
0000
0001
0010
0001
1000
0000
0100
,
0000
0010
0001
1000
0010
0100
0010
0000
,
1000
0001
0100
0001
0010
0000
0001
0100
,
0000
0100
0001
0000
1001
0000
0110
0000
,
0010
1000
0100
1000
0000
1000
0020
0000
,
0130
0010
0100
0020
0000
1030
0100
0010
,
1000
0001
0100
0010
0001
0000
1000
0001
,
0000
0001
0010
0000
0101
0000
1001
0000
,
0100
0000
0001
1000
0000
1000
0010
1000
,
0000
0010
0100
0010
1000
0001
0010
0000
,
1000
0100
0001
0100
1000
0000
0010
0100
,
0000
0100
0010
0000
1001
0000
1100
0000
,
0020
0000
1030
0001
0100
0000
0200
0000
,
0301
0010
0100
2000
0000
3010
0100
0010
,
1000
0001
0010
0100
1000
0100
1000
0010
,
0100
0001
1000
0100
0010
0001
1000
0010
,
0100
0000
0001
1000
0000
0010
0100
0010
,
0000
1000
0100
0000
1000
0001
1000
0000
,
0020
0000
0130
0010
0100
0000
0001
1000
,
1001
1100
1001
0101
,
0010
0100
0000
0100
0001
0000
1000
0000
0002
0000
0000
0000
1003
0000
0100
0000
,
1000
0000
0010
0000
0100
0000
0001
0000
0000
0000
1000
0000
0010
0100
0010
0000
,
1000
0000
1000
0001
0100
0000
0100
0010
,
1010
1010
0101
0101
,
1000
0001
0000
0001
1000
0000
0010
0000
0200
0000
0000
0000
0301
0000
1000
0000
,
0100
1000
0010
0100
0010
1000
0001
0010
,
0100
0000
1000
0000
0010
0100
0000
0001
,
0000
0001
0000
1000
0100
0000
1000
0000
,
0010
0000
0100
0000
0001
1000
0000
0100
,
0000
1000
0100
0000
1000
0001
0010
0001
,
1000
0000
0010
0100
0000
0001
0000
0001
,
0000
0100
0000
0001
0010
0000
0001
0000
,
1000
0000
0100
0000
1000
0010
0000
0100
,
0000
0001
1000
0001
0010
0100
1000
0000
,
0001
0000
0010
0001
0100
0010
0000
1000
,
0000
1000
0000
0010
1000
0001
1000
0100
,
0010
0000
0001
0000
0100
0010
0100
0001
,
0000
1000
0100
0000
0010
0001
1000
0100
,
1000
0001
0010
0001
1000
0001
0010
1000
,
0010
0001
1000
0010
1000
0001
1000
0010
,
0100
0010
0100
0000
0001
0000
1000
0000
0010
0100
0001
0000
1000
0000
1000
0000
,
0000
0000
0000
0000
,
0000
0000
0000
0000
,
0000
0000
0000
0000
,
0000
0000
0000
0000
,
0002
0010
2003
0100
,
3010
1000
0001
1000
0200
0000
1300
0100
,
0020
0001
0230
1000
,
1300
0001
1000
0001
0200
0000
0001
0000
,
0320
1000
0230
0010
,
0301
1000
0001
1000
0020
0000
0130
0001
,
2000
3200
0320
0032
,
1003
0000
0010
0000
0100
0000
0000
0001
0000
0000
1000
0000
0010
1000
0010
0000
,
2000
0001
3020
1000
,
0130
0001
0100
0001
1000
0010
0100
0001
,
0020
0001
0230
1000
,
1300
0100
0001
0100
1000
0001
0010
0001
,
2000
0001
3020
0100
,
1030
0010
0100
0001
1000
0001
0010
0100
,
2000
3200
2300
3020
,
1030
0000
0000
1000
0000
0000
0001
0000
0100
0010
0100
0000
0001
0000
0000
0000
,
0001
1000
0010
1000
0001
0100
1000
0100
,
0001
1000
0000
1000
0001
0000
0010
0000
0100
1000
0000
1000
0100
0000
1000
0000
,
0001
0000
0000
1000
0000
0000
0001
0000
0010
0000
0100
0000
1000
0000
0100
0000
,
0001
1000
0010
0100
1000
0010
0100
0001
,
1000
0100
1000
0100
0010
0001
0010
0001
,
0100
0010
0000
0010
1000
0000
0010
0000
0100
0001
0000
0001
1000
0000
0001
0000
,
0010
0000
0000
0001
0000
0000
0010
0000
0100
0000
0010
0000
0100
0000
1000
0000
,
0001
0000
1000
0000
0001
0000
0000
0100
0000
0000
0001
0000
0100
0010
0100
0000
,
0001
1000
0010
1000
0001
0100
0001
0100
,
0010
1000
0100
0010
0002
0000
2003
0000
,
3100
0010
0100
1000
0001
0100
0001
0010
,
0100
1000
0001
0100
0010
1000
0001
0010
,
0001
1000
0100
1000
0010
0100
0001
0010
,
0100
0010
0001
1000
0001
0100
0010
1000
,
0100
0000
0010
0000
0001
0000
1000
0000
0010
0000
0100
0000
0010
1000
0010
0000
,
0000
1000
0001
1000
0001
1000
0010
0000
,
0100
0000
0010
0100
0000
0001
0000
0001
,
0000
0100
0000
0010
0100
0001
1000
0000
,
0001
0000
0001
0000
0010
0001
0000
0100
,
0000
0010
1000
0000
0001
0010
0100
0010
,
0001
0000
1000
0001
0000
0100
0000
0100
,
0000
0001
0000
0010
0001
0010
0001
0000
,
1000
0000
0010
0000
0100
0001
0000
1000
,
0000
0100
0010
0001
1000
0010
0100
0000
,
0001
0000
0001
0100
0000
0001
0000
0001
,
0000
0010
0000
0010
0001
0100
0001
0000
,
1000
0000
0100
0000
0010
0001
0000
1000
,
0000
0100
0010
0000
0001
0100
0001
0100
,
0000
0010
1000
0100
0000
1000
0000
1000
,
0000
0010
0000
1000
0001
1000
0001
0000
,
0100
0000
0010
0000
0100
0010
0000
0010
,
0000
0100
0001
1000
0010
0100
0010
0000
,
1000
0001
0100
0010
1000
0000
0001
0010
,
0000
0001
0010
0000
1100
0000
1100
0000
,
0010
0100
0010
1000
0001
0000
0010
0001
,
0000
0010
0001
0000
0101
0000
0101
0000
,
1000
0100
1000
0100
1000
0000
0001
0100
,
0000
0001
0100
0000
0020
0000
0100
0000
,
1030
0001
1000
0001
0010
0000
0100
1000
,
0000
0100
1000
0000
1010
0000
0101
0000
,
2002
0000
0000
0000
,
3003
0000
0000
0000
;

//---------------dance-single - ----------------
#NOTEDATA:;
#CHARTNAME:;
#STEPSTYPE:dance-single;
#DESCRIPTION:;
#CHARTSTYLE:Rajeious's Chart;
#DIFFICULTY:Medium;
#METER:12;
#RADARVALUES:0.552604,0.656396,0.260554,0.213788,0.000000,579.000000,540.000000,39.000000,32.000000,0.000000,0.000000,0.000000,0.000000,0.000000,0.552604,0.656396,0.260554,0.213788,0.000000,579.000000,540.000000,39.000000,32.000000,0.000000,0.000000,0.000000,0.000000,0.000000;
#CREDIT:Rajeious's Chart;
#NOTES:
0000
0000
0000
0000
,
0000
0000
0000
0000
,
0000
0000
0000
0000
,
0000
0000
0000
0000
,
0000
0000
0000
0000
,
0000
0000
0000
0000
,
0000
0000
0000
0000
,
0000
0000
0000
0000
,
1000
0000
0100
1000
0100
0000
0000
1000
,
0000
0010
0000
1000
0001
0000
0100
0000
,
0110
0000
0000
1000
0000
1000
0000
0000
,
0010
1000
0100
0010
,
0002
0000
0000
0000
1003
0000
0000
0100
,
0000
1000
0000
0010
0100
0000
0001
0000
,
1010
0000
0000
0100
0000
1000
0000
0001
,
0000
0001
1000
0001
1000
0000
0001
0000
,
0001
1000
0100
1000
,
0010
0000
1000
0000
0001
0010
0001
0000
,
1000
0100
1000
0010
,
0100
0000
0001
0000
0010
0001
0010
0000
,
0001
1000
0100
1000
,
0010
0000
0100
0000
0001
1000
0001
0000
,
1000
0100
1000
0010
,
0100
0000
0001
1000
0100
0000
0010
0000
,
0001
0000
1000
0100
0000
1000
0000
0010
,
0000
0100
0000
0001
1000
0000
0100
0000
,
1000
0000
0010
0000
1000
0010
0000
0100
,
0000
0100
0001
0000
1000
0001
1000
0000
,
0010
0000
0010
0100
0000
0001
0000
1000
,
0000
1000
0000
1000
0100
0000
1000
0000
,
0010
0000
0100
0000
0001
1000
0000
1000
,
0000
0001
0010
0000
0001
0000
1000
0000
,
0100
1100
0010
0011
,
1000
0110
1000
0101
,
0002
0000
0013
0100
1000
0000
0020
0000
,
0130
0001
1000
0000
0100
0010
0001
0000
,
1000
1100
0010
0110
,
0001
0011
1000
1100
,
0001
0000
1000
0100
0000
1000
0100
0000
,
0000
0010
0100
0000
0001
1000
0001
0000
,
1000
1100
0001
0011
,
1000
1010
0010
0110
,
2000
0000
3001
0010
0001
0000
0002
0000
,
1003
0100
1000
0000
0010
0100
0010
1000
,
0001
0001
1000
1000
,
0100
0100
0010
0010
,
0001
0000
1000
0010
0000
1000
0010
0100
,
0000
0001
1000
0000
0010
0100
0010
0000
,
2000
0000
3001
0100
0001
0000
0010
0000
,
0101
0101
1100
1100
,
0010
0100
0010
0000
2000
0000
3010
0000
,
1000
0001
0010
0001
0000
1000
0100
1000
,
0100
0000
1000
0001
2000
0000
3010
0000
,
0110
0110
0101
0101
,
0010
1000
0001
0000
1000
0000
0100
0000
,
0010
0001
0010
0000
0010
0100
0010
0000
,
1001
0000
0000
0000
,
0011
0000
0000
0000
,
0110
0000
0000
0000
,
1001
0000
0000
0000
,
0011
0000
0000
0000
,
0110
0000
0000
0000
,
0011
0000
0000
0000
,
1001
0000
0000
0000
,
0001
0001
0010
0010
,
0100
0000
0100
0000
1000
0001
1000
0000
,
0010
0010
0100
0100
,
0001
0000
0001
0000
1000
0010
1000
0010
,
1000
0001
0001
0010
,
0010
0001
0001
0100
,
0100
0010
0100
0010
0100
0010
0100
0010
,
0100
0000
0000
0000
,
0000
0000
0000
0000
,
0000
0000
0000
0000
,
0000
0000
0000
0000
,
0002
0100
0203
0010
,
0301
1000
0001
0000
0100
0000
0010
0000
,
2000
0001
3020
0100
,
0130
1000
0001
0010
0002
0000
1000
0000
,
0203
0001
0320
1000
,
1030
0100
1000
0000
0001
0000
0001
0000
,
2000
3200
0320
0032
,
0103
0001
1000
0000
1000
0000
0001
1000
,
0002
0100
0203
0001
,
0301
1000
0001
1000
0020
0000
0100
0000
,
2030
0001
3020
0100
,
0130
0001
1000
0001
2000
0000
0010
0000
,
3200
0001
0320
0100
,
1030
0100
1000
0001
0020
0000
0001
0000
,
2030
3002
0203
0320
,
1030
0001
1000
0000
0010
0000
0100
0010
,
0100
0100
0010
0010
,
1000
0001
1000
0000
0100
1000
0100
0000
,
0100
0000
0010
0000
0001
1000
0001
0000
,
1000
0100
0010
0000
0100
0000
1000
0000
,
0100
1000
0100
0000
1000
0001
0010
0000
,
0001
1000
0100
0000
1000
0000
0010
0000
,
0100
0010
0010
0100
,
0001
1000
0001
0000
0100
0000
0010
0100
,
0010
1000
0100
0010
,
0001
1000
0001
0000
0100
0000
0010
0000
,
1000
0100
1000
0000
0010
0100
0010
0000
,
1000
0001
1000
0000
0010
0000
0100
0000
,
0010
1000
0010
0000
0100
0001
0100
0000
,
0100
0000
0001
0010
0001
0000
0010
0000
,
0100
1000
0100
1000
0001
0000
1000
0001
,
0000
0001
0010
0100
1000
0001
0100
0000
,
0100
0010
1001
0100
,
0001
1000
0110
0001
,
1000
0100
0011
1000
,
0100
1000
0110
0001
,
1000
0010
1100
1000
,
0001
1000
0011
0001
,
0100
0010
0110
0100
,
0001
0100
1010
0100
,
0001
0000
0010
0001
0000
0100
0000
0010
,
0000
0010
0000
1000
0001
0000
0010
0000
,
0001
0000
0001
0000
0100
0001
0000
0001
,
0000
0100
0010
0000
1000
0010
1000
0001
,
0000
0001
0100
0010
0000
0100
0000
0100
,
0000
0010
0000
1000
0001
0000
0010
0000
,
0100
0000
1000
0000
1000
0100
0000
1000
,
0000
0001
0000
0010
0001
0000
0100
0000
,
0001
0000
1000
0010
0100
0000
0001
1000
,
0000
0001
1000
0000
0010
0000
0100
0000
,
0001
0000
0010
0001
0100
0000
0010
1000
,
0000
0010
1000
0000
0001
0000
0010
0000
,
0100
0000
1000
0001
0100
0000
0010
0100
,
0000
0010
0100
0000
0001
0000
0010
0000
,
0100
0000
1000
0001
1000
0000
0001
0100
,
0000
0001
0100
0000
0001
0000
0010
0000
,
0011
0000
0000
0000
;

//---------------dance-single - ----------------
#NOTEDATA:;
#CHARTNAME:;
#STEPSTYPE:dance-single;
#DESCRIPTION:;
#CHARTSTYLE:Rajeious's Chart;
#DIFFICULTY:Easy;
#METER:8;
#RADARVALUES:0.338816,0.393838,0.100213,0.080170,0.000000,355.000000,340.000000,15.000000,12.000000,0.000000,0.000000,0.000000,0.000000,0.000000,0.338816,0.393838,0.100213,0.080170,0.000000,355.000000,340.000000,15.000000,12.000000,0.000000,0.000000,0.000000,0.000000,0.000000;
#CREDIT:Rajeious's Chart;
#NOTES:
0000
0000
0000
0000
,
0000
0000
0000
0000
,
0000
0000
0000
0000
,
0000
0000
0000
0000
,
0000
0000
0000
0000
,
0000
0000
0000
0000
,
0000
0000
0000
0000
,
0000
0000
0000
0000
,
1000
0010
0100
0000
,
0001
0000
1000
0100
,
0010
0000
0001
0000
,
1000
0100
0010
0001
,
1000
0000
0010
0100
,
0001
0000
1000
0000
,
0100
1000
0100
0010
,
0001
0000
1000
0000
,
0010
0000
1000
0000
,
0100
0010
0001
0000
,
1000
0000
0010
0000
,
1000
0001
0100
0000
,
0001
0000
0010
0000
,
0001
1000
0100
0000
,
0010
0000
1000
0000
,
0100
1000
0010
0000
,
1001
0000
0001
0000
,
1000
0100
1000
0010
,
0100
0000
0001
0000
,
1000
0100
0010
0001
,
1000
0000
0010
0000
,
1000
0001
1000
0100
,
1000
0000
0010
0000
,
0100
0001
1000
0100
,
1000
0010
0100
0001
,
1000
0000
0001
0000
,
0001
1000
0001
0001
,
0100
0100
0010
1000
,
0100
0100
0010
0001
,
1000
0000
0001
0000
,
1100
0000
0110
0000
,
1001
0000
0100
1000
,
0010
0100
0001
0010
,
0001
0000
0100
0000
,
0010
0010
0100
0100
,
0001
0010
0001
1000
,
0100
1000
0010
0100
,
0001
1000
0100
1000
,
0010
0000
0000
0000
,
1000
0000
0000
0000
,
0001
0000
1000
0000
,
0100
1000
0100
1000
,
0010
0010
0100
0100
,
0001
0000
1000
0000
,
0001
0000
1000
0000
,
0010
0100
0001
1000
,
0100
0000
1000
0000
,
0010
0100
0010
1000
,
0001
0000
0000
0000
,
1100
0000
0000
0000
,
0110
0000
0000
0000
,
1100
0000
0000
0000
,
0101
0000
0000
0000
,
0110
0000
0000
0000
,
1100
0000
0000
0000
,
1001
0000
0000
0000
,
1000
1000
0001
0001
,
0100
0000
0010
0000
,
1000
1000
0001
0001
,
0010
0000
0001
0000
,
1000
0100
1000
0010
,
0100
0001
0010
0001
,
1000
0100
0010
0001
,
1000
0000
0000
0000
,
0000
0000
0000
0000
,
0000
0000
0000
0000
,
0000
0000
0000
0000
,
2000
0000
3020
0000
,
0130
0010
0100
0001
,
2000
0000
3002
0000
,
0103
0100
0010
0010
,
2000
0000
3002
0000
,
1003
0100
1000
0100
,
0010
0001
0100
0100
,
0001
0000
0000
0000
,
2000
0000
3020
0000
,
0130
0001
1000
0100
,
0002
0000
2003
0000
,
3010
0100
0001
1000
,
0002
0000
0023
0000
,
0031
0010
0001
1000
,
0010
0010
1000
1000
,
0001
0000
0000
0000
,
1000
1000
0100
0100
,
0010
0010
0001
0000
,
1000
1000
0001
0001
,
0100
0010
0010
0000
,
1000
0100
1000
0100
,
0010
0001
0010
0001
,
1000
0000
0001
0000
,
0100
0000
0001
0000
,
1000
1000
0001
0001
,
0100
0100
0010
0010
,
1000
0000
0001
0000
,
1000
1000
0010
0100
,
0001
0001
1000
1000
,
0100
0010
0001
0010
,
0100
1000
0001
0100
,
0000
0000
0000
0000
,
1000
0100
0010
0000
,
1000
0001
1000
0000
,
0001
0100
0001
0000
,
1000
0100
0010
0000
,
0001
1000
1000
0000
,
0001
0001
0010
0000
,
1000
0100
1000
0000
,
1000
0001
0001
0000
,
1100
0000
0010
0100
,
0010
0000
1000
0000
,
1100
0000
0001
0010
,
0001
0000
0100
0000
,
0110
0000
1000
0001
,
1000
0000
0001
0000
,
0110
0000
1000
0100
,
1000
0000
0010
0000
,
0100
0000
0001
0000
,
1000
0100
0010
0000
,
0001
0000
1000
0000
,
0010
1000
0100
0000
,
0010
0001
1000
0000
,
0100
1000
0010
0000
,
1000
0001
0010
0100
,
1000
0001
1000
0100
,
1000
0000
0000
0000
;

//---------------dance-single - ----------------
#NOTEDATA:;
#CHARTNAME:;
#STEPSTYPE:dance-single;
#DESCRIPTION:;
#CHARTSTYLE:Rajeious's Chart;
#DIFFICULTY:Beginner;
#METER:5;
#RADARVALUES:0.224287,0.350078,0.066809,0.187064,0.000000,235.000000,225.000000,10.000000,28.000000,0.000000,0.000000,0.000000,0.000000,0.000000,0.224287,0.350078,0.066809,0.187064,0.000000,235.000000,225.000000,10.000000,28.000000,0.000000,0.000000,0.000000,0.000000,0.000000;
#CREDIT:Rajeious's Chart;
#NOTES:
0000
0000
0000
0000
,
0000
0000
0000
0000
,
0000
0000
0000
0000
,
0000
0000
0000
0000
,
0000
0000
0000
0000
,
0000
0000
0000
0000
,
0000
0000
0000
0000
,
0000
0000
0000
0000
,
1000
0000
0000
0000
,
0001
0000
0000
0000
,
0100
0000
0010
0000
,
1000
0000
0000
0000
,
0001
0000
0000
0000
,
0010
0000
0000
0000
,
0001
0000
1000
0000
,
0001
0000
0000
0000
,
1000
0000
0000
0000
,
1000
0000
0000
0000
,
0010
0000
0000
0000
,
0010
0000
0000
0000
,
0100
0000
0000
0000
,
0100
0000
0000
0000
,
0100
0000
0000
0000
,
0001
0000
0000
0000
,
1000
0000
0000
0000
,
0001
0000
0100
0000
,
0001
0000
0000
0000
,
1000
0000
0010
0000
,
0100
0000
0000
0000
,
0001
0000
1000
0000
,
0001
0000
0000
0000
,
0100
0000
0010
0000
,
1000
0000
1000
0000
,
0100
0000
0100
0000
,
0010
0000
0010
0000
,
0001
0001
0001
0000
,
1000
0000
1000
0000
,
0001
0000
0001
0000
,
0100
0000
0010
0000
,
1000
0000
1000
1000
,
0001
0000
1000
0000
,
0001
0000
0100
0000
,
0010
0000
1000
0000
,
0100
0000
1000
0000
,
0100
0100
1000
0000
,
0001
0001
0010
0000
,
1001
0000
0000
0000
,
1100
0000
0000
0000
,
0001
0000
0100
0000
,
0001
0001
0010
0000
,
1000
0000
0001
0000
,
1000
1000
0010
0000
,
0100
0000
0010
0000
,
0010
0010
0100
0000
,
1000
0000
1000
0000
,
0001
0001
0010
0000
,
2000
0000
0000
0000
,
0010
0000
0000
0000
,
3002
0000
0000
0000
,
1000
0000
0000
0000
,
0203
0000
0000
0000
,
0001
0000
0000
0000
,
0320
0000
0000
0000
,
1000
0000
0000
0000
,
1030
0000
0001
0000
,
1000
0000
0010
0010
,
0100
0000
0001
0000
,
1000
0000
0001
0010
,
0010
0000
0001
0000
,
1000
0000
0100
0100
,
1000
0000
0010
0000
,
0100
0000
0000
0000
,
0000
0000
0000
0000
,
0000
0000
0000
0000
,
0000
0000
0000
0000
,
2000
0000
3002
0000
,
0203
0000
0320
0000
,
2030
0000
3200
0000
,
1300
0001
2000
0000
,
3002
0000
0203
0000
,
0320
0000
2030
0000
,
3002
0000
0203
0000
,
0301
0000
1000
1000
,
2000
0000
3002
0000
,
0023
0000
0230
0000
,
2300
0000
3020
0000
,
1030
1000
0002
0000
,
0203
0000
0320
0000
,
2030
0000
3002
0000
,
1003
0000
0100
0000
,
1000
0000
0000
0000
,
0010
1000
1000
0000
,
0001
0000
0010
0000
,
0001
0001
1000
0000
,
1000
0000
0010
0000
,
0100
0100
0100
0000
,
0010
0010
0010
0000
,
1000
0000
0001
0000
,
0100
0010
0000
0010
,
1000
0000
0001
0000
,
0100
0010
0010
0000
,
1000
0000
0001
0000
,
0010
0010
0001
0000
,
1000
1000
0001
0000
,
0010
0010
0100
0000
,
0001
0001
1000
0000
,
0010
0010
1000
1000
,
1000
0000
0000
0000
,
0001
0000
0000
0000
,
1000
0000
0000
0000
,
0100
0000
0000
0000
,
0010
0000
0000
0000
,
0100
0000
0000
0000
,
1000
0000
0000
0000
,
0010
0000
0000
0000
,
1010
0000
0000
0000
,
0110
0000
0000
0000
,
1001
0000
0000
0000
,
1100
0000
0000
0000
,
0101
0000
0000
0000
,
0011
0000
0000
0000
,
1001
0000
0000
0000
,
1100
0000
0000
0000
,
0010
0000
1000
0000
,
0001
0001
0010
0000
,
1000
0000
0001
0000
,
0100
0100
0010
0000
,
1000
0000
0001
0000
,
1000
1000
0010
0000
,
1000
0000
0001
0000
,
0010
0010
0001
0000
,
1000
0000
0000
0000
;
