#TITLE:Adventure;
#SUBTITLE:;
#ARTIST:YOASOBI;
#TITLETRANSLIT:;
#SUBTITLETRANSLIT:;
#ARTISTTRANSLIT:;
#GENRE:;
#CREDIT:;
#BANNER:AV.avi;
#BACKGROUND:bg.png;
#LYRICSPATH:;
#CDTITLE:;
#MUSIC:audio.ogg;
#OFFSET:-0.469000;
#SAMPLESTART:85.771278;
#SAMPLELENGTH:15.000003;
#SELECTABLE:YES;
#BPMS:0.000000=128.000000
;
#STOPS:
;
#BGCHANGES:0.000=MV.avi=1.400=1=0=1===CrossFade==,
3.000=MV.avi=1.000=0=0=1=====,
99999=-nosongbg-=1.000=0=0=0 // don't automatically add -songbackground-
;
#KEYSOUNDS:;
#ATTACKS:;

//---------------dance-single - ----------------
#NOTES:
     dance-single:
     :
     Challenge:
     15:
     0.614426,0.656400,0.035722,0.500114,0.446531,602.000000,597.000000,5.000000,70.000000,0.000000,0.000000,0.614426,0.656400,0.035722,0.500114,0.446531,602.000000,597.000000,5.000000,70.000000,0.000000,0.000000:
// measure 0
0000
0000
1000
0000
0001
0000
0100
0000
0010
0000
0100
0000
0002
0000
0000
1003
,  // measure 1
0000
0000
0002
0000
0000
0000
1003
0000
0010
0000
1000
0000
0200
0000
0000
0310
,  // measure 2
0000
0000
0002
0000
0000
0003
1000
0000
0100
0000
1000
0000
0020
0000
0000
0130
,  // measure 3
0000
0000
0002
0000
0000
0000
1003
0000
0100
0000
0010
0000
0200
0000
0000
0310
,  // measure 4
0000
0001
1000
0010
0000
1000
0001
1000
,  // measure 5
0010
0200
0000
0301
1000
0100
0010
0001
,  // measure 6
1000
0000
0001
0000
0000
0000
0001
0000
0100
0000
0010
0000
2000
0000
0000
3001
,  // measure 7
0000
0000
0200
0000
0300
0000
0001
0000
0010
0000
0001
0000
2000
0000
0000
3010
,  // measure 8
0000
0000
1000
0000
0100
0000
1000
0000
0200
0000
0000
0000
0310
0000
0001
1000
,  // measure 9
0000
1000
0020
0000
0000
0000
1030
0000
1000
0100
0010
0000
0002
0000
0000
2003
,  // measure 10
0000
0000
3020
0000
0000
0000
1030
0000
0100
0000
1000
0000
0010
0000
0100
0001
,  // measure 11
0000
0001
0200
0000
0000
0000
0301
0000
0001
0010
0100
0000
0020
0000
0000
0032
,  // measure 12
0000
0000
0203
0000
0000
0000
0301
0000
0100
0000
0010
1000
0100
0000
0010
0001
,  // measure 13
0100
0000
0010
1000
0100
0000
1000
0000
0001
0000
0100
0000
0020
0000
0000
1030
,  // measure 14
0000
0000
0001
0000
0020
0000
0000
0000
0031
0000
0001
0010
0100
0000
1000
0010
,  // measure 15
0100
0000
0001
1000
0100
0000
1000
0000
0001
0000
1000
0000
0020
0000
0000
0130
,  // measure 16
0000
0000
0002
0000
0000
0000
0013
0000
0100
0000
1000
0001
0010
0000
0001
0100
,  // measure 17
0010
0000
0100
0001
0010
0000
0001
0000
0100
0000
0001
1000
0200
0000
0000
0310
,  // measure 18
0000
0001
1000
0010
0100
0001
0010
0002
,  // measure 19
1003
0000
0002
0000
1003
0000
0010
0000
0100
0010
1000
0000
0010
0000
0100
0010
,  // measure 20
0100
0000
0001
1000
0100
1000
0001
1000
0010
0000
0100
0001
0100
0000
0001
0010
,  // measure 21
0001
0000
1000
0100
1000
0000
0001
0100
0000
0010
0000
1000
0000
0001
0010
0100
,  // measure 22
1000
0000
0001
1000
0002
0000
0000
1003
0100
0000
1000
0000
0001
0000
0001
0100
,  // measure 23
0001
0000
1000
0010
2000
0000
0000
3001
0100
0000
0001
0000
1000
0000
0010
1000
,  // measure 24
0100
0000
1000
0000
0001
0000
0100
0000
0101
0000
0001
1000
0010
0000
1000
0001
,  // measure 25
0100
0000
0001
1000
0010
0000
1000
0001
0000
0100
0000
0010
0000
1000
0001
1000
,  // measure 26
0010
0000
0100
0010
2000
0000
0000
3001
1000
0000
0001
0010
0100
0000
0010
0001
,  // measure 27
1000
0010
0100
0001
0010
1000
0010
0100
,  // measure 28
1000
0010
0100
0001
2000
0000
3001
0000
,  // measure 29
0001
0000
0001
0000
0001
0000
0001
1000
,  // measure 30
0010
1000
0001
0000
0100
0000
0001
0000
1000
0000
0010
0000
1000
0000
0000
0000
,  // measure 31
1000
0000
1000
0000
1000
0000
1000
0001
,  // measure 32
1000
0010
1000
0000
0001
0000
0100
0000
0010
0000
0100
0000
0001
0000
1000
0100
,  // measure 33
0010
0000
0001
0000
1000
0000
0010
0000
0110
0000
0000
0000
1000
0000
0001
1000
,  // measure 34
0010
0000
1000
0000
0001
0000
0100
0000
0101
0000
0000
0000
1000
0000
0001
1000
,  // measure 35
0010
0000
1000
0000
0001
0000
0100
0000
1000
0000
0100
0000
0001
0000
0000
0100
,  // measure 36
0000
0000
0010
0000
0000
0000
0000
0000
1000
0000
0100
0000
2000
0000
0000
3010
,  // measure 37
0000
0000
0100
0000
0002
0000
0000
0013
0000
0000
0100
0000
2000
0000
0000
3010
,  // measure 38
0000
0200
0000
0000
0301
0000
0000
0000
0010
0000
0001
0000
2000
0000
0000
3010
,  // measure 39
0000
0000
0100
0000
0002
0000
0000
0013
0000
0000
0001
0000
2000
0000
0000
3100
,  // measure 40
0000
0000
1000
0000
0020
0000
0000
0000
0130
0000
0100
0000
0001
0000
1000
0100
,  // measure 41
0000
1000
0000
0010
0000
0000
0100
0000
0001
1000
0001
0000
0010
0000
0000
0001
,  // measure 42
0000
0000
0100
0000
0000
0000
0100
0000
0001
0000
1000
0000
0010
0000
0100
0010
,  // measure 43
0000
0010
0000
1000
0000
0000
1000
0000
0010
0000
1000
0000
0001
0000
0001
0100
,  // measure 44
0000
0010
0000
1000
0000
0000
1000
0000
0100
0000
1000
0000
0004
0000
0000
0000
,  // measure 45
0000
0000
0000
0000
1003
0000
0000
0000
1000
0001
1000
0001
0100
0000
0010
1000
,  // measure 46
0020
0000
0100
0000
1030
0000
0001
0010
0200
0000
1000
0000
0310
0000
1000
0001
,  // measure 47
2000
0000
0001
0000
3010
0000
0001
0000
1000
0000
0100
0000
0010
0000
0001
1000
,  // measure 48
0001
0000
0200
0000
0010
0000
0301
0000
1000
0000
0010
0000
0100
0000
0010
1000
,  // measure 49
0001
0000
0010
0000
0200
0000
0000
0000
1300
0000
1000
0000
0010
0000
1000
0100
,  // measure 50
2000
0000
0001
0000
3010
0000
1000
0001
0020
0000
0100
0000
0031
0000
0001
1000
,  // measure 51
0200
0000
1000
0000
0310
0000
0001
1000
0020
0000
0000
0000
1030
0000
0010
0100
,  // measure 52
0010
0000
1000
0000
0001
0000
0100
0000
1000
0000
0100
0000
0001
0000
1000
0001
,  // measure 53
1000
0000
0010
0000
0100
1000
0100
1000
0100
0001
0100
0001
1000
0000
0001
0100
,  // measure 54
0010
0000
1000
0000
0001
0000
0100
0000
0101
0000
0001
0000
0010
0000
0001
0100
,  // measure 55
0010
0000
0100
0000
0001
0000
1000
0000
1001
0000
0010
0000
0100
0000
0001
1000
,  // measure 56
0100
0000
1000
0000
0001
0000
0100
0000
0010
0000
0100
0000
0001
0000
1000
0100
,  // measure 57
1000
0000
0001
0000
0020
0000
0000
0000
0031
0000
1000
0000
0100
0000
1000
0010
,  // measure 58
0200
0000
0001
0000
0310
0000
1000
0100
0020
0000
0001
0000
0130
0000
0001
1000
,  // measure 59
0020
0000
0100
0000
2030
0000
0000
0000
3001
0000
1000
0000
0010
0000
1000
0100
,  // measure 60
1000
0002
0000
0103
0010
1000
0010
0100
,  // measure 61
0001
0000
0100
0000
0010
1000
0010
1000
0100
1000
0100
1000
0001
0000
0100
0000
,  // measure 62
0010
0000
2000
0000
0100
0000
3001
0000
0010
0000
0001
0000
0100
0000
0010
0100
,  // measure 63
0001
0000
2000
0000
0000
0000
3001
0000
0010
0000
0001
0000
1000
0000
0010
1000
,  // measure 64
0010
0000
0200
0000
0001
0000
0310
0000
1000
0000
0001
0000
0010
0000
0001
1000
,  // measure 65
0001
0100
0010
1000
0100
1000
0010
0001
,  // measure 66
0010
0000
0200
0000
0010
0000
0301
0000
1000
0000
0100
0000
0010
0000
0100
0010
,  // measure 67
0001
0000
2000
0000
0000
0000
3001
0000
0010
0000
0001
0000
0100
0000
0001
0010
,  // measure 68
0100
0000
2000
0000
0000
0000
3100
0000
0010
0000
0100
0000
2000
0000
0000
3001
,  // measure 69
0000
0000
0010
0000
0001
0000
0010
0000
0002
0000
0000
0000
1003
0000
0001
0100
,  // measure 70
0000
0100
0020
0000
0000
0000
1030
0000
1000
0100
0010
0000
0002
0000
0000
2003
,  // measure 71
0000
0000
3020
0000
0000
0000
1030
0000
0100
0000
1000
0000
0010
0000
0100
0001
,  // measure 72
0000
0001
0020
0000
0000
0000
0031
0000
0010
0100
1000
0000
0002
0000
0000
0023
,  // measure 73
0000
0230
0000
0000
0300
0000
0000
0000
;

//---------------dance-single - ----------------
#NOTES:
     dance-single:
     :
     Hard:
     11:
     0.521548,0.498864,0.128601,0.385802,0.228624,511.000000,493.000000,18.000000,54.000000,0.000000,0.000000,0.521548,0.498864,0.128601,0.385802,0.228624,511.000000,493.000000,18.000000,54.000000,0.000000,0.000000:
0000
0000
1000
0000
0100
0000
1000
0000
0010
0000
0100
0000
0001
0000
0000
0100
,
0000
0000
0010
0000
0000
0000
1000
0000
0001
0000
1000
0000
0010
0000
0000
0100
,
0000
0000
0001
0000
0000
0000
0010
0000
0001
0000
0100
0000
0001
0000
0000
1000
,
0000
0000
0010
0000
0000
0000
1000
0000
0100
0000
1000
0000
0001
0000
0000
0100
,
0000
0001
0100
0010
0000
1000
0100
1000
,
0001
0100
0000
0100
0001
0010
0100
0010
,
0001
0000
1000
0000
0000
0000
1000
0000
0010
0000
0100
0000
0001
0000
0000
0100
,
0000
0000
0010
0000
0000
0000
1000
0000
0001
0000
1000
0000
0100
0000
0000
0010
,
0000
0000
0100
0000
1000
0000
0100
0000
1000
0000
0000
0000
0001
0000
0100
0001
,
0000
0001
0100
0000
0000
0000
0001
0000
0010
0000
0100
0000
1000
0000
0000
1000
,
0000
0000
0001
0000
0000
0000
1000
0000
0010
0000
0100
0000
0001
0000
1000
0010
,
0000
0010
1000
0000
0000
0000
1000
0000
0001
0000
0100
0000
0010
0000
0000
0010
,
0000
0000
0100
0000
0000
0000
0100
0000
0001
0000
0100
0001
0010
0000
0001
0000
,
1000
0000
0100
0010
0001
0000
1000
0000
0001
0000
0010
0000
0001
0000
0000
0000
,
0001
0000
0000
0000
1000
0000
0000
0000
0010
0000
1000
0010
0100
0000
0001
0000
,
0010
0000
0100
1000
0010
0000
0100
0000
0001
0000
0100
0000
0010
0000
0000
0000
,
0010
0000
0000
0000
0100
0000
0000
0000
0100
0000
0001
1000
0100
0000
1000
0000
,
0001
0000
1000
0001
1000
0000
0010
0000
0100
0000
0001
0000
0010
0000
0000
0000
,
0010
0000
0001
0000
0001
0000
1000
0020
,
0130
0020
0130
0000
0001
1000
0100
1000
,
0010
0100
1000
0000
0100
0000
0010
0000
1000
0000
0000
0000
0001
0000
0100
0001
,
1000
0000
0010
0000
1000
0000
0100
0000
0010
0000
0001
0000
1000
0000
0100
1000
,
0001
0100
0010
1000
0100
0010
0001
1000
,
0010
1000
0001
0100
0010
0100
0001
0010
,
0100
0000
0010
0000
0001
0000
0100
0000
0010
0000
1000
0001
0100
0000
0010
0000
,
1000
0000
0100
0000
0010
0000
0001
0000
1000
0000
0010
0000
1000
0000
0001
0100
,
0010
0000
1000
0000
0100
0000
0010
0000
0001
0000
1000
0000
0010
0000
1000
0001
,
1000
0010
0100
0001
0010
0100
0010
0001
,
1000
0010
1000
0001
0200
0000
0301
0000
,
0001
0000
0001
0000
0001
0000
0001
0010
,
0100
1000
0010
1000
0001
0100
0010
0000
,
0010
0000
0010
0000
0010
0000
0010
1000
,
0100
1000
0100
0010
0001
1000
0010
0000
,
1100
0000
1000
0000
1001
0000
0010
1000
,
0100
1000
0001
0100
0010
0100
0001
0000
,
1001
0000
0000
0000
1000
0000
0100
0000
1000
0000
0010
0000
0100
0000
0000
0001
,
0000
0100
0000
0000
0001
0100
0020
0000
,
0130
0000
0200
0000
0310
0000
1000
0001
,
1000
0010
0100
0000
0001
0000
2000
0000
,
3001
0000
0002
0000
1003
0000
0010
0100
,
0001
0000
1000
0000
0100
0000
0000
0000
1000
0000
1000
0000
0002
0000
0000
1003
,
0000
0000
0001
0000
0200
0000
0000
0310
0000
0000
0100
0000
0002
0000
0000
1003
,
0000
0000
0010
0000
2000
0000
0000
0000
3002
0000
0000
0000
0203
0000
0000
0320
,
0000
0000
0230
0000
0000
0000
0301
0000
0001
0000
0100
0000
0002
0000
0000
2003
,
0000
0000
3010
0000
0200
0000
0000
0301
0000
0000
0010
0000
0200
0000
0000
0000
,
0000
0000
0000
0000
1300
0000
0000
0000
0100
0000
1000
0000
0001
0000
0000
1002
,
0000
0000
0013
0000
0001
0000
0000
2001
0000
0000
3010
0000
1000
0000
0000
2100
,
0000
0000
3001
0000
0020
0000
0000
0000
0031
0000
0100
0000
0010
0000
0000
0200
,
0000
0000
0310
0000
1000
0000
0100
0000
0010
0000
0001
0000
2000
0000
0000
3002
,
0000
0000
0103
0000
0010
0000
0000
0000
0100
0000
0001
0000
0010
0000
0000
0012
,
0000
0000
0103
0000
0010
0000
0000
0120
0000
0000
0130
0000
1000
0000
0000
2010
,
0000
0000
3010
0000
0200
0000
0000
0300
0001
0000
0100
0000
0010
0000
1000
0000
,
0001
0020
0000
0031
0100
0010
0100
0001
,
1000
0000
0010
0000
0100
0001
0100
0000
0010
1000
0010
0000
0100
0000
0000
0102
,
0000
0000
0103
0000
0010
0000
0000
2010
0000
0000
3010
0000
0100
0000
0000
0102
,
0000
0000
0013
0000
0200
0000
0000
0000
1300
0000
0001
0000
1000
0000
0000
0020
,
0000
0000
0130
0000
0001
0000
0010
0000
1000
0000
0010
0000
0001
0000
0000
0100
,
0000
0010
0000
0000
1000
0000
0000
0000
0100
0000
1000
0000
0010
0000
0000
2010
,
0000
0000
3001
0000
0100
0000
0000
0120
0000
0000
0130
0000
0001
0000
0000
2010
,
0000
3100
0010
0000
0010
0001
0010
0100
,
1000
0002
0000
0013
0100
0010
0001
1000
,
0010
0000
1000
0000
0100
1000
0100
0000
0100
0001
0100
0000
1001
0000
0000
0100
,
0000
0000
0002
0000
0000
0000
0103
0000
0010
0000
1000
0000
0001
0000
1000
0100
,
0010
0000
0002
0000
0000
0000
0103
0000
0010
0000
0100
0000
0001
0000
0000
1000
,
0000
0020
0000
0130
0002
0000
1003
0001
,
0010
0100
2000
0000
3100
1000
0001
1000
,
0010
0000
0200
0000
0000
0000
0310
0000
1000
0000
0001
0000
0010
0000
0001
1000
,
0010
0000
0200
0000
0000
0000
0310
0000
1000
0000
0001
0000
0100
0000
0001
1000
,
0010
0000
2000
0000
0000
0000
3100
0000
0010
0000
0100
0000
2000
0000
0000
3001
,
0000
0000
0100
0000
0001
0000
0100
0000
0002
0000
0000
0000
0103
0000
0010
1000
,
0000
1000
0020
0000
0000
0000
1030
0000
0100
0000
0010
0000
0001
0000
0000
0001
,
0000
0000
2000
0000
0000
0000
3001
0000
0100
0000
0010
0000
1000
0000
0001
0100
,
0000
0100
0020
0000
0000
0000
0130
0000
0001
0000
1000
0000
0010
0000
0000
1010
,
0000
1002
0000
0000
0003
0000
0000
0000
;

//---------------dance-single - ----------------
#NOTES:
     dance-single:
     :
     Medium:
     8:
     0.438876,0.417953,0.114312,0.407236,0.017861,430.000000,414.000000,16.000000,57.000000,0.000000,0.000000,0.438876,0.417953,0.114312,0.407236,0.017861,430.000000,414.000000,16.000000,57.000000,0.000000,0.000000:
0000
0000
0000
2000
,
3001
0000
0200
0000
0301
0000
0100
0001
,
0100
0010
1000
0002
,
0013
0000
0200
0000
0310
0000
0001
1000
,
0010
0000
0200
0000
0310
0000
0100
0001
,
0010
0000
0001
1000
0100
0000
1000
0001
,
1000
0010
0000
0100
0001
0100
0020
0000
,
0130
0000
0200
0000
0310
0000
1000
0001
,
1000
0000
0001
0100
0002
0000
0013
0000
,
0100
0000
0000
0000
0010
0000
0100
0000
0010
0000
0000
0000
0001
0000
0000
0001
,
0000
0002
0000
0103
0010
0100
0002
0000
,
1003
0000
0000
0000
2000
0000
0000
0000
3010
0000
0000
0000
0100
0000
0000
0100
,
0000
0100
0000
1000
0010
1000
0001
0100
,
0001
1000
0100
1000
0010
0100
0002
0000
,
0013
0000
0200
0000
0310
0000
0001
1000
,
0001
1000
0010
1000
0100
0010
0002
0000
,
0103
0000
0200
0000
0301
0000
0100
0001
,
0100
0001
0010
0001
1000
0010
0200
0000
,
0310
0000
1000
0100
1000
0000
0002
0000
,
0103
0000
2000
0000
3100
0000
0001
1000
,
0001
0100
0010
0100
0001
0000
1001
0000
,
0110
0000
1000
0100
1000
0100
0020
0000
,
0130
0110
1001
1010
,
1010
0000
1000
0001
0100
0001
0020
0000
,
0031
0002
0013
0011
,
1100
0000
0001
1000
0010
0100
0002
0000
,
1003
0000
1100
0000
0011
0000
0001
1000
,
0010
0000
1000
0100
0010
0000
0001
0010
,
0100
0010
0002
0000
1003
0000
0010
0000
,
0010
0000
0010
0000
0010
0000
0010
1000
,
0100
1000
0001
0100
0010
0100
0001
0000
,
0001
0000
0001
0000
0001
0000
0001
1000
,
0100
1000
0100
0010
0100
1000
0010
0000
,
0010
0000
0010
0000
0010
0100
0002
0000
,
1003
0100
0010
0001
0010
0100
1000
0000
,
1000
0000
0000
0000
0001
0000
0100
0000
0010
0000
0100
0000
0001
0000
0000
1000
,
0000
0001
0000
0000
0100
0001
0200
0000
,
0310
0020
0130
0002
,
1003
0001
1000
0000
0010
0000
2000
0000
,
3010
0020
1030
0002
,
1003
0100
0010
0000
0001
0000
1000
0010
,
1000
0010
0100
0000
0100
0000
0100
0001
,
0010
0100
1000
0000
1000
0000
0001
0100
,
0010
0100
0001
0000
0001
0010
0100
1000
,
0100
0010
0001
0100
0010
0100
0002
0000
,
0000
0000
1003
0000
0010
1000
0200
0000
,
0310
0001
0200
0000
0310
1000
0200
0000
,
1300
0001
0200
0000
0310
1000
0002
0000
,
2003
0000
3001
0010
0100
1000
0020
0000
,
2030
0000
3002
0000
0103
0001
0020
0000
,
0130
1000
0002
0000
1003
0010
0200
0000
,
0301
1000
0020
0000
1030
0100
0010
0001
,
1000
0010
1000
0100
0010
0100
1000
0010
,
0100
0001
0100
0000
0010
1000
0002
0000
,
0013
0100
2000
0000
3010
1000
0001
0100
,
0010
0100
0001
0000
1000
0100
2000
0000
,
3020
0000
0130
0001
0010
0100
2000
0000
,
3001
0000
0002
0000
0103
0010
0200
0000
,
0301
1000
0200
0000
0310
0001
1000
0010
,
0100
0001
0010
0000
0001
0100
0001
1000
,
0100
1000
0020
0000
0130
0000
0001
1000
,
0001
1000
0010
0100
0010
0100
0002
0000
,
0013
0000
0020
0000
0130
0000
0010
0100
,
1000
0000
1100
0000
0101
0000
0001
0100
,
0010
0000
1010
0000
1001
0000
1000
0100
,
0010
0100
1000
0000
1000
0000
0001
0100
,
0010
0100
0002
0000
0013
0000
0100
0010
,
0001
1000
0010
0000
0010
0000
1000
0001
,
0100
0000
0011
0000
1100
0000
0001
1000
,
0010
0100
0001
0100
0020
0000
1030
0000
,
0001
0000
0000
0000
1000
0000
0100
0000
0010
0000
0001
0000
1000
0000
0000
0010
,
0000
1000
0000
0001
0100
0001
0100
0000
,
0001
0000
0000
0000
1000
0000
0010
0000
1000
0000
0001
0000
0100
0000
0000
0100
,
0000
0010
0000
0000
0000
0000
0000
0000
;

//---------------dance-single - ----------------
#NOTES:
     dance-single:
     :
     Easy:
     4:
     0.236789,0.262560,0.014289,0.192901,0.000000,232.000000,230.000000,2.000000,27.000000,0.000000,0.000000,0.236789,0.262560,0.014289,0.192901,0.000000,232.000000,230.000000,2.000000,27.000000,0.000000,0.000000:
0000
0000
0000
1000
,
0000
1000
0000
0001
,
0100
0001
0000
0010
,
0000
0010
0000
0100
,
0010
0100
0000
1000
,
0001
1000
0000
0010
,
0100
0001
0000
0100
,
0010
1000
0000
0001
,
1000
0001
0100
0002
,
0000
0013
0000
0100
,
0010
0001
1000
0010
,
1000
0100
0010
0001
,
0000
0001
0000
1000
,
0001
1000
0010
0200
,
0000
0310
0000
1000
,
0100
1000
0010
0200
,
0000
0301
0000
1000
,
0001
1000
0001
0200
,
0000
0310
1000
0100
,
0000
0100
1000
0001
,
0100
0010
0100
0001
,
0001
1000
1000
0100
,
0010
0001
0001
0100
,
0100
0010
0010
1000
,
0100
0100
1000
0001
,
0001
1000
1000
0010
,
1000
0100
0100
0010
,
0001
1000
1000
0001
,
0100
0010
0100
0001
,
0001
0001
0001
1000
,
0100
2000
0000
3010
,
0010
0010
0010
0100
,
0001
2000
0000
3100
,
0100
0100
0100
1000
,
0001
1000
0010
0100
,
0100
0001
0001
2000
,
0000
3001
0000
0020
,
0000
0000
0000
0032
,
0000
0000
0000
2003
,
0000
0000
0000
3002
,
0000
0000
0000
0103
,
0100
0010
0010
1000
,
1000
0001
0001
1000
,
0001
0100
0010
0100
,
0001
0010
0100
2000
,
0000
0000
0000
3001
,
0001
1000
1000
0010
,
0100
0002
0000
0013
,
0100
1000
0001
1000
,
0010
0200
0000
0301
,
0010
0100
0010
0001
,
1000
0020
0000
2030
,
0000
3002
0000
0103
,
0001
0100
0010
1000
,
1010
0000
1000
0001
,
0100
0101
0000
0001
,
1000
0010
1000
0100
,
0010
0001
0000
1000
,
0001
1000
0010
0100
,
0100
0001
0000
1000
,
0100
1000
0001
0010
,
0100
1000
0001
2000
,
0000
3002
0000
0103
,
0001
0010
0100
2000
,
0000
3020
0000
0130
,
0001
1000
0001
0020
,
0000
0230
0000
1300
,
0001
1000
0010
0100
,
0001
0010
0100
1000
,
0001
1000
0010
0200
,
0000
0310
0000
0020
,
0000
0130
0000
0002
,
0000
1003
0000
2000
,
0000
0000
3000
0000
;

//---------------dance-single - ----------------
#NOTES:
     dance-single:
     :
     Beginner:
     2:
     0.123498,0.157000,0.000000,0.135745,0.000000,121.000000,121.000000,0.000000,19.000000,0.000000,0.000000,0.123498,0.157000,0.000000,0.135745,0.000000,121.000000,121.000000,0.000000,19.000000,0.000000,0.000000:
0000
0000
0000
1000
,
0000
0000
0000
0001
,
0000
0000
0000
0100
,
0000
0000
0000
0010
,
0000
0000
0000
0100
,
0000
0000
0000
0010
,
0000
0000
0000
1000
,
0000
0000
0000
0001
,
0000
0000
0000
0100
,
0000
0000
0000
0100
,
0000
0000
0000
0010
,
0000
0000
0000
0010
,
0000
0000
0000
1000
,
0000
1000
0000
0002
,
0000
0103
0000
0100
,
0000
0100
0000
0020
,
0000
1030
0000
1000
,
0000
1000
0000
0002
,
0000
1003
0000
2000
,
0000
3001
0000
0100
,
0000
0100
0000
0001
,
0000
0001
0000
0010
,
0000
0010
0000
0001
,
0000
0001
0000
2000
,
0000
3001
0000
0001
,
0000
0001
0000
0100
,
0000
0100
0000
0010
,
0000
0010
0000
1000
,
0000
0100
0000
2000
,
0000
0000
0000
3001
,
0000
0001
0000
0002
,
0000
0000
0000
0103
,
0000
0100
0000
0010
,
0000
0010
0000
1000
,
0000
1000
0000
0001
,
0000
0001
0000
0200
,
0000
0000
0000
0310
,
0000
0000
0000
1000
,
0000
0000
0000
0100
,
0000
0000
0000
1000
,
0000
0000
0000
0001
,
0000
0000
0000
0100
,
0000
0000
0000
0010
,
0000
0000
0000
1000
,
0000
0000
0000
0002
,
0000
0000
0000
0103
,
0000
0100
0000
0020
,
0000
0000
0000
1030
,
0000
1000
0000
0001
,
0000
1000
0000
0100
,
0000
1000
0000
0002
,
0000
0103
0000
0100
,
0000
1000
0000
0010
,
0000
1000
0000
0002
,
0000
0000
0000
0203
,
0000
0000
0000
0302
,
0000
0000
0000
1003
,
0000
1000
0000
0010
,
0000
0100
0000
0002
,
0000
1003
0000
1000
,
0000
0100
0000
1000
,
0000
0001
0000
0100
,
0000
0100
0000
0010
,
0100
0010
0000
1000
,
0000
1000
0000
0001
,
1000
0001
0000
0100
,
0000
0001
0000
0010
,
0100
0010
0000
0001
,
0000
0001
0000
1000
,
0000
0001
1000
0020
,
0000
1030
0000
2000
,
0000
3010
0000
0002
,
0000
0103
0000
0200
,
0000
0300
0000
0000
;
