#TITLE:A Bar Song (Tipsy);
#SUBTITLE:;
#ARTIST:Shaboozey;
#TITLETRANSLIT:;
#SUBTITLETRANSLIT:;
#ARTISTTRANSLIT:;
#GENRE:;
#CREDIT:;
#BANNER:AV.avi;
#BACKGROUND:bg.png;
#LYRICSPATH:;
#CDTITLE:;
#MUSIC:audio.ogg;
#OFFSET:-0.178000;
#SAMPLESTART:48.495083;
#SAMPLELENGTH:14.999998;
#SELECTABLE:YES;
#BPMS:0.000000=162.000000
;
#STOPS:
;
#BGCHANGES:0.000=MV.avi=1.000=1=0=1===CrossFade==,
99999=-nosongbg-=1.000=0=0=0 // don't automatically add -songbackground-
;
#KEYSOUNDS:;
#ATTACKS:;

//---------------dance-single - ----------------
#NOTES:
     dance-single:
     :
     Challenge:
     10:
     0.462261,0.557293,0.314706,0.153319,0.000000,401.000000,362.000000,39.000000,19.000000,0.000000,0.000000,0.462261,0.557293,0.314706,0.153319,0.000000,401.000000,362.000000,39.000000,19.000000,0.000000,0.000000:
// measure 0
0000
0000
0000
0000
,  // measure 1
0000
0000
0000
0000
,  // measure 2
0000
0000
0000
0000
,  // measure 3
0000
0000
0000
0000
,  // measure 4
0000
0000
0000
0000
,  // measure 5
0000
0000
0000
0000
,  // measure 6
0000
0000
0000
0000
,  // measure 7
0000
0000
0000
0000
,  // measure 8
0000
0000
0000
1000
0100
0010
0100
1000
,  // measure 9
0000
0001
1000
0010
0000
1000
0001
0000
,  // measure 10
0001
0000
1000
0100
0010
0100
0020
0000
,  // measure 11
0032
0000
0023
0000
0230
0000
1300
0001
,  // measure 12
1000
0000
0001
0010
0100
0000
1000
0010
,  // measure 13
0000
0100
0001
1000
0000
0100
0010
0001
,  // measure 14
0000
0100
1000
0020
0030
0200
0300
0001
,  // measure 15
1000
0000
0010
0200
0000
0300
0001
1000
,  // measure 16
0001
0000
0100
0010
1000
0000
0010
0100
,  // measure 17
0000
0001
0010
0100
1000
0000
0001
0000
,  // measure 18
1000
0000
0100
0010
0001
0010
0001
1000
,  // measure 19
0020
0000
0230
0000
0302
0000
1003
0100
,  // measure 20
0010
0000
0100
0010
0001
0000
1000
0010
,  // measure 21
0000
0100
0010
1000
0000
1000
0001
0000
,  // measure 22
1000
0010
0001
0010
1000
0000
0010
0000
,  // measure 23
0100
0001
0010
0001
0100
0000
0001
0010
,  // measure 24
0100
0000
0100
0010
0001
0000
1000
0000
,  // measure 25
0001
0100
0001
1000
0010
0000
0100
0010
,  // measure 26
0001
0000
0001
0010
0100
0000
0001
0000
,  // measure 27
1000
0001
0010
0001
0100
0010
2000
0000
,  // measure 28
3010
1000
0010
1000
0001
0000
1000
0000
,  // measure 29
0001
0100
0010
1000
0100
0010
0001
1000
,  // measure 30
0001
0010
0100
0010
0001
0000
1000
0000
,  // measure 31
0100
0010
0001
0010
0100
0000
1000
0001
,  // measure 32
1000
0000
0001
0000
0011
0000
1000
0100
,  // measure 33
0010
0001
0100
0010
1000
0001
0010
0001
,  // measure 34
0100
0000
0010
0000
1001
0000
0001
0010
,  // measure 35
0100
0000
0100
0000
1001
0000
1000
0001
,  // measure 36
0100
0000
0110
0000
1001
0000
0001
1000
,  // measure 37
0010
0100
0001
0010
0100
0000
1000
0001
,  // measure 38
0100
0000
0010
0000
1001
0000
1000
0100
,  // measure 39
1000
0100
0010
0001
0010
0000
0110
0000
,  // measure 40
0100
1001
0001
0011
,  // measure 41
1000
0001
0100
0010
1000
0000
0011
0000
,  // measure 42
0100
1000
0100
0010
0001
0000
1000
0010
,  // measure 43
0100
0010
1000
0001
0010
0000
1001
0000
,  // measure 44
0010
1001
0100
1010
,  // measure 45
0001
1000
0100
1000
0010
0000
0101
0000
,  // measure 46
0001
0010
0100
0010
0100
0000
1000
0001
,  // measure 47
1000
0010
0100
0001
0010
0000
1001
0000
,  // measure 48
0001
1010
2000
0000
,  // measure 49
0000
0000
3002
0000
,  // measure 50
0000
0000
2003
0000
,  // measure 51
0000
0000
3020
0000
,  // measure 52
0230
0000
0302
0000
,  // measure 53
0000
0000
2003
0000
,  // measure 54
0000
0000
3002
0000
,  // measure 55
0000
0000
0003
0000
,  // measure 56
0000
0000
0000
0000
,  // measure 57
0000
0000
1001
0100
,  // measure 58
0000
0100
0000
0100
,  // measure 59
0000
0100
0101
0001
,  // measure 60
0000
0001
0000
0001
,  // measure 61
0000
0001
1001
1000
,  // measure 62
0000
1000
0000
1000
,  // measure 63
0000
1000
1001
0001
,  // measure 64
1010
0100
0011
0011
,  // measure 65
0001
1000
0001
1000
1001
0000
0001
0010
,  // measure 66
0100
0010
0001
1000
0100
1000
0001
0100
,  // measure 67
0010
0000
1010
0000
0011
0000
1000
0010
,  // measure 68
0100
0000
1100
0000
1001
0000
0001
1000
,  // measure 69
0010
0000
0011
0000
1001
0000
1000
0001
,  // measure 70
1000
0001
0010
0100
1000
0100
0001
0100
,  // measure 71
0010
0000
1100
0000
1001
0000
0001
0010
,  // measure 72
0001
0010
0100
1000
0100
0000
1001
0000
,  // measure 73
0010
0100
0010
0100
0010
0000
1001
0000
,  // measure 74
0001
0010
1000
0010
0001
0000
1010
0000
,  // measure 75
1000
0100
0001
0100
1000
0000
0010
1000
,  // measure 76
0001
1000
0100
0000
1001
0000
0010
0000
,  // measure 77
1000
0001
1000
0001
1000
0000
0011
0000
,  // measure 78
1000
0010
0001
0010
1000
0000
1001
0000
,  // measure 79
0010
0100
0001
0100
0010
0000
0101
0000
,  // measure 80
1000
0001
0010
0000
0001
0000
1000
0000
,  // measure 81
0100
0010
0000
0000
;

//---------------dance-single - ----------------
#NOTES:
     dance-single:
     :
     Hard:
     8:
     0.391942,0.524511,0.258221,0.266290,0.000000,340.000000,308.000000,32.000000,33.000000,0.000000,0.000000,0.391942,0.524511,0.258221,0.266290,0.000000,340.000000,308.000000,32.000000,33.000000,0.000000,0.000000:
0000
0000
0000
0000
,
0000
0000
0000
0000
,
0000
0000
0000
0000
,
0000
0000
0000
0000
,
0000
0000
0000
0000
,
0000
0000
0000
0000
,
0000
0000
0000
0000
,
0000
0000
0000
0000
,
0000
0000
0000
0000
1000
0000
0001
0200
,
0000
0000
0310
1000
0000
1000
0010
0000
,
0100
0000
0001
0010
0100
0000
1000
0000
,
0100
0000
0010
0001
0010
0000
1000
0100
,
1000
0000
0010
0000
0002
0000
1003
0200
,
0000
0000
1300
0020
0000
0000
0130
0002
,
0000
0000
1003
0020
0000
0230
0000
0301
,
1000
0100
0010
0000
0100
0000
1000
0001
,
1000
0000
0100
1000
0200
0000
1300
0020
,
0000
0230
0000
0302
0000
2003
0000
3000
,
0000
0000
0100
0001
1000
0001
2000
0000
,
3020
0000
0230
0000
0302
0000
1003
0100
,
0010
0000
0010
0100
1000
0000
0001
0200
,
0000
0000
0310
1000
0000
0001
1000
0000
,
0010
0100
0000
0100
0001
0000
1000
0000
,
0100
1000
0000
1000
0010
0000
0100
0001
,
0100
0001
1001
0000
,
1000
0001
0010
0000
0100
0000
1000
0001
,
0010
0001
1010
0000
,
0010
0100
1000
0100
0010
0000
0001
0000
,
1000
0010
0100
0010
1000
0000
0001
0000
,
0010
0001
0100
0000
1000
0000
0010
0000
,
0100
1000
0001
1000
0001
0000
0000
0000
,
1000
0100
1000
0000
0010
0000
0100
0010
,
0001
0000
0000
0000
1010
0000
1000
0100
,
0010
0001
1000
0000
0010
0000
0100
0010
,
1000
0000
0001
0000
1100
0000
0010
0001
,
0100
0000
0001
0000
1000
0000
0010
0100
,
0001
0000
1000
0000
1100
0000
0001
1000
,
0010
0100
0001
0000
1000
0000
0100
0000
,
0010
0000
0001
0000
1010
0000
0100
0010
,
0001
1000
1100
0010
,
1001
0100
2000
0010
,
3001
0010
0100
0000
0002
0000
0010
0000
,
1003
0010
0100
0000
0020
0000
0100
0000
,
1030
0100
0010
0000
0001
0000
0101
0000
,
1000
0110
0002
1000
,
1003
0010
0100
0000
2000
0000
0001
0000
,
3010
0100
0010
0000
1000
0000
0001
1000
,
0001
0110
1000
1001
,
0100
0101
0020
0000
,
0000
0000
2030
0000
,
0000
0000
3002
0000
,
0000
0000
2003
0000
,
3002
0000
0203
0000
,
0000
0000
0320
0000
,
0000
0000
0032
0000
,
0000
0000
0003
0000
,
0000
0000
0000
0000
,
0000
0000
1010
0010
,
0000
0010
0000
0010
,
0000
0010
1010
0010
,
0000
0010
0000
0010
,
0000
0010
1010
0010
,
0000
0010
0000
0010
,
0000
0010
1010
0010
,
1010
0010
1001
1001
,
0100
1000
0100
1000
0100
0000
1000
0001
,
1000
0001
0100
0000
0100
0000
0010
1000
,
0020
0000
0100
0000
1030
0000
0001
0010
,
0100
0000
0010
0000
0001
0000
1000
0100
,
2000
0000
0001
0000
3010
0000
0100
0001
,
0100
0001
0010
0000
0001
0000
1000
0100
,
0020
0000
0100
0000
0031
0000
1000
0010
,
0100
0100
0010
1010
,
0001
0011
0100
1001
,
0010
0001
0010
0000
0100
0000
1100
0000
,
0010
0001
0010
0000
0100
0000
0110
0000
,
0001
1000
0001
0000
1100
0000
1001
0000
,
0011
1001
1000
0011
,
0100
0001
0100
0000
0010
0000
1001
0000
,
0010
0100
0010
0000
1000
0000
1010
0000
,
0100
0001
0100
0000
0001
0000
0010
0000
,
0100
1000
0000
0000
;

//---------------dance-single - ----------------
#NOTES:
     dance-single:
     :
     Medium:
     5:
     0.289346,0.426165,0.169457,0.056486,0.000000,251.000000,230.000000,21.000000,7.000000,0.000000,0.000000,0.289346,0.426165,0.169457,0.056486,0.000000,251.000000,230.000000,21.000000,7.000000,0.000000,0.000000:
0000
0000
0000
0000
,
0000
0000
0000
0000
,
0000
0000
0000
0000
,
0000
0000
0000
0000
,
0000
0000
0000
0000
,
0000
0000
0000
0000
,
0000
0000
0000
0000
,
0000
0000
0000
0000
,
0000
0000
1000
1000
,
0001
0100
0001
1000
,
0000
0001
1000
0010
,
0100
1000
0100
0000
,
0000
0000
0001
1000
,
0100
0010
0001
1000
,
0000
0001
1000
0100
,
1000
0010
0100
0000
,
0000
0000
0001
1000
,
0001
1000
0100
0010
,
0000
0001
1000
0001
,
0100
0010
1000
0000
,
0000
0001
1000
0100
,
0010
0001
1000
0010
,
1000
1000
0100
0010
,
0001
1000
1000
0010
,
0100
0001
1001
0000
,
0100
1000
0100
0010
,
0001
1000
1100
0000
,
0010
1000
1000
0100
,
0010
0001
0011
1000
,
0100
1000
0010
0100
,
0001
1000
1100
0000
,
1000
0001
0000
0000
,
1000
0100
0000
0001
,
0010
0100
1000
0100
,
0010
0001
1001
1000
,
0100
0010
0010
0001
,
0010
0100
1001
0100
,
0010
0001
1000
0010
,
0100
0001
0101
0010
,
1000
0100
0010
1001
,
0100
1100
0010
1100
,
0000
0002
1003
0100
,
0000
1000
0200
1300
,
0000
0010
1000
0001
,
1000
0100
2000
3100
,
0010
0001
2000
3010
,
0100
0001
0002
0013
,
0100
1000
0020
1030
,
0020
1030
1001
0000
,
0000
0000
1000
0000
,
0000
0000
1000
0000
,
0000
0000
0100
0000
,
0010
0000
0001
0000
,
0000
0000
1000
0000
,
0000
0000
0001
0000
,
0000
0000
0000
0000
,
0000
0000
0000
0000
,
0000
0000
0000
0001
,
0000
0001
0000
0001
,
0000
0001
0000
1000
,
0000
1000
0000
1000
,
0000
1000
0000
0010
,
0000
0010
0000
0010
,
0000
0010
0000
0100
,
0000
0100
0001
0001
,
1000
1000
0100
1000
,
0010
0100
0001
0010
,
0100
1000
1100
0001
,
0100
0010
1001
0100
,
1001
0100
1010
0001
,
0100
0010
1000
0100
,
0010
0001
1001
0100
,
0010
0001
1001
0100
,
1001
0010
1001
0100
,
0010
0100
1000
0001
,
0100
1000
0100
0001
,
1000
0100
1000
1100
,
0001
0011
1000
0100
,
0010
0001
0010
0100
,
1000
0010
0100
0001
,
1000
0100
1000
1000
,
0001
0001
0000
0000
;

//---------------dance-single - ----------------
#NOTES:
     dance-single:
     :
     Easy:
     3:
     0.220179,0.295037,0.008069,0.056486,0.000000,191.000000,190.000000,1.000000,7.000000,0.000000,0.000000,0.220179,0.295037,0.008069,0.056486,0.000000,191.000000,190.000000,1.000000,7.000000,0.000000,0.000000:
1000
0000
0000
0000
,
0000
0000
0000
0000
,
0000
0000
0000
0000
,
0000
0000
0000
0000
,
0000
0000
0000
0000
,
0000
0000
0000
0000
,
0000
0000
0000
0000
,
0000
0000
0000
0000
,
0000
0000
0001
0001
,
1000
0000
0100
0100
,
1000
0000
0002
0000
,
2003
0000
3100
0010
,
0001
0000
2000
0000
,
3100
0000
0001
0010
,
0001
0000
0002
0000
,
1003
0000
0010
1000
,
0010
0000
1000
0001
,
0010
0000
0100
1000
,
0001
0000
0002
0000
,
2003
0000
3020
0000
,
1030
0000
0001
0010
,
0001
0000
1000
0100
,
1000
0000
0001
1000
,
0001
0000
1000
0100
,
0010
0000
1001
0000
,
0010
0000
1000
0000
,
0100
0010
0001
0000
,
1000
0000
0010
0001
,
1000
0001
1000
0000
,
0001
0000
0010
0000
,
0100
1000
0100
0000
,
1000
0000
0001
0000
,
0000
0000
1000
0000
,
0100
0000
0010
0001
,
0010
1000
0010
0000
,
1000
0000
0001
1000
,
0001
1000
0010
0000
,
1000
0000
0100
0010
,
0001
1000
0100
0000
,
1000
0000
0001
1000
,
0001
1000
0001
0100
,
0000
1000
0100
0010
,
0000
0001
0010
0100
,
0000
1000
0001
0100
,
0001
0100
0001
1000
,
0000
0100
0010
0001
,
0000
1000
0010
1000
,
0000
0001
0010
0100
,
1000
0001
0001
0000
,
0000
0000
1000
0000
,
0000
0000
1000
0000
,
0000
0000
0001
0000
,
1000
0000
0001
0000
,
0000
0000
1000
0000
,
0000
0000
1000
0000
,
0000
0000
0000
0000
,
0000
0000
0000
0000
,
0000
0000
0000
1000
,
0000
1000
0000
1000
,
0000
1000
0000
0100
,
0000
0100
0000
0100
,
0000
0100
0000
0010
,
0000
0010
0000
0010
,
0000
0010
0000
0001
,
0000
0001
1000
0001
,
1000
0001
1000
0100
,
0010
0001
0001
0000
,
0100
1000
0010
0000
,
1000
0000
0001
0010
,
0100
1000
0010
0000
,
0100
0000
0001
1000
,
0100
0010
0001
0000
,
1000
0000
0010
1000
,
0010
1000
0001
0010
,
0000
0100
1000
0010
,
0000
0100
0001
1000
,
0000
0100
1000
0100
,
1000
0100
1000
0001
,
0000
0010
0001
0100
,
0000
1000
0001
1000
,
0000
0010
1000
0010
,
1000
0010
0000
0000
;

//---------------dance-single - ----------------
#NOTES:
     dance-single:
     :
     Beginner:
     1:
     0.100291,0.163405,0.040347,0.000000,0.000000,87.000000,82.000000,5.000000,0.000000,0.000000,0.000000,0.100291,0.163405,0.040347,0.000000,0.000000,87.000000,82.000000,5.000000,0.000000,0.000000,0.000000:
0000
0000
0000
0000
,
0000
0000
0000
0000
,
0000
0000
0000
0000
,
0000
0000
0000
0000
,
0000
0000
0000
0000
,
0000
0000
0000
0000
,
0000
0000
0000
0000
,
0000
0000
0000
0000
,
0000
0000
1000
0000
,
0000
0000
0001
0000
,
0000
0000
1000
0000
,
1000
0000
0010
0000
,
0000
0000
1000
0000
,
0000
0000
0001
0000
,
0000
0000
0010
0000
,
0010
0000
0001
0000
,
0000
0000
1000
0000
,
0000
0000
0100
0000
,
0000
0000
1000
0000
,
1000
0000
0010
0000
,
0000
0000
0001
0000
,
0000
0000
1000
0000
,
0000
0000
0001
0000
,
0000
0000
0100
0000
,
0100
0000
0010
0000
,
0000
0000
1000
0000
,
0000
0000
0001
0000
,
0000
0000
1000
0000
,
0001
0000
1000
0000
,
0000
0000
0010
0000
,
0000
0000
1000
0000
,
0000
0000
0001
0000
,
0000
0000
1000
0000
,
0000
0000
0001
0000
,
1000
0000
0001
0000
,
0000
0000
1000
0000
,
0010
0000
1000
0000
,
0000
0000
0010
0000
,
0100
0000
0010
0000
,
0000
0000
0001
0000
,
1000
0000
0001
0000
,
0000
0000
1000
0000
,
0000
0000
0001
0000
,
0000
0000
1000
0000
,
0001
0000
1000
0000
,
0000
0000
0010
0000
,
0000
0000
0100
0000
,
0000
0000
0010
0000
,
0001
0000
1000
0000
,
0000
0000
0000
0000
,
0000
0000
1000
0000
,
0000
0000
0000
0000
,
0000
0000
0001
0000
,
0000
0000
0000
0000
,
0000
0000
0001
0000
,
0000
0000
0000
0000
,
0000
0000
0000
0000
,
0000
0000
1001
0000
,
0000
0000
0000
0000
,
0000
0000
1001
0000
,
0000
0000
0000
0000
,
0000
0000
1001
0000
,
0000
0000
0000
0000
,
0000
0000
1001
0000
,
0000
0000
1001
0000
,
0000
0000
1000
0000
,
0100
0000
1000
0000
,
0000
0000
0001
0000
,
0010
0000
0001
0000
,
0000
0000
1000
0000
,
0001
0000
1000
0000
,
0000
0000
0010
0000
,
1000
0000
0010
0000
,
0000
0000
1000
0000
,
0000
0000
0001
0000
,
0000
0000
1000
0000
,
0000
0000
0010
0000
,
0100
0000
0010
0000
,
0000
0000
1000
0000
,
0000
0000
0001
0000
,
0000
0000
0100
0000
,
0001
0000
0000
0000
;
