#TITLE:World Revolution;
#SUBTITLE:Chrono Trigger;
#ARTIST:光田康典;
#TITLETRANSLIT:;
#SUBTITLETRANSLIT:;
#ARTISTTRANSLIT:Yasunori Mitsuda;
#GENRE:;
#CREDIT:;
#BANNER:bn.png;
#BACKGROUND:bg.png;
#LYRICSPATH:;
#CDTITLE:;
#MUSIC:World_Revolution.ogg;
#OFFSET:-0.786000;
#SAMPLESTART:36.416000;
#SAMPLELENGTH:22.000000;
#SELECTABLE:YES;
#BPMS:0.000000=160.179993
,88.000000=157.479996
,120.000000=159.179993
,151.000000=157.080002
,176.000000=158.080002
,216.000000=159.080002
,280.000000=160.080002
;
#STOPS:
;
#BGCHANGES:;
#KEYSOUNDS:;
#ATTACKS:;

//---------------dance-single - ----------------
#NOTES:
     dance-single:
     :
     Hard:
     11:
     0.461569,0.571398,0.231335,0.424114,0.088678,419.000000,389.000000,30.000000,55.000000,0.000000,0.000000,0.461569,0.571398,0.231335,0.424114,0.088678,419.000000,389.000000,30.000000,55.000000,0.000000,0.000000:
0000
0000
0000
0000
,
0000
0000
0000
0000
,
0000
0000
0000
0000
,
0000
0000
0000
0000
,
0000
0000
0000
0000
,
0000
0000
0000
0000
,
0000
0000
0000
0000
,
0002
0000
0000
0000
0020
0000
0000
0003
,
2000
0000
0000
0000
,
0000
0000
0000
0000
0030
0000
0000
0000
3010
0000
0000
0000
0000
0000
0001
0010
,
0002
0000
0000
0000
,
0200
0000
0000
0003
2000
0000
0000
0300
,
0002
0000
0000
0000
,
0000
0000
3000
0000
0020
0003
1030
0000
,
2002
0000
0000
0000
,
0000
0000
0000
3003
,
0100
0010
0001
0010
0200
0010
0000
0000
,
2300
0100
0000
0001
0000
0100
3100
0000
,
0010
0100
1000
0100
0002
1000
0000
0000
,
0203
0001
0000
1000
0000
0001
0301
0000
,
0010
1000
0010
0001
2000
0001
0000
0000
,
3200
0001
0000
0010
0000
1300
1000
0000
,
0010
1000
0010
0100
0002
1000
0000
0003
,
0200
0001
0000
0001
0300
0010
0100
0010
,
0100
0000
1000
0100
1000
0000
0010
0000
1000
0000
0010
0000
0100
0000
0001
0000
,
0200
0010
0000
0300
2000
0001
3100
0010
,
1000
0000
0010
0100
0010
0000
1000
0000
0001
0000
0100
0000
0001
0000
1000
0000
,
0002
0010
0000
0003
2000
0001
3100
0010
,
0100
0000
0001
1000
0001
0000
0100
0000
0001
0000
0010
0000
0100
0000
1000
0000
,
0200
0000
2300
0000
3200
0000
0302
0003
,
1001
1001
0000
0010
2000
0001
0000
3000
,
0020
0100
0000
0001
0000
0100
0130
0000
,
0110
0000
0110
0000
0000
0000
1000
0000
0002
0000
0100
0000
0000
0000
0000
0003
,
2000
0001
0000
0100
0000
0001
0001
3000
,
0110
0110
0000
0100
0002
0100
0000
0003
,
0200
1000
0000
0001
0000
1000
1300
0000
,
1010
1010
0000
1000
0200
0010
0000
0300
,
0002
0010
0000
1000
0000
0010
0013
1000
,
0001
0000
0100
0010
0100
0000
0001
0000
1000
0000
0010
0000
1000
0000
0001
0000
,
0102
1000
0000
0000
2003
0000
3100
0010
,
0001
0000
1000
0010
1000
0000
0001
0000
0010
0000
0100
0000
1000
0000
0001
0000
,
2001
0010
0000
0000
3200
0001
0301
0100
,
1000
0000
0100
0010
0100
0000
0010
0000
0001
0000
0100
0000
0001
0000
1000
0000
,
0020
0230
0302
2003
,
3100
1000
0100
0000
0000
0000
0000
0000
1000
0010
1000
0000
0000
0000
0000
0000
,
0001
0100
0001
0000
0010
0001
0010
0000
0000
0000
0010
0000
0100
0000
1000
0000
,
0010
0100
0010
0000
0000
0000
0000
0000
0100
0001
0100
0000
0000
0000
0000
0000
,
0001
1000
0001
0000
1000
0100
1000
0000
0000
0000
0100
0000
0100
0000
0010
0000
,
0100
0010
0100
0000
0000
0000
0000
0000
0010
0001
0010
0000
0000
0000
0000
0000
,
0001
1000
0001
0000
1000
0010
1000
0000
0000
0000
0010
0000
0010
0000
0100
0000
,
0010
1000
0010
0000
0000
0000
0000
0000
1000
0100
1000
0000
0000
0000
0000
0000
,
0100
0010
0100
0000
0010
0001
0010
0000
0000
0000
0001
0000
1000
0000
0001
0000
,
0001
1000
0010
0100
0010
1000
0001
1000
,
0100
0010
0001
0100
0001
0010
0020
0000
,
2030
0000
3000
0020
0000
0000
0031
0100
,
1000
0000
0000
0000
0200
0000
0000
0000
0320
0000
0000
0000
0230
0000
0000
0300
,
0101
0000
0100
0101
0000
1000
0001
1100
,
0110
0110
1010
0101
,
1001
0000
0000
0000
0200
0000
0000
1300
,
0100
0010
0100
0001
0000
0000
0000
0010
,
1000
0000
0000
0010
0100
0010
0000
0000
,
0000
0000
0010
0001
0000
0000
2000
0000
,
3200
0000
0000
0302
0000
0000
0103
1000
,
0010
0200
2300
3200
,
0301
0000
0010
0110
0000
0010
0100
1100
,
1001
0101
0011
0110
,
1100
0000
0000
0000
1010
0000
0000
1000
,
0010
0100
1000
0100
0000
0000
0000
0001
,
0101
0000
0000
0100
1000
0100
0000
0000
,
0000
0000
0001
0010
0000
0000
0000
0000
,
1001
0001
1000
0001
1000
0001
1000
0001
,
0010
0100
0010
0100
0010
0001
0010
0001
,
0100
0010
0100
0010
1000
0100
1000
0100
,
0010
0001
0010
0001
1000
0010
1000
0010
,
1000
0100
0010
0100
1000
0001
0010
0100
,
0010
0001
1000
0100
0010
0001
1000
0010
,
0100
0001
1000
0100
0001
0100
1000
0010
,
0100
0001
0010
1000
0010
0001
0100
0010
,
1001
0000
0000
0000
;

//---------------dance-single - ----------------
#NOTES:
     dance-single:
     :
     Medium:
     9:
     0.308447,0.511251,0.185068,0.454959,0.000000,280.000000,256.000000,24.000000,59.000000,0.000000,0.000000,0.308447,0.511251,0.185068,0.454959,0.000000,280.000000,256.000000,24.000000,59.000000,0.000000,0.000000:
0000
0000
0000
0000
,
0000
0000
0000
0000
,
0000
0000
0000
0000
,
0000
0000
0000
0000
,
0000
0000
0000
0000
,
0000
0000
0000
0000
,
0000
0000
0000
0000
,
2000
0000
3020
0000
,
0230
0000
0000
0000
,
0000
0000
0000
0000
0310
0000
0000
1000
,
0002
0000
0000
0000
,
0203
0000
2300
0000
,
3200
0000
0000
0000
,
0000
0000
0302
1003
,
2002
0000
0000
0000
,
0000
0000
0000
3003
,
1000
0010
0100
0001
2000
0000
0000
0000
,
3002
0000
0000
0000
,
0013
0100
1000
0010
0200
0000
0000
0000
,
0302
0000
0000
0000
,
1003
0010
0100
0001
2000
0000
0000
0000
,
3200
0000
0000
0000
,
0310
0001
0010
0100
2000
0000
0000
0000
,
3020
0000
0000
0000
0000
0000
0130
0001
,
0010
0000
0001
0010
0100
0000
1000
0001
,
2000
0000
0000
0000
3002
0000
0013
0001
,
0100
0000
0010
1000
0010
0000
1000
0001
,
0200
0000
0000
0000
0320
0000
1030
0100
,
0010
0100
0010
0001
1000
0000
0001
0000
,
2000
3020
0230
0302
,
1003
1000
0000
0000
2001
0000
3000
0000
,
0012
0000
0000
0000
,
0013
0010
0000
0000
0210
0000
0300
0000
,
1002
0000
0000
0000
,
1003
1000
0000
0000
1020
0000
0030
0000
,
0201
0000
0000
0000
,
0310
0010
0000
0000
2010
0000
3000
0000
,
0102
0000
0000
0000
0000
0000
1003
0100
,
0010
0001
1000
0000
0001
0010
0100
1000
,
0200
0000
0000
0000
0302
0000
0103
1000
,
0100
0010
0001
0000
1000
0100
1000
0001
,
0020
0000
0000
0000
2030
0000
3010
0001
,
0010
0100
1000
0001
1000
0000
0010
0000
,
2000
3200
0320
0032
,
1003
1000
0000
0000
0001
0001
0000
0000
,
0010
0010
0100
0100
0000
0000
0000
0000
,
0010
0010
0000
0000
0100
0100
0000
0000
,
0010
0010
0001
0001
0000
0000
0000
0000
,
0010
0010
0000
0000
0100
0100
0000
0000
,
1000
1000
0100
0100
0000
0000
0000
0000
,
1000
1000
0000
0000
0010
0010
0000
0000
,
0100
0100
0001
0001
0000
0000
0000
0001
,
1001
0000
0000
0110
,
0000
0000
0000
2000
,
3020
0000
0000
0032
0000
0000
0013
0001
,
0010
0002
0023
2030
,
3100
0000
0000
1010
0000
0000
0000
1000
,
0001
0011
0110
1100
,
1001
0000
0000
0000
0101
0000
0000
0100
,
0010
2000
0000
0000
0000
0000
0000
3010
,
1000
0000
0000
0100
0010
0002
0000
0000
,
0000
0000
0000
0000
0000
0003
2000
0000
,
3200
0000
0000
0302
0000
0000
0103
0010
,
0001
0020
0230
2300
,
3001
0000
0000
1010
0000
0000
0000
0010
,
0100
0101
1001
1100
,
0110
0000
0000
0000
0011
0000
0000
1000
,
0001
0200
0000
0000
0000
0000
0300
0001
,
2000
0000
0000
3010
1000
0002
0000
0000
,
0000
0000
0000
0000
0000
0000
0000
0003
,
1000
0001
0000
1000
0000
0010
1000
0001
,
0100
0001
0000
0010
0000
0001
0010
0001
,
1000
0010
0000
1000
0000
0010
1000
0001
,
0100
0001
0000
1000
0000
0100
1000
0000
,
0100
1000
0100
0000
0010
0100
0010
0000
,
0001
0010
0001
0000
1000
0010
1000
0000
,
0001
0100
0001
0100
0010
1000
0010
1000
,
0001
1000
0001
0000
0010
0001
0010
0001
,
1001
0000
0000
0000
;

//---------------dance-single - ----------------
#NOTES:
     dance-single:
     :
     Easy:
     5:
     0.241249,0.330809,0.215913,0.339291,0.000000,219.000000,191.000000,28.000000,44.000000,0.000000,0.000000,0.241249,0.330809,0.215913,0.339291,0.000000,219.000000,191.000000,28.000000,44.000000,0.000000,0.000000:
0000
0000
0000
0000
,
0000
0000
0000
0000
,
0000
0000
0000
0000
,
0000
0000
0000
0000
,
0000
0000
0000
0000
,
0000
0000
0000
0000
,
0000
0000
0000
0000
,
0020
0000
0000
0000
0200
0030
0000
0000
,
0302
0000
0000
0000
,
0000
0000
0023
0000
,
0230
0000
0000
0000
,
2300
0000
3020
0000
,
2030
0000
0000
0000
,
0000
0000
3001
0100
,
0202
0000
0000
0000
,
0000
0000
0303
0000
,
0001
0100
0010
1000
,
0010
0100
0001
1000
,
0100
0010
0001
0010
,
0100
1000
0010
0100
,
0001
0010
0100
1000
,
0010
1000
0100
0010
,
0001
0100
0010
1000
,
0001
0010
0100
1000
,
0001
1000
0010
1000
,
0002
0000
0023
0130
,
1000
0010
0100
0010
,
2000
0000
3002
0013
,
0100
0010
0001
1000
,
0020
0230
0302
1003
,
1001
0000
2000
0000
,
0020
0000
0000
3030
,
0110
0000
0200
0000
,
0002
0000
0000
0303
,
1001
0000
2000
0000
,
0020
0000
0000
3030
,
0101
0000
2000
0000
,
0002
0000
3003
0010
,
0100
0010
0001
1000
,
0020
0000
0230
0301
,
1000
0100
0001
0100
,
2000
0000
3002
0103
,
1000
0100
0001
0010
,
0100
2000
3020
0130
,
1001
0000
0110
0000
,
1001
0110
0000
0000
,
0011
0000
1010
0000
,
0101
0011
0000
0000
,
1010
0000
0101
0000
,
0011
1100
0000
0000
,
1010
0000
0011
0000
,
1100
0101
0000
0000
,
1001
0000
0000
0110
,
0000
0000
0000
2000
,
3200
0000
0000
0320
0000
0000
0032
0000
,
0000
2003
3020
0230
,
0302
0000
0000
0003
,
1001
0001
1000
0010
,
1000
0000
0001
0000
,
1000
0000
0100
0000
,
0100
0000
0010
0000
,
0000
0001
0000
2000
,
3020
0000
0000
0230
0000
0000
0302
0000
,
0000
1003
0100
0010
,
0002
0000
0000
0003
,
1000
1000
0010
0100
,
0001
0000
0101
0000
,
0100
0001
0010
0100
,
1100
0000
1000
0000
,
0000
0011
0000
0000
,
1000
0001
1000
0100
,
1000
0001
1000
0010
,
1000
0001
0100
0001
,
1000
0001
0010
0001
,
1000
0010
0100
0010
,
1000
0001
0010
0001
,
0010
0100
0010
0100
,
1000
0100
0010
0001
,
1001
0000
0000
0000
;

//---------------dance-single - ----------------
#NOTES:
     dance-single:
     :
     Beginner:
     2:
     0.124480,0.180441,0.146512,0.169646,0.000000,113.000000,94.000000,19.000000,22.000000,0.000000,0.000000,0.124480,0.180441,0.146512,0.169646,0.000000,113.000000,94.000000,19.000000,22.000000,0.000000,0.000000:
0000
0000
0000
0000
,
0000
0000
0000
0000
,
0000
0000
0000
0000
,
0000
0000
0000
0000
,
0000
0000
0000
0000
,
0000
0000
0000
0000
,
0000
0000
0000
0000
,
2000
0000
0002
3000
,
0203
0000
0000
0000
,
0000
0000
0320
0000
,
2030
0000
0000
0000
,
3200
0000
0320
0000
,
0032
0000
0000
0000
,
0000
0000
0003
0000
,
2002
0000
0000
0000
,
0000
0000
3003
0000
,
1000
0000
0100
0000
,
0020
0000
0000
0000
,
0031
0000
0010
0000
,
0200
0000
0000
0000
,
1300
0000
0010
0000
,
0200
0000
0000
0000
,
0301
0000
1000
0000
,
0200
0000
0000
0000
,
0310
0000
0001
0000
,
1000
0000
0100
0000
,
0010
0000
0100
0000
,
1000
0000
0001
0000
,
0100
0000
0010
0000
,
1000
0000
0001
0000
,
1001
0000
0000
0000
,
0000
0000
0000
0000
,
0110
0000
0000
0000
,
0000
0000
0000
0000
,
1001
0000
0000
0000
,
0000
0000
0000
0000
,
0110
0000
0000
0000
,
0000
0000
0000
0000
,
0001
0000
0010
0000
,
0100
0000
1000
0000
,
0100
0000
0010
0000
,
0001
0000
1000
0000
,
0010
0000
0100
0000
,
0001
0000
0010
0000
,
0110
0000
0000
0000
,
1001
0000
0000
0000
,
0110
0000
0000
0000
,
1001
0000
0000
0000
,
0110
0000
0000
0000
,
1001
0000
0000
0000
,
0110
0000
0000
0000
,
1001
0000
0000
0000
,
1001
0000
0000
0000
,
0000
0000
0000
0000
,
1000
0000
0100
0000
,
0010
0000
0001
0000
,
0010
0000
0000
0000
,
1001
0000
0000
0000
,
1000
0000
0010
0000
,
0100
0000
0001
0000
,
1000
0000
0010
0000
,
0100
0000
0001
0000
,
1000
0000
0000
0000
,
1001
0000
0000
0000
,
0110
0000
0000
0000
,
1001
0000
1000
0000
,
0001
0000
0010
0000
,
0001
0000
1000
0000
,
0010
0000
1000
0000
,
0100
0000
0010
0000
,
0002
0000
0000
0000
,
2003
0000
3200
0000
,
0320
0000
0032
0000
,
2003
0000
3020
0000
,
0230
0000
0000
0000
,
0000
0000
0000
0000
,
0000
0000
0000
0000
,
0000
0000
0300
0000
,
1001
0000
0000
0000
;

//---------------dance-single - ----------------
#NOTES:
     dance-single:
     :
     Challenge:
     16:
     0.695107,0.962354,0.416403,0.161935,0.562915,631.000000,577.000000,54.000000,21.000000,0.000000,0.000000,0.695107,0.962354,0.416403,0.161935,0.562915,631.000000,577.000000,54.000000,21.000000,0.000000,0.000000:
// measure 0
0000
0000
0000
0000
,  // measure 1
0000
0000
0000
0000
,  // measure 2
0000
0000
0000
0000
,  // measure 3
0000
0000
0000
0000
,  // measure 4
0000
0000
0000
0000
,  // measure 5
0000
0000
0000
0000
,  // measure 6
0000
0000
0000
0000
,  // measure 7
1000
0000
0100
0000
,  // measure 8
0011
0000
0000
0000
0000
0000
0000
0000
0000
0000
0000
0000
0000
0000
0000
0000
0000
0000
0000
0000
0000
0100
0010
0100
,  // measure 9
0010
0000
0000
0000
0000
0000
0100
0000
0000
0000
0000
0000
0000
0000
0000
0000
0000
0000
1000
0000
0001
0000
1000
0000
0001
0000
0000
0000
0000
0000
0100
0000
0000
0000
0000
0000
0000
0000
0000
0000
0000
0000
0001
0000
0000
0100
0000
0000
,  // measure 10
0001
0000
0000
1000
0000
0000
0001
0000
0000
0100
0000
0000
0010
0000
0000
1000
0000
0000
0001
0000
0000
0100
0010
0100
,  // measure 11
0010
0000
0000
0100
0000
0000
0000
0000
0000
0001
0100
0001
0100
0000
0000
0001
0000
0000
0000
0000
0000
1000
0000
0000
,  // measure 12
1100
0000
0000
0100
0000
0000
0010
0000
0000
1000
0000
0000
0010
0000
0000
0001
0000
0000
0100
0000
0000
0010
0100
0010
,  // measure 13
0100
0000
0000
0000
0000
0000
0010
0000
0000
0000
0000
0000
0000
0000
0000
0000
0000
0000
1000
0000
0100
0000
1000
0000
0100
0000
0000
0000
0000
0000
1000
0000
0000
0000
0000
0000
0100
0000
0000
0000
0000
0000
0010
0000
0000
0001
0000
0000
,  // measure 14
0020
0000
0000
0001
0000
0000
0000
0000
0000
0001
0000
0000
0001
0000
0000
0001
0000
0000
0030
0000
0000
1000
0010
1000
,  // measure 15
0010
0000
0000
0100
0000
0000
0000
0000
0000
0001
0010
0001
0010
0000
0000
0100
0000
0000
0000
0000
0000
0010
0000
0000
,  // measure 16
0001
0100
0001
1000
0001
0100
0001
1000
0002
0000
0100
0000
0000
0000
0000
0000
,  // measure 17
0023
0100
0000
1030
0000
0110
0110
0000
,  // measure 18
1000
0100
0010
0100
1000
0100
0010
0100
2000
0000
0001
0000
0000
0000
0000
0000
,  // measure 19
3020
0100
0000
1030
0000
0011
0011
0000
,  // measure 20
0100
0001
1000
0001
0100
0001
1000
0001
0200
0000
0010
0000
0000
0000
0000
0000
,  // measure 21
0302
1000
0000
0103
0000
1010
1010
0000
,  // measure 22
1000
0001
1000
0100
1000
0001
1000
0100
2000
0000
0010
0000
0000
0000
0000
0000
,  // measure 23
3002
0100
0000
0010
0000
1003
0100
0010
,  // measure 24
0001
0000
0000
0010
0100
0010
0100
0000
0000
0010
0000
0000
0001
0000
0000
0100
0000
0000
0010
0000
0000
1000
0000
0000
,  // measure 25
0100
0010
0100
1000
0100
0010
0100
1000
0100
0000
0000
0000
0010
0000
0100
0000
,  // measure 26
1000
0000
0000
0001
0100
0001
0100
0000
0000
0001
0000
0000
0010
0000
0000
0100
0000
0000
1000
0000
0000
0001
0000
0000
,  // measure 27
1000
0001
0100
0001
1000
0001
0100
0001
1000
0000
0000
0000
0100
0000
0010
0000
,  // measure 28
0001
0000
0000
1000
0001
1000
0001
0000
0000
0010
0000
0000
0001
0000
0000
0010
0000
0000
0100
0000
0000
1000
0000
0000
,  // measure 29
0020
2030
3020
0032
,  // measure 30
0013
1000
0010
0000
0000
0000
0100
0000
0210
0000
0010
0000
0000
0000
0000
0000
,  // measure 31
0302
1000
0000
0103
0000
1010
1010
0000
,  // measure 32
0100
0001
0100
0000
0000
0000
0001
0000
0012
0000
0010
0000
0000
0000
0000
0000
,  // measure 33
0203
0010
0000
1300
0000
1010
1010
0000
,  // measure 34
0100
0001
0100
0000
0000
0000
0001
0000
0012
0000
0010
0000
0000
0000
0000
0000
,  // measure 35
2003
0010
0000
3001
0000
1010
1010
0000
,  // measure 36
1000
0100
1000
0000
0000
0000
0100
0000
0120
0000
1000
0000
0000
0000
0000
0000
,  // measure 37
0032
0100
0000
0000
0003
0001
1000
0010
,  // measure 38
0100
0000
0000
0001
0100
0001
0100
0000
0000
0010
0000
0000
1000
0000
0000
0100
0000
0000
0010
0000
0000
0001
0000
0000
,  // measure 39
1000
0010
0100
0010
1000
0010
0100
0010
1000
0000
0000
0000
0001
0000
0100
0000
,  // measure 40
0010
0000
0000
0100
0001
0100
0001
0000
0000
1000
0000
0000
0100
0000
0000
1000
0000
0000
0100
0000
0000
0010
0000
0000
,  // measure 41
0001
0100
0010
0100
0001
0100
0010
0100
0001
0000
0000
0000
0100
0000
0001
0000
,  // measure 42
1000
0000
0000
0010
1000
0010
1000
0000
0000
0010
0000
0000
0100
0000
0000
1000
0000
0000
0100
0000
0000
0001
0000
0000
,  // measure 43
0011
0110
1100
1001
,  // measure 44
1000
0100
1000
0000
0000
0000
0100
0000
1000
0010
1000
0000
0000
0000
0000
0000
,  // measure 45
0001
0100
0001
0100
0010
1000
0010
1000
0000
0000
1000
0000
0010
0000
0001
0000
,  // measure 46
0010
1000
0010
0000
0000
0000
0100
0000
0010
0100
0010
0000
0000
0000
0000
0000
,  // measure 47
0100
0001
0100
0001
1000
0010
1000
0010
0000
0000
0100
0000
1000
0000
0100
0000
,  // measure 48
0010
0100
0010
0000
0000
0000
0100
0000
0001
1000
0001
0000
0000
0000
0000
0000
,  // measure 49
0100
0001
0100
0001
1000
0100
1000
0100
0000
0000
1000
0000
0010
0000
1000
0000
,  // measure 50
0001
0010
0001
0000
0000
0000
1000
0000
0100
1000
0100
0000
0000
0000
0000
0000
,  // measure 51
0010
0001
0010
0001
1000
0100
1000
0100
0000
0000
0010
0000
0001
0000
0001
0000
,  // measure 52
1000
0100
0010
0100
1000
0100
0010
0100
1000
0100
0010
0000
0001
1000
0100
1000
,  // measure 53
0001
1000
0100
1000
0001
0010
0100
0010
0001
0010
0100
0010
0001
0000
0000
0000
,  // measure 54
1001
0000
0000
1010
0000
0000
1000
0010
,  // measure 55
0110
0100
0101
1001
,  // measure 56
1100
1000
0100
0110
0010
0001
0100
1001
,  // measure 57
1010
1100
0011
0110
,  // measure 58
1001
0000
0000
0001
0010
1000
0000
1000
,  // measure 59
0010
0001
0100
1000
0000
0100
0010
1000
,  // measure 60
1001
0000
1000
0010
0001
0010
0000
0000
,  // measure 61
0100
0000
0100
0001
0000
1000
0010
0000
,  // measure 62
1100
0000
0000
1001
0000
0000
1000
0001
,  // measure 63
0011
0010
1100
1010
,  // measure 64
0101
0100
0001
0011
0010
0100
1000
1100
,  // measure 65
1001
0101
0011
0110
,  // measure 66
1100
0000
0000
0010
1000
0001
0000
1000
,  // measure 67
0010
0100
0010
0101
0000
0000
0000
0100
,  // measure 68
0001
0000
0000
0010
0110
1100
0000
1000
,  // measure 69
0010
0100
0011
1001
0000
1000
0100
0000
,  // measure 70
1000
0000
0100
0010
0100
0000
1000
0001
0100
0000
0010
1000
0001
0000
0010
0100
,  // measure 71
1000
0000
0010
0100
0001
0000
0010
0100
1000
0000
0001
0100
0010
0000
1000
0001
,  // measure 72
0010
0000
0100
1000
0010
0000
0100
0001
1000
0000
0100
1000
0001
0000
0100
0001
,  // measure 73
0010
0000
0100
1000
0001
0000
0100
0010
1000
0000
0100
1000
0001
0000
1000
0100
,  // measure 74
1000
0001
1000
0100
1000
0001
1000
0000
0001
0100
0001
0010
0001
0100
0001
0000
,  // measure 75
0010
0001
0100
0001
0010
0001
0100
0000
0001
1000
0001
1000
0001
1000
0001
0000
,  // measure 76
1000
0100
0010
0001
0010
0100
1000
0100
0010
0001
0010
0100
1000
0100
0010
0000
,  // measure 77
0001
0100
0010
1000
0100
0010
0001
0100
0010
1000
0100
0010
0001
0010
0100
1000
,  // measure 78
0001
0000
0000
0000
;
