#TITLE:Verflucht;
#SUBTITLE:;
#ARTIST:Tyrfing;
#TITLETRANSLIT:;
#SUBTITLETRANSLIT:;
#ARTISTTRANSLIT:;
#GENRE:HARD NRG;
#CREDIT:;
#BANNER:Verflucht-bn.png;
#BACKGROUND:Verflucht-bg.png;
#LYRICSPATH:;
#CDTITLE:;
#MUSIC:Verflucht.ogg;
#OFFSET:-0.542000;
#SAMPLESTART:88.546997;
#SAMPLELENGTH:12.000000;
#SELECTABLE:YES;
#BPMS:0.000000=180.000000
,4.000000=360.000000
,132.000000=180.000000
,162.000000=90.000000
,163.000000=360.000000
,223.000000=180.000000
,224.000000=360.000000
,286.000000=180.000000
,287.000000=360.000000
,351.000000=180.000000
,383.000000=360.000000
,437.000000=180.000000
,441.000000=360.000000
;
#STOPS:0.000000=0.333000,
0.500000=0.333000,
1.000000=0.333000,
1.500000=0.167000,
2.000000=0.167000,
175.000000=0.167000,
206.000000=0.167000,
395.000000=0.167000,
426.000000=0.167000
;
#BGCHANGES:;
#KEYSOUNDS:;
#ATTACKS:;

//---------------dance-single - ----------------
#NOTES:
     dance-single:
     :
     Hard:
     17:
     0.988930,1.518626,0.112491,0.155757,0.034613,800.000000,787.000000,13.000000,18.000000,0.000000,0.000000,0.988930,1.518626,0.112491,0.155757,0.034613,800.000000,787.000000,13.000000,18.000000,0.000000,0.000000:
1100
0110
0011
0101
1010
0110
1001
0000
,
0001
1000
0001
0010
,
0100
1000
0010
0100
,
0010
1000
0001
0100
,
0001
0010
0100
1000
,
0010
0100
1000
0100
,
0001
0010
0100
0010
,
1000
0010
0100
1000
,
0010
0001
0010
1000
,
0100
0001
0100
0010
,
0001
1000
0010
0100
,
0001
1000
0010
1000
,
0100
0001
0100
1000
,
0001
1000
0010
0001
,
0010
1000
0001
0010
,
0001
0001
0010
0010
,
0100
1000
0100
1000
0000
0000
0000
0000
,
1001
0000
0001
0000
0010
0001
0000
0010
,
0100
0000
1000
0010
0000
0100
0001
0000
,
1000
0000
0001
0000
1000
0100
0000
0010
,
0100
0000
1000
0001
0000
0010
0100
0000
,
1000
0000
0001
0000
0100
0001
0000
1000
,
0100
0000
1000
0010
0000
1000
0001
0000
,
0010
0000
0001
0100
0001
1000
0000
1000
,
0010
0000
0010
1000
0100
1000
0001
0000
,
0010
0000
0001
0000
0100
0001
0000
1000
,
0010
0000
1000
0001
0000
0100
0010
0000
,
1000
0000
0100
0000
1000
0001
0000
0010
,
0001
0000
0010
0100
0000
0010
0001
0000
,
0010
0010
0001
0001
,
1000
1000
0010
0010
,
0100
0010
0100
0010
0100
0010
0100
0010
,
1000
0001
1000
0001
1000
0001
1000
0001
,
1000
1000
1000
1000
1000
1000
1000
1000
,
0001
0000
0010
0000
0010
0000
0010
0000
0002
0000
0000
0000
0000
0000
0000
0003
,
0100
0100
0100
0010
1000
0100
0010
0010
,
0001
0100
0100
0001
1000
0001
1000
1000
,
0010
0010
0010
0010
0010
0010
0010
0010
,
1000
0100
0100
0100
0020
0000
0000
0000
,
0031
0001
0001
1000
0010
0100
0010
0010
,
1000
0000
0000
0000
0001
0000
0000
0000
0001
0000
0000
0000
0010
0000
0000
0000
0002
0000
0000
0000
0000
0000
0000
0003
0010
0000
0000
0000
0001
0000
0000
0000
,
0010
0001
0010
0001
0010
0001
0010
0001
,
0010
0001
0010
0000
0100
0010
0100
0010
,
0100
0010
0100
0010
0100
0010
0100
0000
,
1100
0000
0010
1000
0010
1000
0010
1000
,
0010
1000
0010
1000
0010
1000
0010
1000
,
0010
0000
0100
0010
0100
0010
0100
0010
,
0100
0010
0100
0010
0100
0000
0001
0100
,
0001
0100
0001
0100
0001
1000
0001
1000
,
0001
1000
0001
1000
0001
1000
0001
1000
,
0001
0000
1000
0100
1000
0100
1000
0100
,
1000
0100
1000
0100
1000
0000
0101
0000
,
0010
0001
0010
0001
0010
0001
0010
0001
,
0010
0001
0010
0001
0010
0001
0010
0000
,
0100
0010
0100
0000
0010
0000
0100
1000
,
0000
0010
0100
0000
0010
1000
0020
0000
,
1030
0001
0010
0100
,
1000
0010
0100
0001
,
1000
0100
0001
0100
,
1000
0000
0010
0000
0100
0001
0010
0000
,
0100
1000
0010
1000
,
0001
0100
0010
1000
,
0100
1000
0001
0010
,
0100
0010
0001
0000
1000
0001
0010
0000
,
0010
0001
0001
0010
,
0100
0010
0100
1000
,
0010
0001
0010
1000
,
0100
0000
0010
0000
0100
1000
0001
0000
,
0010
0001
0100
0001
,
1000
0010
1000
0001
,
0010
0000
0100
0000
1000
0001
0000
0100
,
0001
0000
1000
0010
0200
0000
0301
0010
,
0100
0000
1000
0001
0100
0000
0010
1000
,
0001
0000
0100
0010
1000
0000
0100
1000
,
0001
0000
0100
0001
1000
0000
0100
1000
,
0010
0000
1000
0100
0010
0000
0001
0010
,
0100
0000
1000
0001
0100
0000
0010
1000
,
0100
0000
1000
0001
0010
0000
0100
1000
,
0001
0000
0100
0010
1000
0000
0010
0100
,
0010
1000
0010
0100
0010
1000
0010
0100
,
0001
0000
0010
0100
1000
0000
0001
0100
,
0010
0000
1000
0100
1000
0000
0001
0010
,
0100
0000
1000
0001
0100
0000
0001
1000
,
0100
0000
1000
0010
1000
0000
0001
0000
,
1000
0000
0001
0000
0010
0000
0001
0010
,
0001
0100
0010
1000
0100
1000
0010
0100
,
0001
1000
0010
0100
0001
0010
0001
1000
,
0100
0010
0001
0100
0010
1000
0200
0000
,
0000
0000
1300
0001
0001
2000
0000
0000
,
0000
3200
0000
0000
0000
0000
0320
0000
,
0000
0000
0000
0031
0001
0200
0000
0000
,
0300
0200
0000
0000
0000
0000
0320
0000
,
0000
0000
0000
1030
1000
2000
0000
0000
,
0000
3002
0000
0000
0000
0003
0220
0000
,
0000
0000
0000
0000
,
0000
0000
0000
0000
0000
0330
0010
0100
,
0010
0100
0010
0100
0010
0100
0010
0100
,
0010
0100
0010
0000
1000
0001
1000
0001
,
1000
0001
1000
0001
1000
0001
1000
0000
,
1010
0000
0001
0100
0001
0100
0001
0100
,
0001
0100
0001
0100
0001
0100
0001
0100
,
0001
0000
1000
0010
1000
0010
1000
0010
,
1000
0010
1000
0010
1000
0000
0001
0010
,
0001
0010
0001
0010
0100
0010
0100
0010
,
0100
0010
0100
0010
0100
0010
0100
0010
,
0100
0000
1000
0100
1000
0100
1000
0100
,
1000
0100
1000
0100
1000
0000
0101
0000
,
1000
0001
1000
0001
1000
0001
1000
0001
,
1000
0001
1000
0001
1000
0001
1000
0000
,
0001
0000
1000
0000
0001
0100
0010
1000
0010
0100
0001
1000
0001
0010
0100
1000
,
0010
0100
0001
0010
0001
0000
1000
0000
0000
0000
0010
0000
1000
0000
0000
0000
,
0100
0000
0010
0000
0001
0100
0000
0001
,
1000
0000
0000
0000
0010
1000
0010
0000
,
1000
0000
0001
0000
0100
0010
0000
1000
,
0100
0000
1000
0001
0000
0100
0001
0000
,
0010
0000
0001
0000
0100
0001
0000
1000
,
0010
0000
1000
0100
0000
0000
1000
0000
,
0010
0000
0100
0000
0010
1000
0000
0100
,
0010
0000
0001
0100
0000
0001
1000
0000
,
0010
0000
1000
0000
0100
1000
0000
0000
,
0010
0000
0100
0001
0000
0000
0010
0000
,
0001
0000
0100
0000
0001
1000
0000
0010
,
1000
0000
0100
1000
0000
0001
0100
0000
,
0001
0000
1000
0000
0100
0010
0000
0001
,
0010
0001
0010
0100
,
0010
0000
0100
1000
0100
1000
0000
0000
,
0100
0000
1000
0010
0000
0100
0010
0000
,
1000
0000
0001
0000
0100
0001
0000
1000
,
0010
0000
0000
0000
0100
0001
1000
0000
,
0010
0000
1000
0000
0100
0010
0000
0001
,
0100
0000
0001
1000
0000
0010
0100
0000
,
0010
0000
1000
0000
0100
1000
0000
0010
,
0100
0010
0100
0010
,
0100
0000
0001
1000
0001
1000
0000
0000
,
1000
0100
0010
0001
,
1000
0000
0001
0010
0001
0010
0001
0000
,
0100
0010
1000
0001
,
1000
0000
0100
1000
0100
1000
0100
0000
,
1000
0000
0010
1000
0010
1000
0010
1000
,
0010
1000
0010
1000
0010
1000
0010
0000
,
0100
0001
0100
0001
0100
0001
0100
0001
,
0100
0001
0100
0000
0010
0100
0010
0100
,
0010
0200
0020
0000
0000
0000
0000
0000
,
0000
0000
0000
0000
,
0000
0000
0000
0000
,
0000
0000
0000
0000
,
0000
0330
0000
0000
;

//---------------dance-single - ----------------
#NOTES:
     dance-single:
     :
     Challenge:
     18:
     1.137270,1.526414,0.294207,0.043266,0.069225,920.000000,886.000000,34.000000,5.000000,0.000000,0.000000,1.137270,1.526414,0.294207,0.043266,0.069225,920.000000,886.000000,34.000000,5.000000,0.000000,0.000000:
0110
1001
1100
0011
0101
1010
0011
0000
,
0010
0100
0010
0001
,
1000
0000
0010
0000
0100
0001
1000
0000
,
0010
0000
1000
0000
0100
0000
1000
0001
,
0010
0100
1000
0001
,
0100
0000
0010
0000
1000
0000
0001
0100
,
0010
1000
0100
1000
,
0001
0010
0100
0000
1000
0000
0001
0100
,
0010
0000
1000
0000
0100
1000
0001
0000
,
0100
0001
0010
0100
,
1000
0000
0010
0000
1000
0100
1000
0000
,
0001
0010
0001
0000
0010
0000
0100
1000
,
0001
0000
0100
0000
0010
1000
0010
0000
,
1000
0001
0100
0000
0010
0000
1000
0100
,
1000
0000
0001
0000
0010
0001
0010
0000
,
0100
0010
1000
0010
,
0100
0010
0100
0010
0000
0000
0000
0000
,
1010
0000
0010
1000
0010
0100
0000
0001
,
0100
0000
0010
1000
0000
0100
1000
0000
,
0001
0000
0010
0100
0010
0001
0000
0100
,
0001
0000
1000
0010
0000
0100
0001
0000
,
1000
0000
0010
1000
0100
1000
0000
0001
,
0010
0000
0001
0100
0000
0001
0010
0000
,
0100
0000
0010
0001
0010
1000
0000
0010
,
0001
0000
1000
0100
1000
0001
0100
0000
,
0010
0000
1000
0100
1000
0001
0000
0100
,
0010
0000
1000
0001
0000
0100
0010
0000
,
1000
0000
0100
1000
0001
0010
0000
0100
,
0010
0000
0001
0100
0000
0001
1000
0000
,
1010
0010
0101
0100
,
1100
1000
0101
0001
,
0010
0001
0010
0001
0010
0100
0010
0100
,
1000
0010
0100
0001
0100
0010
1000
0001
,
1000
0010
0010
0010
0010
0010
0010
0010
,
1000
0001
0001
0001
0200
0000
0000
0000
,
0310
0010
0010
1000
0001
0100
0001
0001
,
1000
0100
0100
1000
0001
0010
0100
0100
,
1000
1000
1000
1000
1000
1000
1000
1000
,
0001
0100
0100
0100
0020
0000
0000
0000
,
1030
1000
1000
0001
0010
0100
0010
0010
,
0001
1000
1000
0010
0200
0000
0301
0010
,
0001
0010
0100
0010
0100
1000
0001
0100
,
0010
1000
0001
0000
0100
0010
1000
0100
,
1000
0001
0010
0100
1000
0001
0100
0000
,
1010
0000
1000
0100
1000
0001
0010
0100
,
1000
0001
0100
0010
1000
0001
1000
0100
,
0010
0000
0001
0010
0100
1000
0001
0100
,
0010
1000
0100
1000
0001
0000
0010
0100
,
0010
0001
0010
0100
0010
0001
1000
0100
,
1000
0001
0100
0010
1000
0001
0100
0010
,
1000
0000
0100
1000
0010
1000
0001
0100
,
0010
1000
0100
1000
0001
0000
0011
0000
,
0010
0100
0010
0001
1000
0001
0010
0100
,
1000
0001
0100
0010
1000
0010
0100
0000
,
1000
0100
1000
0000
0100
0000
0001
0100
,
0000
1000
0100
0000
0100
0001
1000
0000
,
1000
0100
0010
0001
0010
0100
1000
0000
,
0001
0100
0010
1000
,
0001
0100
0010
0000
1000
0000
0100
0000
,
1000
0001
0010
0000
0100
1000
0001
0000
,
0100
0010
1000
0001
0100
0010
1000
0000
,
0100
1000
0001
0000
0010
0100
1000
0000
,
0001
0010
0100
1000
,
0001
0010
0100
1000
0100
0010
0001
1000
,
0001
0100
0010
1000
0100
1000
0001
0000
,
0010
1000
0010
0001
,
0100
1000
0001
0010
,
1000
0000
0100
0000
0010
0001
1000
0000
,
0100
0010
0001
1000
0010
0100
0001
0000
,
0100
0010
1000
0001
0100
0010
1000
0000
,
0100
0000
1000
0000
0001
0010
0000
0100
,
1000
0000
0001
0100
0010
0000
1000
0100
,
0010
0001
0010
0100
1000
0100
0010
0001
,
0010
0100
1000
0100
0010
0000
0001
0100
,
0010
1000
0010
0100
0010
1000
0001
0100
,
0010
0100
0010
1000
0010
0000
0100
0001
,
1000
0100
0010
0001
0010
0100
0010
0001
,
0100
0010
0100
0001
0100
0010
1000
0100
,
1000
0001
0010
0100
1000
0000
0001
0010
,
0100
0010
0001
0010
0100
0010
0001
0100
,
0010
1000
0001
0100
0010
1000
0100
1000
,
0010
0100
0001
1000
0010
0000
1000
0100
,
1000
0001
0010
0100
1000
0001
0100
0010
,
1000
0100
1000
0001
1000
0000
0100
0000
,
0010
0000
0001
0000
1000
0000
0100
1000
,
0001
0100
0010
1000
0100
0010
0100
0001
,
0100
1000
0001
0100
1000
0100
0001
0010
,
0100
0001
0100
0010
1000
0010
0001
0000
,
1000
0000
0001
0000
0100
0000
0000
0010
0000
0000
1000
0000
0000
0000
0001
0000
,
0100
0000
1000
0000
0001
0000
0000
0010
0000
0000
0100
0000
0001
0000
0000
0000
,
0010
0000
0001
0000
0010
0000
0000
1000
0000
0000
0010
0000
0100
0000
0000
0000
,
1000
0000
0010
0000
0001
0000
0000
0010
0000
0000
1000
0000
0001
0000
0000
0000
,
0010
0000
0100
0000
0010
0000
0000
0001
0000
0000
1000
0000
0000
0000
0001
0000
,
1000
0000
0010
0000
0001
0000
0000
1000
0000
0000
0100
0000
0010
0000
0000
0000
,
1000
0000
0001
0000
0100
0000
0000
0001
0000
0000
0100
0000
1000
0000
0000
0000
,
0001
0000
0010
0000
1000
0000
0000
0100
0000
0000
0010
0000
0001
0000
0100
0000
,
0010
1000
0100
0010
0100
1000
0100
0010
,
0001
0010
0100
0000
0010
0001
0100
0001
,
0010
0100
1000
0010
0100
0001
0100
0000
,
1001
0000
1000
0100
1000
0001
0010
0100
,
1000
0001
0010
0100
1000
0100
1000
0010
,
1000
0000
0100
0010
0001
0010
0100
0010
,
0001
0100
0001
0010
0100
0000
1000
0010
,
0100
0010
1000
0010
0100
0001
1000
0100
,
0010
0100
0010
0001
0010
0100
1000
0001
,
1000
0000
0001
0100
0001
0010
0001
0100
,
0010
1000
0100
1000
0100
0000
0101
0000
,
0100
1000
0010
1000
0100
0010
0001
0010
,
0100
1000
0001
0100
0010
1000
0100
0000
,
1000
0000
0001
0000
1000
0100
0001
1000
0010
0001
1000
0001
0010
1000
0001
0100
,
0010
0001
0100
1000
0100
0000
0001
0000
0000
0000
0001
0000
0100
0000
0000
0000
,
0010
0000
1000
0000
0100
1000
0000
0001
,
0100
0000
1010
0000
0100
1000
0001
0000
,
0010
0000
0100
0000
1000
0001
0000
0100
,
0010
0000
1000
0100
0000
1000
0001
0000
,
0100
0000
0110
0000
1000
0100
0000
1000
,
0001
0000
0010
0100
0000
0100
1000
0000
,
0100
0000
1000
0000
0010
0001
0000
0010
,
0100
0000
0100
0001
1000
0000
0010
0000
,
0100
0000
0001
0000
1000
0100
0000
0010
,
0001
0000
1000
0010
1000
0001
0100
0000
,
0010
0000
1000
0000
1000
0001
0000
0010
,
0100
0000
0010
0001
0000
0100
0001
0000
,
1000
0010
1000
0000
1000
0100
0000
0001
,
0100
1001
1010
0110
,
0101
0000
0010
0100
0010
0001
0000
0000
,
0010
0000
0001
0010
1000
0010
0001
0000
,
1000
0000
0001
0000
0100
0010
0000
1000
,
0100
0000
1000
0010
0100
1000
0100
0000
,
0010
0000
1000
0000
0100
0010
0000
1000
,
0010
0000
0001
1000
0001
0100
1000
0000
,
0100
0000
0001
0000
1000
0010
0000
0100
,
0010
1001
0110
1001
,
1010
0000
1000
0001
0100
0010
1000
0000
,
0100
1001
0110
1001
,
0110
0000
1000
0001
0100
0010
1000
0000
,
0100
1100
0110
0011
,
0110
0000
1000
0001
0100
0010
1000
0000
,
0001
0100
0010
1000
0100
1000
0001
0010
,
0100
1000
0001
0100
0010
1000
0100
0000
,
1000
0010
0100
1000
0100
0010
0100
0001
,
0010
0100
0010
0000
1000
0010
0001
1000
,
0100
0002
2000
0000
0000
0000
0000
0000
,
0000
0000
0000
0000
,
0000
0000
0000
0000
,
0000
0000
0000
0000
,
0000
0000
0000
0000
,
3003
0000
0000
0000
;

//---------------dance-single - ----------------
#NOTES:
     dance-single:
     :
     Medium:
     15:
     0.802270,1.081210,0.138450,0.138450,0.000000,649.000000,633.000000,16.000000,16.000000,0.000000,0.000000,0.802270,1.081210,0.138450,0.138450,0.000000,649.000000,633.000000,16.000000,16.000000,0.000000,0.000000:
1010
0010
0110
0101
0100
0001
0011
0000
,
0010
0001
0010
0100
,
1000
0010
1000
0010
,
0010
0100
0001
1000
,
0100
0010
0001
1000
,
1000
0001
0100
0010
,
1000
0100
0010
0010
,
0001
0000
0100
0000
0001
0000
1000
0010
,
1000
0000
0100
0000
0010
0001
0000
0000
,
0100
0001
1000
0100
,
0010
0001
0100
0001
,
1000
0001
1000
0000
0001
0000
1000
0000
,
0100
0001
0100
1000
,
0001
0010
0100
0010
,
0001
1000
0001
0000
,
1000
0010
1000
0010
,
0100
0000
0010
0100
0000
0000
0000
0000
,
0100
0000
0001
0000
0010
0001
0000
0000
,
0001
0000
0000
0010
0000
0000
0100
0000
,
1000
0000
0010
0000
0100
0010
0000
0000
,
0010
0000
0000
1000
0000
0000
0001
0000
,
0100
0000
0001
0000
1000
0100
0000
0000
,
0100
0000
0000
0010
0000
0000
0100
0000
,
0010
0000
0001
0000
0100
0001
0000
0000
,
1000
0000
0001
1000
0000
1000
0010
0000
,
0100
0000
0001
0000
1000
0100
0000
0000
,
0001
0000
0100
1000
0000
0000
1000
0000
,
0100
0000
0010
0000
0001
0100
0000
0000
,
1000
0000
0100
0001
0000
0000
0001
0000
,
0100
0001
1000
0001
,
1000
0010
1000
0010
,
1000
0010
1000
0000
0010
1000
0010
0000
,
0100
0010
0100
0000
0001
0100
0001
0000
,
0100
0010
0100
0010
0100
0010
0100
0010
,
1000
0010
1000
0001
0020
0000
0000
0000
,
0031
0010
0001
0010
0100
0010
0100
1000
,
0001
1000
0100
1000
0001
1000
0001
0010
,
0001
0100
0010
0100
0010
0100
0010
0100
,
0001
1000
0010
1000
0002
0000
0000
0000
,
0013
0001
0010
0100
1000
0010
0100
0010
,
0100
0010
1000
0010
2000
0000
3100
0000
,
0010
0100
0010
0100
,
0010
0000
0001
0000
0010
0001
0010
0000
,
0001
0010
0100
1000
,
1010
0000
0100
0010
0100
0000
0010
0000
,
0100
0010
0100
0001
,
0100
0000
0001
0100
0001
0000
1000
0000
,
0001
0000
1000
0000
0100
1000
0100
0000
,
1000
0100
1000
0000
0010
0000
1000
0000
,
0010
0100
0010
0100
,
0001
0000
0010
0001
0010
0000
0001
0000
,
0010
0100
1000
1010
,
0001
1000
0001
0000
1000
0000
0100
0000
,
0001
0100
1000
0010
,
0100
0001
0100
0000
0010
0000
1000
0001
,
0000
1000
0001
0000
0001
1000
0001
0000
,
1000
0100
0010
0001
,
0010
0100
1000
0010
,
0001
0010
1000
0001
,
0010
0100
1000
0000
,
0001
0100
0010
1000
,
0100
0010
0100
0001
,
0100
0010
0100
1000
,
1010
0000
0101
0000
,
0010
1000
0001
1000
,
0100
0001
0100
1000
,
0001
0100
0010
1000
,
0010
0001
0010
0000
,
0100
0001
0010
0100
,
1000
0010
0100
0010
,
1000
0000
0100
0000
1000
0001
0000
0001
,
0100
0000
0001
1000
0001
0000
1000
0000
,
1000
0001
0010
0100
,
0001
0100
0010
0001
,
1000
0100
0010
0001
,
0010
0000
0100
1000
0100
0000
1000
0000
,
0100
0001
0100
1000
,
0010
0001
1000
0100
,
0001
0000
0001
0000
0010
0000
0100
1000
,
0100
0000
0010
0100
0010
0000
0100
0000
,
0010
0001
1000
0100
,
0001
1000
0010
0001
,
0001
0000
0010
0001
0010
0000
0100
0010
,
0100
0000
1000
0100
1000
0000
0010
0000
,
1000
0000
0001
0000
0100
0000
0001
0100
,
0001
0100
0001
1000
0001
1000
0010
0100
,
0010
0100
0010
0100
0010
0100
0001
0100
,
0001
0100
0001
1000
0001
1000
0002
0000
,
0000
0000
0003
1000
0010
2000
0000
0000
,
0000
3020
0000
0000
0000
0000
0230
0000
,
0000
0000
0300
0010
1000
0002
0000
0000
,
0000
0023
0000
0000
0000
0000
0230
0000
,
0000
0000
0300
1000
0100
0020
0000
0000
,
0030
0200
0000
0000
0000
0300
2002
0000
,
0000
0000
0000
0000
,
0000
0000
0000
0000
3003
0000
0001
0100
,
0001
0010
1000
0010
,
0001
0000
0010
0000
0100
1000
0100
0000
,
0001
0100
1000
0001
,
1001
0000
0001
0100
0001
0000
0100
0000
,
0010
0001
0010
0100
,
0010
0000
1000
0010
1000
0000
0010
0000
,
1000
0000
0001
0000
1000
0000
0001
0010
,
0001
0000
0010
0100
0010
0000
0100
0000
,
0010
1000
0010
0001
,
0010
0000
0100
1000
0100
0000
1000
0000
,
0100
1000
0100
1001
,
0001
1000
0001
0000
0100
0000
0001
0000
,
1000
0001
0100
0001
,
0100
0001
1000
0010
0001
0010
1000
0010
,
0100
0001
0011
0000
0000
0000
0001
0000
,
0100
0000
0010
0000
0000
1000
0000
0000
,
0100
0010
0000
0001
,
0100
0000
0001
0000
0000
1000
0000
0000
,
0010
1000
0000
0100
,
0010
0000
0100
0000
0000
1000
0000
0000
,
0001
0100
0000
0010
,
0100
0000
0001
0000
0000
0110
0000
0000
,
1000
0000
0100
1000
0000
0000
0010
0000
,
1000
0000
0100
0000
0001
0100
0000
0000
,
0010
0001
0000
0010
,
1000
0000
0010
0000
0001
0010
0000
0000
,
1000
0000
0010
1000
0000
0000
0010
0000
,
0001
0000
0100
0000
0010
0100
0000
0000
,
0010
0100
0001
0100
,
0010
0000
0100
0010
0100
0010
0000
0000
,
0100
0110
0000
1000
,
0001
0000
0100
0000
0010
0100
0000
0000
,
0010
0000
1000
0000
0100
0010
0000
0100
,
0001
0000
0100
0000
0010
0100
0000
0000
,
1010
0000
0010
1000
0000
0000
1001
0000
,
0001
0000
0010
0000
0001
0010
0000
0100
,
0010
0100
1000
0010
,
0001
0000
0010
0000
1000
0001
0000
0000
,
1000
0010
1000
0001
,
1000
0000
0010
1000
0010
1000
0010
0000
,
0100
0001
0010
0100
,
1000
0000
0001
0010
0001
0010
0001
0000
,
1000
0000
0100
0010
0100
0010
0100
0010
,
0100
0010
0100
0010
0100
0010
0100
0000
,
1000
0001
1000
0001
1000
0001
1000
0001
,
1000
0001
1000
0000
0010
0100
0010
0100
,
0010
0200
0020
0000
0000
0000
0000
0000
,
0000
0000
0000
0000
,
0000
0000
0000
0000
,
0000
0000
0000
0000
,
0000
0000
0000
0000
,
0330
0000
0000
0000
;

//---------------dance-single - ----------------
#NOTES:
     dance-single:
     :
     Easy:
     11:
     0.567399,0.763207,0.181716,0.095185,0.000000,459.000000,438.000000,21.000000,11.000000,0.000000,0.000000,0.567399,0.763207,0.181716,0.095185,0.000000,459.000000,438.000000,21.000000,11.000000,0.000000,0.000000:
// measure 0
1001
1010
1001
0000
,  // measure 1
1001
0010
0100
0010
,  // measure 2
0001
0010
0100
0000
,  // measure 3
1000
0010
0100
0001
,  // measure 4
1000
0010
1000
0000
,  // measure 5
0001
0010
0100
0010
,  // measure 6
0001
0100
0001
0000
,  // measure 7
1000
0010
1000
0000
,  // measure 8
0010
0100
0010
0000
,  // measure 9
0100
0001
0100
0001
,  // measure 10
0010
0100
1000
0000
,  // measure 11
0010
1000
0010
0100
,  // measure 12
0001
1000
0001
0000
,  // measure 13
0010
0100
0010
0001
,  // measure 14
0010
0100
1000
0000
,  // measure 15
0010
1000
0010
0100
,  // measure 16
0010
0000
0000
0100
0000
0000
0000
0000
,  // measure 17
0101
0000
1000
0000
,  // measure 18
0100
0000
0000
1000
0000
0000
0001
0000
,  // measure 19
0100
0000
0001
0000
,  // measure 20
0010
0000
0000
0100
0000
0000
1000
0000
,  // measure 21
0010
0000
1000
0000
,  // measure 22
0001
0000
0000
0100
0000
0000
0001
0000
,  // measure 23
0010
0000
0100
0010
,  // measure 24
0001
0000
0000
0010
0000
0000
0001
0000
,  // measure 25
0010
0100
1000
0000
,  // measure 26
0010
0000
0000
1000
0000
0000
0010
0000
,  // measure 27
0100
0010
1000
0000
,  // measure 28
0100
0000
0000
1000
0000
0000
0000
0000
,  // measure 29
1000
0001
0100
0010
,  // measure 30
1000
0001
0100
0010
,  // measure 31
1010
0000
0101
0000
,  // measure 32
0011
0000
1100
0000
,  // measure 33
1000
0001
1000
0001
,  // measure 34
1000
0010
0200
0000
,  // measure 35
0301
0010
0100
1000
,  // measure 36
0100
0010
0001
1000
,  // measure 37
0001
1000
0001
1000
,  // measure 38
0010
0100
0020
0000
,  // measure 39
1030
0100
1000
0001
,  // measure 40
0100
0001
0020
0130
,  // measure 41
0000
1000
0000
0010
,  // measure 42
0000
1000
0001
1000
,  // measure 43
0000
0000
0001
0000
0000
0000
0020
0030
,  // measure 44
0100
0010
0001
0000
,  // measure 45
0010
0000
0001
0000
,  // measure 46
0100
0001
1000
0000
,  // measure 47
0001
0000
1010
0000
,  // measure 48
0101
0000
1000
0100
,  // measure 49
0010
0000
0100
0000
,  // measure 50
0010
0001
0010
0000
,  // measure 51
0100
0000
0000
0000
0020
0030
1001
0000
,  // measure 52
1000
0010
0000
1000
,  // measure 53
0000
0010
0000
0100
,  // measure 54
0001
1000
0000
0100
,  // measure 55
0000
1000
0000
0020
,  // measure 56
1030
0000
0100
0000
,  // measure 57
0010
0000
0001
0000
,  // measure 58
0100
0000
0001
0000
,  // measure 59
1000
0010
1000
0010
,  // measure 60
0100
0000
0001
0000
,  // measure 61
0100
0000
0001
0000
,  // measure 62
0010
0000
0100
0000
,  // measure 63
1000
0100
0010
0100
,  // measure 64
1000
0000
0001
0000
,  // measure 65
0100
0000
0010
0000
,  // measure 66
0100
0000
0001
0000
,  // measure 67
0010
0000
0100
0010
,  // measure 68
0001
0000
1000
0000
,  // measure 69
0001
0000
0100
0000
,  // measure 70
0010
1000
0001
0000
,  // measure 71
0010
0000
0002
0013
,  // measure 72
0100
1000
0001
0100
,  // measure 73
0000
0110
0000
1000
,  // measure 74
0100
1000
0010
0100
,  // measure 75
0000
1001
0000
0010
,  // measure 76
0100
1000
0010
0100
,  // measure 77
0001
1000
0000
0100
,  // measure 78
1000
0100
0010
0001
,  // measure 79
0010
0100
0010
0001
,  // measure 80
0010
0100
1000
0010
,  // measure 81
0000
0110
0000
0100
,  // measure 82
0010
1000
0100
0010
,  // measure 83
0000
0110
0000
0010
,  // measure 84
0001
0010
0001
1000
,  // measure 85
0001
1000
0001
1000
,  // measure 86
0010
0100
0010
1000
,  // measure 87
0100
0001
0100
1000
,  // measure 88
0000
1000
0000
0001
,  // measure 89
0000
1000
0000
0010
,  // measure 90
0000
1000
0000
0100
,  // measure 91
0000
0010
0000
0001
,  // measure 92
0000
1000
0000
0010
,  // measure 93
0000
0100
0000
0002
,  // measure 94
0000
0000
0000
0000
,  // measure 95
0000
0000
0000
0000
0000
0003
1000
0000
,  // measure 96
0100
1000
0100
1000
,  // measure 97
0100
1000
0000
0100
,  // measure 98
0010
0000
0100
0000
0010
0000
0200
0300
,  // measure 99
0011
0001
0010
0001
,  // measure 100
0010
0001
0010
0001
,  // measure 101
0010
0000
0100
0010
,  // measure 102
0100
0010
0100
1000
,  // measure 103
0100
1000
0100
1000
,  // measure 104
0100
1000
0100
1000
,  // measure 105
0100
0000
1000
0001
,  // measure 106
1000
0000
0001
0000
2000
3000
1001
0000
,  // measure 107
0001
1000
0001
1000
,  // measure 108
0001
1000
0001
1000
,  // measure 109
0000
0000
0010
0100
0010
0100
0010
1000
,  // measure 110
0010
1000
0010
0000
0000
0000
1000
0000
,  // measure 111
0100
0000
0010
0000
0000
0100
0000
0000
,  // measure 112
0010
0001
0000
0100
,  // measure 113
0001
0000
1000
0000
0000
0010
0000
0000
,  // measure 114
0100
0010
0000
1000
,  // measure 115
0100
0000
0010
0000
0000
0100
0000
0000
,  // measure 116
0010
0100
0000
0010
,  // measure 117
0001
0000
0100
0000
0000
0001
0000
0000
,  // measure 118
1000
0001
0000
0100
,  // measure 119
0010
0000
0100
0000
0000
0010
0000
0000
,  // measure 120
1000
0010
0000
0100
,  // measure 121
0010
0000
0100
0000
0000
0001
0000
0000
,  // measure 122
1000
0100
0000
0010
,  // measure 123
0100
0000
1000
0000
0000
0010
0000
0000
,  // measure 124
0100
0010
0100
0001
,  // measure 125
0100
0101
0000
1001
,  // measure 126
0000
1000
0100
0001
,  // measure 127
0100
0000
1000
0000
0000
0100
0000
0000
,  // measure 128
0010
0001
0000
0010
,  // measure 129
0001
0000
0100
0000
0000
0001
0000
0000
,  // measure 130
1000
0010
0001
0010
,  // measure 131
1000
0000
0100
0000
0000
0010
0000
0000
,  // measure 132
0001
0010
0100
0010
,  // measure 133
0100
1000
0000
1001
,  // measure 134
0000
0100
0001
0100
,  // measure 135
0001
0100
0001
1000
,  // measure 136
0000
0001
1000
0001
,  // measure 137
1000
0001
1000
0001
,  // measure 138
0000
1000
0100
1000
,  // measure 139
0100
1000
0100
1000
,  // measure 140
0100
0010
0100
0010
,  // measure 141
0100
0010
0100
0010
,  // measure 142
0100
0020
0000
0000
,  // measure 143
0000
0000
0000
0000
,  // measure 144
0000
0000
0000
0000
,  // measure 145
0000
0000
0000
0000
,  // measure 146
0000
0000
0000
0000
,  // measure 147
0030
0000
0000
0000
;

//---------------dance-single - LEGGENDARIA----------------
#NOTES:
     dance-single:
     :
     Edit:
     20:
     1.380794,1.717215,0.432657,0.017306,0.376412,1117.000000,1067.000000,50.000000,2.000000,0.000000,0.000000,1.380794,1.717215,0.432657,0.017306,0.376412,1117.000000,1067.000000,50.000000,2.000000,0.000000,0.000000:
1010
0101
0011
1100
1010
0101
0011
0000
,
0010
0100
0010
0001
0100
0010
1000
0001
,
0100
0010
1000
0100
1000
0001
0010
0100
,
1000
0001
0100
0010
1000
0100
1000
0001
,
0010
0100
1000
0001
0100
0010
1000
0000
,
0001
1000
0100
0010
0001
1000
0100
1000
,
0001
0100
0010
1000
0100
1000
0001
0000
,
0010
0001
0100
0000
0010
0000
1000
0001
,
0100
0000
0010
0000
1000
0100
1000
0000
,
0001
0010
0100
1000
0001
0100
0010
1000
,
0100
1000
0001
0010
0100
1000
0001
0100
,
0010
1000
0100
1000
0100
1000
0010
0100
,
0010
0100
0001
0100
0001
0010
0001
0000
,
0010
0100
0010
0001
0100
0001
0010
0001
,
0100
0010
1000
0100
0010
0001
0100
0000
,
1010
1100
0101
1010
,
1000
0001
0010
0100
0000
0000
0010
0000
,
0011
0000
0010
0100
1000
0001
0000
0100
,
0010
0000
1000
0100
0000
1000
0001
0000
,
0100
0000
0001
0010
0100
0010
0000
0001
,
0100
0000
0010
1000
0000
0100
1000
0000
,
0011
0000
0100
0010
1000
0001
0000
0100
,
0010
0000
1000
0100
0000
1000
0001
0000
,
0100
0000
0001
1000
0010
1000
0100
1000
,
0001
0000
0010
0001
0100
0001
0100
0000
,
1010
0000
0100
1000
0100
0001
0000
1000
,
0010
0000
0001
1000
0000
0001
0100
0000
,
1100
0000
0010
0001
0010
1000
0000
0001
,
0100
0000
1000
0001
0000
1000
0010
0000
,
0011
0011
1100
1100
,
0101
0101
1010
1010
,
0100
0010
0100
0010
1000
0100
1000
0100
,
0010
0001
0100
0001
0010
0001
1000
0010
,
1010
0000
0001
0000
0001
0000
1000
0100
0010
0001
1000
0000
0001
1000
0001
0000
,
0010
0000
0001
0000
1000
0010
1000
0001
0010
0001
1000
0010
1000
0000
0010
0000
,
0001
0000
0010
0000
1000
0100
0010
0001
0100
0010
1000
0000
0010
0000
0100
1000
,
0100
0001
0010
0000
1000
0010
0100
1000
0010
0000
0100
0001
1000
0000
0001
0000
,
0010
0100
1000
0010
0100
0000
0010
0001
0010
1000
0100
0000
0010
0001
0010
0000
,
0100
0000
1000
0000
1000
0100
1000
0001
0010
0001
1000
0100
0010
0000
0001
0000
,
1000
0000
0001
0010
1000
0010
0001
0100
0010
0000
0001
0000
1000
0100
0001
0010
,
1000
0000
0010
1000
0010
0000
0001
0010
0001
0001
0001
0001
1000
0000
0010
0000
,
0100
0010
1000
0010
0100
0001
0100
0010
,
1000
0010
0100
0000
0001
0100
0001
0010
,
0001
1000
0010
0100
0010
1000
0001
0000
,
1100
0000
1000
0100
0010
1000
0010
0100
,
1000
0001
0100
0010
0001
1000
0100
0010
,
1000
0000
0100
1000
0001
0010
0100
0001
,
0100
0010
0100
1000
0010
0000
0100
1000
,
0100
0100
0010
0100
1000
0010
0100
0001
,
0100
1000
0100
0001
0100
0010
1000
0100
,
1000
0000
0001
0100
0010
1000
0001
0010
,
0001
0100
0010
0100
0001
0000
0011
0000
,
0010
0100
0010
0001
0010
1000
0001
0100
,
1000
0001
0010
1000
0010
0001
1000
0001
,
0100
0010
1000
0010
0100
0000
0010
1000
,
0000
0100
0001
0000
1000
0010
0001
0000
,
1000
0100
0010
0001
0100
0001
0010
0100
,
1000
0001
0100
0010
1000
0100
0010
0001
,
0100
0010
1000
0100
1000
0001
0010
0100
,
1000
0010
0100
0010
1000
0001
0100
0000
,
0010
1000
0100
1000
0010
0100
0010
1000
,
0100
1000
0001
0010
0001
0100
0010
0100
,
0010
1000
0100
1000
0001
0010
0100
0000
,
0010
0001
0010
1000
0010
0001
0010
1000
,
0010
0001
0100
0010
1000
0100
1000
0010
,
0001
0010
0100
0001
0010
1000
0001
0100
,
0010
1000
0010
0001
0100
1000
0001
0010
,
1000
0100
0010
0010
0001
0010
0100
0000
,
0001
1000
0100
0001
0100
0100
0010
1000
,
0100
0001
1000
0010
0001
1000
0100
0010
,
0011
0000
1100
0000
1000
0001
0000
0010
,
0100
0000
1000
0010
1010
0001
1000
0100
,
0010
0100
0001
0100
0010
0001
0100
0010
,
0100
1000
0100
0010
0100
0100
1000
0010
,
1000
0100
0010
0001
0010
1000
0010
0001
,
1000
0100
0010
0010
1000
0001
0100
1000
,
0001
0010
1000
0100
0010
0100
0100
0001
,
1000
0010
1000
0010
0001
0010
0100
0100
,
1000
0100
0001
0100
1000
0100
0010
0001
,
0010
1000
0010
0001
1000
0000
0001
0010
,
0100
1000
1000
0100
0001
0010
0100
0001
,
0100
1000
0010
0100
1000
0100
0001
0010
,
1000
0001
0100
1000
0010
0001
0010
1000
,
1000
0001
0100
0010
0001
0100
0001
0100
,
0010
1000
0100
1000
0010
1000
0001
0010
,
0001
0100
0001
0010
0001
1000
0100
1000
,
0010
0100
0010
1000
0100
0010
0001
0100
,
0010
0000
1000
0000
0100
0000
0001
0000
0100
0000
1000
0000
1010
0010
0000
0100
,
0001
0010
0100
0000
1000
0010
0000
0100
0010
0000
1000
0001
0010
0100
0000
0010
,
0001
0000
0100
0010
1000
0000
0100
1000
0000
0001
0010
0000
0001
0100
0000
0010
,
1000
0001
0010
0000
0001
0100
0000
0010
1000
0000
0010
1000
0100
0010
0000
0001
,
0010
0000
0100
1000
0010
0100
0000
0001
0010
0000
0100
1000
0001
0100
0000
0010
,
1000
0001
1000
0000
0100
0010
0000
0001
0010
0000
0100
1000
0010
0100
0000
0001
,
1000
0000
0100
1000
0001
0000
0100
0001
0000
1000
0100
0000
0010
0001
0000
0100
,
0010
1000
0100
0000
0100
0010
0000
0010
0001
0000
1000
0010
0001
0010
0000
0100
,
0001
0000
0010
0100
1000
0100
0010
0001
0000
0100
0010
0000
1000
0000
0010
0000
,
1000
0100
1000
0010
1000
0100
1000
0010
,
1000
0100
1000
0000
0001
0010
0001
0100
,
0001
0010
0001
0100
0001
0010
0001
0000
,
1001
0000
1000
0100
0001
0100
1000
0100
,
0001
0100
1000
0100
0001
0100
1000
0100
,
0001
0000
0001
0010
1000
0010
0001
0010
,
1000
0010
0001
0010
1000
0000
1000
0100
,
0001
1000
0010
0001
1000
0010
1000
0100
,
1000
0010
1000
0100
1000
0010
1000
0100
,
1000
0000
0010
1000
0100
0010
0001
0100
,
0001
0010
0001
0100
0001
0000
0011
0000
,
0010
0100
1000
0010
1000
0100
1000
0010
,
1000
0100
0010
0001
0100
0001
0010
0000
,
0001
0000
1000
0000
0010
1000
1000
0100
0001
0001
0100
0010
0001
0001
0010
1000
,
0100
0010
0010
0001
0010
0000
1000
0000
0000
0000
0100
0000
1000
0000
0000
0000
,
0001
0000
0100
0000
0010
1000
0000
0100
,
1000
0000
0001
0100
0010
1000
0001
0000
,
0100
0000
0010
0000
1000
0100
0000
1000
,
0001
0000
0010
0100
1000
0001
0100
0000
,
0010
0000
1000
0000
0001
1000
0000
0100
,
0010
0000
0001
0100
0010
1000
0001
0000
,
0100
0000
0010
0000
1000
0100
0000
1000
,
0010
0000
0100
0001
1000
0100
0001
0000
,
0100
1000
0001
0000
0010
0100
0000
1000
,
0001
0000
0100
0010
0100
0001
0010
0000
,
0100
0001
1000
0000
0010
0001
0000
0000
,
0110
0000
1000
0010
0001
0010
1000
0000
,
0001
0100
0010
0000
1000
0100
0000
1000
,
0001
1010
0011
1100
,
0101
0000
1000
0100
1000
0001
0000
0000
,
0100
0000
0010
1000
0100
0010
0100
1000
,
0010
0100
0001
0100
0010
1000
0100
1000
,
0001
0100
0001
0010
0100
1000
0010
0100
,
0001
1000
0001
0100
0010
1000
0100
1000
,
0010
1000
0001
1000
0001
0010
0001
0100
,
0001
0010
0001
0100
0100
1000
0001
0100
,
0010
1001
1010
1100
,
0011
0000
0001
0100
0010
0100
0001
0000
,
0010
1100
0011
1100
,
0101
0000
1000
0010
1000
0100
1000
0000
,
0011
0110
1001
0110
,
1001
0000
0100
0010
1000
0100
1000
0000
,
0001
0010
0100
0010
0001
0100
0010
0100
,
1000
0100
0010
1000
0100
1000
0010
0000
,
1000
0100
0010
0001
0010
1000
0010
0100
,
1000
0010
0100
0000
0001
0100
0010
1000
,
0100
0002
0200
0000
0000
0000
0000
0000
,
0000
0000
0000
0000
,
0000
0000
0000
0000
,
0000
0000
0000
0000
,
0000
0000
0000
0000
,
0303
0000
0000
0000
;

//---------------dance-single - ----------------
#NOTES:
     dance-single:
     :
     Beginner:
     7:
     0.315221,0.492364,0.129797,0.034613,0.000000,255.000000,240.000000,15.000000,4.000000,0.000000,0.000000,0.315221,0.492364,0.129797,0.034613,0.000000,255.000000,240.000000,15.000000,4.000000,0.000000,0.000000:
0000
0000
0000
0000
,
1001
0000
0000
0000
,
1000
0000
0000
0000
,
0001
0000
0000
0000
,
0010
0000
0000
0000
,
0001
0000
0000
0000
,
1000
0000
0000
0000
,
0010
0000
0000
0000
,
1000
0000
0010
0000
,
1000
0000
0000
0000
,
0100
0000
0000
0000
,
0010
0000
0000
0000
,
0100
0000
0000
0000
,
1000
0000
0000
0000
,
0001
0000
0000
0000
,
0100
0000
0010
0000
,
0100
0000
0000
0000
,
0110
0000
0000
0000
,
1000
0000
0000
0000
,
0001
0000
0000
0000
,
0010
0000
0001
0000
,
1000
0000
0000
0000
,
0001
0000
0000
0000
,
1000
0000
0010
0000
,
1000
0000
0001
0000
,
0010
0000
0000
0000
,
0100
0000
0000
0000
,
0010
0000
0000
0000
,
0100
0000
1000
0000
,
0100
0000
0100
0000
,
0010
0000
0010
0000
,
0100
0000
0100
0000
,
1000
0000
1000
0000
,
1001
0000
0001
0000
,
1000
0000
0002
0000
,
1003
0000
1000
0000
,
0010
0000
0100
0000
,
0010
0000
1000
0000
,
0100
0000
0020
0000
,
0031
0000
0001
0000
,
1000
0000
0001
1000
,
0000
0010
0000
0100
,
0000
0010
0000
1000
,
0000
0100
0000
0010
,
0000
0000
0001
0000
,
0010
0000
0100
0000
,
1000
0000
0010
0000
,
0100
0000
0001
0000
,
0000
0000
0100
0000
,
0010
0000
0100
0000
,
0001
0000
1000
0000
,
0100
0000
0010
0000
,
0000
0001
0000
0010
,
0000
0100
0000
1000
,
0000
1000
0000
0001
,
0000
0010
0000
0000
,
0001
0000
0010
0000
,
0100
0000
0010
0000
,
0001
0000
0100
0000
,
0010
0000
0000
0000
,
1000
0000
0010
0000
,
0100
0000
0001
0000
,
0010
0000
0100
0000
,
1000
0000
0001
0000
,
1000
0000
0100
0000
,
0010
0000
0001
0000
,
1000
0000
0010
0000
,
0100
0000
0000
0000
,
0001
0000
0001
0000
,
0100
0000
0001
0000
,
1000
0000
0001
0000
,
1000
0000
0000
1000
,
0000
0010
0000
0100
,
0000
0001
0000
0010
,
0000
0100
0000
1000
,
0000
0001
0000
0100
,
0000
0010
0000
1000
,
0000
0100
0000
0010
,
0000
0001
0000
0100
,
0000
0001
0000
0100
,
0000
0001
0000
1000
,
0000
0010
0000
1000
,
0000
0010
0000
0100
,
0000
0010
0000
1000
,
0000
1000
0000
0100
,
0000
0100
0000
0010
,
0000
0010
0000
0001
,
0000
1000
0000
1001
,
0000
0000
0000
0000
,
0000
0000
0000
0110
,
0000
0000
0000
0000
,
0000
0000
0000
0110
,
0000
0000
0000
0000
,
0000
0000
0000
2002
,
0000
0000
0000
0000
,
0000
3003
0000
1000
,
0000
1000
0000
0001
,
0000
0001
0000
0001
,
0000
0010
0000
0010
,
0000
0000
0010
0000
,
0010
0000
0100
0000
,
0100
0000
1000
0000
,
1000
0000
0001
0000
,
0000
0000
0100
0000
,
0100
0000
0010
0000
,
0010
0000
1000
0000
,
1000
0000
0100
0000
,
0000
0010
0000
0010
,
0000
0001
0000
0001
,
0000
1000
0001
1000
,
0001
1001
0000
0010
,
0000
0100
0000
0010
,
0000
0001
0000
0100
,
0000
0001
0000
0000
,
0000
1001
0000
1000
,
0000
0010
0000
0100
,
0000
0001
0000
0010
,
0000
0001
0000
0000
,
0000
0110
0000
0100
,
0000
0010
0000
0100
,
0000
0001
0000
1000
,
0000
0100
0000
0000
,
0000
0110
0000
0010
,
0000
0001
0000
0100
,
0000
0010
0000
1000
,
0000
0010
0000
0000
,
0000
1010
0000
1000
,
0000
0001
0000
0010
,
0000
0001
0000
1000
,
0000
0001
0000
1000
,
0000
1001
0000
1000
,
0000
0010
0000
1000
,
0000
0100
0000
0010
,
0000
0001
0000
0000
,
0000
0110
0000
0100
,
0000
0001
0000
0100
,
0000
0010
0000
0100
,
0000
0001
0000
1000
,
0000
0001
0000
0010
,
0000
0100
0000
1000
,
0000
0010
0000
0100
,
0000
0010
0000
1000
,
0000
1001
0000
0000
;
