#TITLE:Turbo Tunnel;
#SUBTITLE:Battletoads;
#ARTIST:David Wise;
#TITLETRANSLIT:;
#SUBTITLETRANSLIT:;
#ARTISTTRANSLIT:;
#GENRE:;
#CREDIT:;
#BANNER:bn.png;
#BACKGROUND:bg.png;
#LYRICSPATH:;
#CDTITLE:;
#MUSIC:Turbo_Tunnel.ogg;
#OFFSET:-0.070000;
#SAMPLESTART:15.878000;
#SAMPLELENGTH:30.000000;
#SELECTABLE:YES;
#BPMS:0.000000=242.919983
;
#STOPS:
;
#BGCHANGES:;
#KEYSOUNDS:;
#ATTACKS:;

//---------------dance-single - ----------------
#NOTES:
     dance-single:
     :
     Hard:
     15:
     0.763507,0.808905,0.186932,0.093466,0.050981,629.000000,607.000000,22.000000,11.000000,0.000000,0.000000,0.763507,0.808905,0.186932,0.093466,0.050981,629.000000,607.000000,22.000000,11.000000,0.000000,0.000000:
0000
0000
0000
0000
,
0000
0000
0000
0000
,
1000
0001
1000
0001
,
1000
0010
1000
0010
,
0100
0010
0100
0010
,
0100
0001
0100
0001
,
0010
0001
0010
0001
,
0010
0100
0010
0100
,
1000
0100
1000
0100
,
1000
0010
1000
0010
,
1000
0100
1000
0000
0100
0010
0100
0000
,
0010
0001
0010
0000
0001
1000
0001
0000
,
1000
0010
1000
0000
0010
0100
0010
0000
,
0100
0001
0100
0000
0001
0010
0001
0000
,
0010
0100
0010
0000
0100
1000
0100
0000
,
1000
0010
1000
0000
0010
0100
0010
0000
,
1000
0001
1000
0000
0001
0010
0000
0000
,
0001
0010
0000
0100
0000
0010
0100
0001
,
0100
0010
0100
0000
0100
0010
0000
0000
,
0100
1000
0000
0010
0000
0100
1000
0100
,
0001
0100
0010
0000
0100
1000
0000
0000
,
0100
0001
0000
0010
0000
0100
0010
0100
,
0001
0100
0010
0000
0100
0010
0000
0000
,
1000
0010
0000
0001
0000
0010
0100
0010
,
0001
1000
0010
0000
0100
0010
0000
0000
,
0010
0100
0000
0001
0000
1000
0100
0001
,
0100
1000
0001
0000
0100
0001
0000
1000
,
0000
0001
0010
1000
0010
0001
0100
0010
,
1000
0001
1000
0000
0100
0010
0000
0000
,
0100
0010
0000
0001
0000
1000
0010
1000
,
0100
0001
0200
0000
0000
0000
0000
0300
,
1000
0100
0000
0000
0100
0010
0000
0000
0010
0001
0000
0000
0001
1000
0000
0000
,
0100
0010
0000
0100
0010
0000
0100
0001
,
0000
0100
0001
0000
1001
0000
0000
0000
,
1000
0100
1000
0000
0100
0010
0100
0000
,
0010
0001
0010
0000
0001
0010
0001
0000
,
0010
0100
0010
0000
0100
1000
0100
0000
,
1000
0010
1000
0000
0010
0100
0010
0000
,
0100
0001
0100
0000
0001
1000
0001
0000
,
1000
0100
1000
0000
0100
0010
0100
0000
,
0010
0001
0010
0000
0001
1000
0001
0000
,
1000
0010
1000
0000
0010
0100
0010
0000
,
1000
0010
1000
0000
0100
0010
0000
0000
,
0100
0010
0000
0001
0000
0010
0001
0010
,
1000
0010
0001
0000
1000
0010
0000
0000
,
0100
0010
0000
1000
0000
0001
0010
0100
,
0010
0001
0010
0000
0100
1000
0000
0000
,
0010
1000
0000
0010
0000
0100
0010
0100
,
0001
0100
1000
0000
1000
0100
0000
0000
,
0100
0001
0000
0010
0000
0100
0010
0001
,
0010
0100
1000
0000
0100
1000
0000
0000
,
0010
1000
0000
0010
0000
1000
0010
0100
,
0001
0010
0100
0000
1000
0010
0000
1000
,
0000
0010
1000
0100
0010
0001
0100
0010
,
1000
0100
0010
0000
0001
0010
0000
0000
,
0001
0100
0000
0010
0000
1000
0100
1000
,
0001
0010
0002
0000
0000
0000
0000
0003
,
0100
0001
0000
0000
0001
1000
0000
0000
1000
0010
0000
0000
0010
0100
0000
0000
,
0010
1000
0000
1010
0000
1010
0000
2200
,
0000
0000
0000
3300
0000
0110
0000
0010
,
0001
0100
0000
1001
0000
1100
0000
1001
,
0000
0100
0010
1000
0100
0010
0001
0100
,
0010
1000
0000
1001
0000
1010
0000
0202
,
0000
0000
0000
0303
0000
0010
0000
0001
,
0010
0100
0000
1100
0000
1010
0000
0110
,
0000
0100
0001
0010
0100
1000
0001
0100
,
0010
1000
0000
1100
0000
1001
0000
0202
,
0000
0000
0000
0303
0000
0011
0000
0010
,
0100
1000
0000
1010
0000
0110
0000
0101
,
0000
1000
0001
1000
0100
0010
0001
1000
,
0002
0000
0000
0000
,
0000
0000
0000
0000
0000
0000
0000
0003
,
2000
0000
0000
0000
,
0000
0000
0000
0000
0000
0000
0000
3000
,
0001
0010
0001
0010
0001
0010
0001
0010
,
0100
0010
0100
0010
0100
0010
0100
0010
,
0100
1000
0100
1000
0100
1000
0100
1000
,
0010
0100
0010
0100
0010
0100
0010
0100
,
0001
0010
0001
0010
0001
0010
0001
0010
,
0001
1000
0001
1000
0001
1000
0001
1000
,
0010
0100
0010
0100
0010
0100
0010
0100
,
0001
0100
0001
0100
0001
0100
0001
0000
,
0000
0100
0001
1000
0001
0010
0100
1000
,
0000
0001
0010
0100
0001
0100
0010
1000
,
0000
0010
0001
1000
0010
0100
0001
1000
,
0000
0010
0100
0001
0100
0010
0001
0010
,
0000
0100
0010
1000
0100
0010
0100
0001
,
0000
0100
0010
0001
1000
0010
0100
1000
,
0000
0100
0010
1000
0001
0010
0100
0001
,
0000
0001
0100
0010
0001
1000
0100
0010
,
0001
0100
0001
0000
0100
0010
0100
0000
,
0001
1000
0001
0000
0100
1000
0100
0000
,
0010
0001
0010
0000
0001
0010
0001
0000
,
0010
0100
0010
0000
0100
1000
0100
0000
,
1000
0001
1000
0000
0100
0010
0000
0000
,
0100
0010
0000
0001
0000
0010
0001
0100
,
0001
1000
0010
0000
1000
0010
0000
0000
,
0100
0001
0000
1000
0000
0100
1000
0100
,
0010
0001
0100
0000
0001
1000
0000
0000
,
0010
1000
0000
0010
0000
0100
0010
0100
,
0001
0010
0100
0000
0010
0100
0000
0000
,
1000
0010
0000
0100
0000
0010
1000
0010
,
1000
0001
0010
0000
0001
0100
0000
0000
,
0001
1000
0000
0001
0000
1000
0100
1000
,
0001
0100
0001
0000
1000
0100
0000
1000
,
0000
1000
0100
0010
0001
0100
1000
0100
,
0001
0010
0100
0000
0100
1000
0000
0000
,
1000
0010
0000
0100
0000
0001
1000
0010
,
1000
0100
2000
0000
0000
3000
0000
0000
,
0001
0010
0000
0000
0010
0100
0000
0000
0100
1000
0000
0000
1000
0001
0000
0000
,
1000
0010
0000
0100
0001
0000
1000
0010
,
0000
0100
0001
0000
0010
0000
0000
0000
,
1001
0000
0000
0000
;

//---------------dance-single - ----------------
#NOTES:
     dance-single:
     :
     Medium:
     12:
     0.548657,0.666157,0.118957,0.059478,0.000000,452.000000,438.000000,14.000000,7.000000,0.000000,0.000000,0.548657,0.666157,0.118957,0.059478,0.000000,452.000000,438.000000,14.000000,7.000000,0.000000,0.000000:
0000
0000
0000
0000
,
0000
0000
0000
0000
,
1000
0001
1000
0001
,
1000
0010
1000
0010
,
1000
0001
1000
0001
,
0010
0001
0010
0000
,
0001
1000
0001
1000
,
0100
1000
0100
1000
,
0010
0100
0010
0100
,
0001
0010
0001
0000
,
0010
0100
0010
0100
,
1000
0010
1000
0010
,
0100
0001
0100
0001
,
0010
0100
0010
0000
,
0001
0010
0001
0010
,
0100
1000
0100
0010
,
0100
0010
0001
0000
,
0010
0000
0000
0100
0000
0000
1000
0000
,
0010
0100
0010
0000
,
1000
0000
0000
0001
0000
0000
1000
0000
,
0100
0010
0001
0000
,
0010
0000
0000
0001
0000
0000
1000
0000
,
0010
0100
0010
0000
,
1000
0000
0000
0100
0000
0000
1000
0000
,
0001
0000
0100
0000
0001
0010
0000
0000
,
0100
0010
0000
0100
0000
0000
1000
0000
,
0010
0000
1000
0000
0010
0100
0000
0010
,
0000
1000
0100
0010
,
0001
0000
1000
0000
0010
1000
0000
0000
,
0010
1000
0000
0100
0000
0000
0010
0000
,
0001
0200
0000
0300
,
0011
0110
1100
1010
,
1000
0001
0000
1000
0001
0000
1000
0001
,
0000
1000
0001
0000
1000
0000
0000
0000
,
0001
0010
0100
0010
,
0100
0010
0001
0010
,
0100
0010
0100
1000
,
0100
0010
0100
1000
,
0010
0100
0001
0100
,
0001
1000
0100
1000
,
0001
0010
0001
0100
,
0001
1000
0010
1000
,
0001
0000
0010
0000
0100
0010
0000
0000
,
0100
0010
0000
0100
0000
0000
1000
0000
,
0010
0000
0100
0000
0001
1000
0000
0000
,
0001
1000
0000
0001
0000
0000
0010
0000
,
0100
0000
1000
0000
0010
0100
0000
0000
,
0010
0100
0000
0010
0000
0000
1000
0000
,
0100
0000
0010
0000
0001
0010
0000
0000
,
0001
0010
0000
0001
0000
0000
1000
0000
,
0010
0000
0100
0000
0001
1000
0000
0000
,
0001
1000
0000
0100
0000
0000
1000
0000
,
0010
0000
1000
0000
0100
0010
0000
0100
,
0000
0010
0100
0000
0010
0000
0001
0000
,
1000
0000
0010
0000
0100
0010
0000
0000
,
0100
0010
0000
1000
0000
0010
1000
0000
,
0100
2000
0000
3000
,
1100
0110
0011
1001
,
1000
0001
0000
0010
0000
0001
0000
0020
,
0000
0000
0000
0030
0000
0100
0000
0010
,
0001
0010
0000
0001
0000
1000
0000
0010
,
0000
1000
0010
0000
0100
0000
0001
0000
,
0010
0100
0000
1000
0000
0001
0000
0200
,
0000
0000
0000
0300
0000
0010
0000
1000
,
0001
0010
0000
0001
0000
1000
0000
0010
,
0000
0100
0010
0000
1000
0000
0100
0000
,
1000
0001
0000
0010
0000
0001
0000
0100
,
0000
0000
0000
0000
0000
0001
0000
1000
,
0001
1000
0000
0100
0000
1000
0000
0010
,
0000
1000
0010
0000
0100
0000
0001
0000
,
0020
0000
0000
0000
,
0000
0000
0030
0000
,
0200
0000
0000
0000
,
0000
0000
0000
0300
,
1000
0000
0010
0000
1000
0010
1000
0000
,
0010
0000
0100
0000
0001
0100
0001
0000
,
0010
0000
0001
0000
0010
0001
0010
0000
,
0100
0000
0010
0000
0100
1000
0100
0000
,
1000
0000
0010
0000
1000
0010
1000
0000
,
0010
0000
0100
0000
0010
0100
0010
0000
,
0100
0000
0001
0000
0100
0001
0100
0000
,
0001
0000
1000
0000
0001
1000
0001
0000
,
1000
0000
0100
0000
0010
0000
0001
0100
,
0000
0001
1000
0000
0010
0000
0100
0010
,
0000
1000
0100
0000
0010
0000
0001
1000
,
0000
0001
0100
0000
0010
0000
1000
0001
,
0000
0010
0100
0000
0010
0000
0001
1000
,
0000
0010
0100
0000
0010
0000
1000
0100
,
0000
0010
0100
0000
0010
0000
0001
0100
,
0000
0001
1000
0000
0001
0000
1000
0001
,
1000
0001
1000
0010
,
1000
0010
0100
0010
,
0100
0001
0100
0001
,
0100
0001
0010
0001
,
0010
0000
0100
0000
1000
0100
0000
0000
,
1000
0100
0000
1000
0000
0001
0100
0000
,
0001
0000
0100
0000
0010
0100
0000
0000
,
0010
0100
0000
0010
0000
1000
0100
0000
,
1000
0000
0001
0000
0010
0001
0000
0000
,
0100
0001
0000
1000
0000
0001
1000
0000
,
0010
0000
1000
0000
0010
0100
0000
0000
,
0010
0100
0000
0010
0000
1000
0001
0000
,
1000
0000
0001
0000
0010
0001
0000
0000
,
0010
0100
0000
0010
0000
0100
1000
0000
,
0010
0000
1000
0000
0010
1000
0000
0010
,
0000
0100
0010
0000
0100
0001
0100
0000
,
0010
0000
0100
0000
0100
0001
0000
0000
,
0100
0001
0000
1000
0000
0001
0010
0000
,
0100
2000
0000
3000
,
0110
1001
0110
1001
,
0100
0010
0000
0100
0010
0000
0100
0010
,
0000
0100
0010
0000
0110
0000
0000
0000
,
1001
0000
0000
0000
;

//---------------dance-single - ----------------
#NOTES:
     dance-single:
     :
     Easy:
     9:
     0.404210,0.475826,0.161441,0.084969,0.000000,333.000000,314.000000,19.000000,10.000000,0.000000,0.000000,0.404210,0.475826,0.161441,0.084969,0.000000,333.000000,314.000000,19.000000,10.000000,0.000000,0.000000:
0000
0000
0000
0000
,
0000
0000
0000
0000
,
1000
0001
1000
0000
,
0010
1000
0010
0000
,
0100
0001
0100
0000
,
0001
0010
0001
0000
,
0010
0100
0010
0000
,
0100
1000
0100
0000
,
1000
0001
1000
0000
,
0001
0010
0001
0000
,
0010
0001
0100
0000
,
0010
1000
0100
0000
,
1000
0001
0100
0000
,
0001
0010
0100
0000
,
1000
0001
0100
0000
,
0010
1000
0001
0000
,
0010
0100
1000
0000
,
0010
0000
0000
1000
0000
0000
0100
0000
,
1000
0001
0100
0000
,
0001
0000
0000
1000
0000
0000
0010
0000
,
1000
0100
0010
0000
,
0001
0000
0000
0010
0000
0000
0001
0000
,
1000
0010
0100
0000
,
0010
0000
0000
1000
0000
0000
0001
0000
,
0100
0001
1000
0000
,
0100
0000
0000
1000
0000
0000
0001
0000
,
0010
0000
0001
0000
1000
0000
0000
0010
,
0000
1000
0100
0010
,
0001
1000
0001
0000
,
0100
0000
0000
0010
0000
0000
1000
0000
,
0010
2000
0000
3000
,
1001
0000
0110
0000
,
1000
0000
0000
0001
0000
0000
1000
0000
,
0000
0001
0000
0000
1001
0000
0000
0000
,
1000
0010
1000
0000
,
0010
0100
0010
0000
,
0100
0001
0010
0000
,
0001
0010
0100
0000
,
1000
0001
0100
0000
,
0001
1000
0100
0000
,
0010
0100
1000
0000
,
0001
0100
0001
0000
,
1000
0001
1000
0000
,
0010
0000
0000
1000
0000
0000
0001
0000
,
0010
0001
0100
0000
,
0001
0000
0000
1000
0000
0000
0100
0000
,
1000
0001
0100
0000
,
0010
0000
0000
1000
0000
0000
0100
0000
,
0010
0001
0100
0000
,
0010
0000
0000
1000
0000
0000
0001
0000
,
0100
0001
0010
0000
,
0100
0000
0000
0010
0000
0000
0001
0000
,
1000
0000
0010
0000
0100
0000
0000
0001
,
0000
1000
0100
0010
,
0001
0100
0001
0000
,
1000
0000
0000
0010
0000
0000
1000
0000
,
0001
0020
0000
0030
,
0110
0000
1001
0000
,
0100
0000
0000
0010
0000
0010
0000
2000
,
0000
0000
0000
3000
0000
0010
0000
0000
,
1000
0000
0000
0100
0000
0100
0000
0010
,
0000
0001
1000
0010
,
0100
0000
0000
0001
0000
0001
0000
0020
,
0000
0000
0000
0030
0000
0100
0000
0000
,
0010
0000
0000
0001
0000
0001
0000
1000
,
0000
0010
1000
0010
,
0010
0000
0000
1000
0000
1000
0000
0200
,
0000
0000
0000
0300
0000
1000
0000
0000
,
0001
0000
0000
0001
0000
0010
0000
0010
,
0000
0100
1000
0010
,
2002
0000
0000
0000
,
0000
0000
3003
0000
,
0220
0000
0000
0000
,
0000
0000
0330
0000
,
0100
0010
1000
0000
,
0010
1000
0001
0000
,
0010
0100
1000
0000
,
0001
0100
0010
0000
,
1000
0001
0010
0000
,
0100
1000
0001
0000
,
0100
0001
0010
0000
,
0100
1000
0010
0000
,
1010
0000
0101
0000
,
0011
0000
1100
0000
,
1001
0000
0101
0000
,
0110
0000
1001
0000
,
1000
0100
0010
0001
,
1000
0010
0100
0001
,
0010
0100
1000
0001
,
0010
0100
1000
0001
,
1000
0000
0001
1000
,
0001
0000
1000
0000
,
0010
0000
1000
0001
,
0010
0000
0001
0000
,
0010
0100
1000
0000
,
0100
0000
0000
1000
0000
0000
0001
0000
,
0100
0001
0010
0000
,
0100
0000
0000
1000
0000
0000
0001
0000
,
0100
0010
1000
0000
,
0001
0000
0000
1000
0000
0000
0001
0000
,
0010
0001
0100
0000
,
0010
0000
0000
1000
0000
0000
0001
0000
,
0100
0001
0010
0000
,
0001
0000
0000
1000
0000
0000
0100
0000
,
0010
0000
0100
0000
1000
0000
0000
0001
,
0000
0100
0001
1000
,
0010
0100
0010
0000
,
1000
0000
0000
0001
0000
0000
0010
0000
,
0100
2000
0000
3000
,
1010
0000
0101
0000
,
1000
0000
0000
0001
0000
0000
0010
0000
,
0000
0100
0000
0000
1001
0000
0000
0000
,
0110
0000
0000
0000
;

//---------------dance-single - ----------------
#NOTES:
     dance-single:
     :
     Beginner:
     6:
     0.259762,0.333078,0.144447,0.033988,0.000000,214.000000,197.000000,17.000000,4.000000,0.000000,0.000000,0.259762,0.333078,0.144447,0.033988,0.000000,214.000000,197.000000,17.000000,4.000000,0.000000,0.000000:
0000
0000
0000
0000
,
0000
0000
0000
0000
,
1000
0000
0001
0000
,
1000
0000
0010
0000
,
1000
0000
0001
0000
,
0010
0000
0001
0000
,
0010
0000
0001
0000
,
1000
0000
0010
0000
,
0100
0000
0010
0000
,
0010
0000
0010
0000
,
1000
0000
0100
0000
,
0010
0000
0100
0000
,
1000
0000
0001
0000
,
0010
0000
0100
0000
,
0010
0000
0001
0000
,
0010
0000
0100
0000
,
1000
0000
0100
0000
,
1000
0000
0010
0000
,
1000
0000
0001
0000
,
0100
0000
0001
0000
,
0010
0000
0100
0000
,
1000
0000
0010
0000
,
1000
0000
0001
0000
,
0100
0000
0001
0000
,
0010
0000
0100
0000
,
0010
0000
0001
0000
,
1000
0000
0010
0000
,
0100
0000
0001
0000
,
1000
0000
0100
0000
,
0010
0000
0001
0000
,
0110
0000
0000
0000
,
0100
0000
0010
0000
,
1001
0000
0000
0000
,
0000
0000
0000
0000
,
0010
0000
0100
0000
,
0001
0000
0010
0000
,
0100
0000
1000
0000
,
0010
0000
0100
0000
,
0001
0000
0010
0000
,
0100
0000
1000
0000
,
0010
0000
0100
0000
,
0010
0000
1000
0000
,
0100
0000
0010
0000
,
0001
0000
0010
0000
,
0001
0000
1000
0000
,
0010
0000
1000
0000
,
0001
0000
0010
0000
,
0001
0000
0010
0000
,
0100
0000
1000
0000
,
0010
0000
1000
0000
,
0001
0000
0100
0000
,
0001
0000
1000
0000
,
0010
0000
1000
0000
,
0100
0000
0010
0000
,
0001
0000
0100
0000
,
0001
0000
1000
0000
,
0110
0000
0000
0000
,
1001
0000
0000
0000
,
0110
0000
0100
0000
,
1000
0000
1000
0000
,
1001
0000
0001
0000
,
0010
0000
0010
0000
,
0110
0000
0100
0000
,
0010
0000
1000
0000
,
1001
0000
0010
0000
,
0001
0000
0100
0000
,
0110
0000
1000
0000
,
0100
0000
0010
0000
,
0011
0000
0100
0000
,
0010
0000
0100
0000
,
2002
0000
0000
0000
,
0000
0000
0000
3003
,
0220
0000
0000
0000
,
0000
0000
0000
0330
,
1000
0000
0001
0000
,
1000
0000
0010
0000
,
1000
0000
0001
0000
,
1000
0000
0100
0000
,
1000
0000
0001
0000
,
0100
0000
0001
0000
,
1000
0000
0001
0000
,
0010
0000
0001
0000
,
0010
0000
0010
0000
,
0100
0000
0100
0000
,
1000
0000
1000
0000
,
0001
0000
0001
0000
,
0010
0000
0001
0000
,
1000
0000
0001
0000
,
1000
0000
0010
0000
,
1000
0000
0010
0000
,
0110
0000
0000
0000
,
0000
0000
0000
0000
,
0000
0000
0000
0000
,
0000
0000
0000
0000
,
0001
0010
0000
0000
,
0001
0000
1000
0000
,
0010
1000
0000
0000
,
0100
0000
0010
0000
,
0001
1000
0000
0000
,
0010
0000
1000
0000
,
0001
0010
0000
0000
,
0001
0000
1000
0000
,
0100
1000
0000
0000
,
0001
0000
0100
0000
,
0001
1000
0000
0000
,
0100
0000
1000
0000
,
0001
0000
0100
0000
,
0001
0000
1000
0000
,
0110
0000
0000
0000
,
1001
0000
0000
0000
,
0110
0000
0000
0000
,
0000
0000
0000
0000
,
0110
0000
0000
0000
;

//---------------dance-single - ----------------
#NOTES:
     dance-single:
     :
     Challenge:
     18:
     0.954080,1.189566,0.382360,0.084969,0.169938,786.000000,741.000000,45.000000,10.000000,0.000000,0.000000,0.954080,1.189566,0.382360,0.084969,0.169938,786.000000,741.000000,45.000000,10.000000,0.000000,0.000000:
// measure 0
0000
0000
0000
0000
,  // measure 1
0000
0000
0000
0000
,  // measure 2
1000
0010
1000
0010
1000
0010
1000
0010
,  // measure 3
0100
0001
0100
0001
0100
0001
0100
0001
,  // measure 4
0010
0001
0010
0001
0010
0001
0010
0001
,  // measure 5
0010
0100
0010
0100
0010
0100
0010
0100
,  // measure 6
1000
0100
1000
0100
1000
0100
1000
0100
,  // measure 7
1000
0001
1000
0001
1000
0001
1000
0001
,  // measure 8
0100
0001
0100
0001
0100
0001
0100
0001
,  // measure 9
0010
0001
0010
0001
0010
0000
0000
0000
,  // measure 10
0010
0100
0010
0100
1000
0100
1000
0100
,  // measure 11
0001
0100
0001
0100
0010
0100
0010
0100
,  // measure 12
0010
0001
0010
0001
0100
0010
0100
0010
,  // measure 13
1000
0100
1000
0100
0001
0100
0001
0100
,  // measure 14
1000
0010
1000
0010
0001
0010
0001
0010
,  // measure 15
1000
0100
1000
0100
0010
0001
0010
0001
,  // measure 16
1000
0001
1000
0000
1000
0001
0000
0000
,  // measure 17
0010
0100
0000
1000
0000
0010
1000
0010
,  // measure 18
0100
0001
0010
0000
0100
0010
0000
0000
,  // measure 19
0100
0010
0000
1000
0000
0010
0001
0100
,  // measure 20
0001
0100
1000
0000
0100
0010
0000
0000
,  // measure 21
1000
0100
0000
0010
0000
1000
0010
0001
,  // measure 22
0100
0001
1000
0000
0010
1000
0000
0000
,  // measure 23
0010
1000
0000
0001
0000
0010
0001
0010
,  // measure 24
1000
0001
0100
0000
1000
0010
0000
0000
,  // measure 25
0100
0001
0000
1000
0000
1000
0010
0001
,  // measure 26
1000
0100
0001
0000
1000
0001
0000
0010
,  // measure 27
0000
0100
0010
0001
0100
0010
0100
1000
,  // measure 28
0100
0010
1000
0000
0100
0010
0000
0000
,  // measure 29
0001
0010
0000
0100
0000
1000
0010
0100
,  // measure 30
0001
0100
0202
0000
0000
0000
0303
0000
,  // measure 31
0010
0001
0010
0000
0100
0010
0100
0000
1000
0100
1000
0000
0001
1000
0001
0000
,  // measure 32
1010
1000
0000
0110
0010
0000
0101
0100
,  // measure 33
0000
1010
0010
0000
0011
0001
0001
0001
,  // measure 34
0010
0100
0010
0100
1000
0100
1000
0100
,  // measure 35
1000
0001
1000
0001
0100
0001
0100
0001
,  // measure 36
0100
0010
0100
0010
1000
0010
1000
0010
,  // measure 37
1000
0001
1000
0001
0010
0001
0010
0001
,  // measure 38
0010
0100
0010
0100
0010
1000
0010
1000
,  // measure 39
0010
0100
0010
0100
0001
0100
0001
0100
,  // measure 40
1000
0100
1000
0100
0010
1000
0010
1000
,  // measure 41
0010
0001
0010
0001
0100
0010
0100
0010
,  // measure 42
0100
0001
1000
0000
0001
1000
0000
0000
,  // measure 43
0100
0010
0000
0100
0000
0010
1000
0010
,  // measure 44
0001
0100
0001
0000
1000
0100
0000
0000
,  // measure 45
1000
0100
0000
0010
0000
0001
0010
1000
,  // measure 46
0010
0001
1000
0000
0001
0100
0000
0000
,  // measure 47
0010
1000
0000
0010
0000
0100
0010
0100
,  // measure 48
1000
0100
0010
0000
1000
0100
0000
0000
,  // measure 49
0010
0100
0000
0010
0000
0100
0001
0100
,  // measure 50
0010
0100
1000
0000
0001
0100
0000
0000
,  // measure 51
0010
1000
0000
0100
0000
1000
0100
0010
,  // measure 52
0100
0001
0100
0000
0010
0001
0000
0100
,  // measure 53
0000
0100
0010
0001
0010
0100
0001
0010
,  // measure 54
0100
0001
0100
0000
0001
1000
0000
0000
,  // measure 55
0010
1000
0000
0010
0000
0010
1000
0010
,  // measure 56
0100
0010
0002
0000
0000
0000
0003
0000
,  // measure 57
0010
0001
1000
0000
0100
0010
0001
0000
0010
0100
1000
0000
0100
0010
0001
0000
,  // measure 58
1000
0010
0000
0110
0000
0101
0000
2002
,  // measure 59
0000
0000
0000
3003
0000
1010
0000
1000
,  // measure 60
0100
0001
0000
0101
0000
1001
0000
1100
,  // measure 61
0000
1000
0100
0001
0100
1000
0010
0001
,  // measure 62
0010
1000
0000
1100
0000
0101
0000
2020
,  // measure 63
0000
0000
0000
3030
0000
0101
0000
0001
,  // measure 64
0010
1000
0000
1100
0000
1010
0000
1100
,  // measure 65
0000
0010
1000
0010
0001
0010
1000
0010
,  // measure 66
0001
0010
0000
0101
0000
1010
0000
2002
,  // measure 67
0000
0000
0000
3003
0000
0101
0000
1000
,  // measure 68
0010
1000
0000
0101
0000
1010
0000
1100
,  // measure 69
0000
1000
0100
0001
0100
1000
0001
1000
,  // measure 70
0001
0000
0000
0001
0010
0001
1000
0010
1000
0001
0100
0001
,  // measure 71
1000
0010
1000
0001
0010
0001
0100
0010
0100
0001
0000
0000
,  // measure 72
1000
0100
1000
0001
0100
0001
1000
0010
1000
0010
0100
0010
,  // measure 73
0100
0001
0100
0010
1000
0010
1000
0100
1000
0001
0000
0000
,  // measure 74
0001
0010
0100
0010
0001
1000
0010
1000
,  // measure 75
0001
0100
0010
1000
0100
1000
0001
1000
,  // measure 76
0100
1000
0001
1000
0010
1000
0100
1000
,  // measure 77
0001
0100
0010
1000
0100
1000
0001
1000
,  // measure 78
0001
0010
1000
0010
0100
1000
0010
0100
,  // measure 79
1000
0100
0010
1000
0100
0010
0100
0001
,  // measure 80
0100
0010
0001
0100
0010
0001
1000
0100
,  // measure 81
0010
1000
0100
1000
0001
0010
0100
1000
,  // measure 82
1001
0001
1000
0010
0001
0010
1000
0100
,  // measure 83
0101
0001
0100
1000
0001
0100
0010
1000
,  // measure 84
1100
0100
0001
0100
1000
0100
0010
0100
,  // measure 85
0110
0010
0001
1000
0100
1000
0001
0010
,  // measure 86
0011
0001
0100
1000
0100
0001
0010
1000
,  // measure 87
1010
0010
0001
0100
1000
0001
0010
1000
,  // measure 88
1010
0010
0100
0001
1000
0010
1000
0001
,  // measure 89
1001
0000
1000
0000
0010
0000
0001
0000
0010
0000
1000
0000
0001
0010
0001
0010
,  // measure 90
0001
0010
0100
1000
0001
0010
0100
1000
,  // measure 91
0001
0100
0010
1000
0001
0100
0010
1000
,  // measure 92
0010
0100
0001
1000
0010
0100
0001
1000
,  // measure 93
0100
0010
0001
1000
0100
0010
0001
1000
,  // measure 94
0001
1000
0001
0000
0100
0010
0000
0000
,  // measure 95
0010
1000
0000
0100
0000
1000
0100
0001
,  // measure 96
0100
1000
0001
0000
0100
0010
0000
0000
,  // measure 97
1000
0001
0000
0010
0000
1000
0010
0001
,  // measure 98
0010
1000
0010
0000
0001
0100
0000
0000
,  // measure 99
0010
1000
0000
0100
0000
1000
0010
0100
,  // measure 100
1000
0100
0010
0000
1000
0100
0000
0000
,  // measure 101
0010
0100
0000
0001
0000
0100
0010
0001
,  // measure 102
0100
0010
0001
0000
0010
1000
0000
0000
,  // measure 103
0100
1000
0000
0100
0000
0010
1000
0010
,  // measure 104
0100
1000
0010
0000
0100
0010
0000
0100
,  // measure 105
0000
0100
0001
0010
0100
1000
0001
0100
,  // measure 106
1000
0100
0010
0000
1000
0010
0000
0000
,  // measure 107
1000
0100
0000
0001
0000
0100
1000
0010
,  // measure 108
0001
0010
2000
0000
0000
0000
3000
0000
,  // measure 109
0010
0001
0100
0000
0010
1000
0100
0000
0010
0001
0100
0000
0010
1000
0100
0000
,  // measure 110
1100
1100
0000
0101
0101
0000
1010
1010
,  // measure 111
0000
0011
0011
0000
1001
0001
0001
0001
,  // measure 112
0101
0000
0000
0000
;
