#TITLE:Toxic Waste;
#SUBTITLE:Crash Bandicoot;
#ARTIST:Mutato Muzika;
#TITLETRANSLIT:;
#SUBTITLETRANSLIT:;
#ARTISTTRANSLIT:;
#GENRE:;
#CREDIT:;
#BANNER:bn.png;
#BACKGROUND:bg.png;
#LYRICSPATH:;
#CDTITLE:;
#MUSIC:Toxic_Waste.ogg;
#OFFSET:-0.105000;
#SAMPLESTART:6.306000;
#SAMPLELENGTH:30.000000;
#SELECTABLE:YES;
#BPMS:0.000000=154.809998
;
#STOPS:
;
#BGCHANGES:;
#KEYSOUNDS:;
#ATTACKS:;

//---------------dance-single - ----------------
#NOTES:
     dance-single:
     :
     Hard:
     13:
     0.588372,0.663500,0.094247,0.000000,0.131946,437.000000,427.000000,10.000000,0.000000,0.000000,0.000000,0.588372,0.663500,0.094247,0.000000,0.131946,437.000000,427.000000,10.000000,0.000000,0.000000,0.000000:
0000
0000
0000
0000
,
0000
0000
0000
0000
,
0000
0000
0000
0000
,
0000
0000
0000
0000
,
1000
1000
1000
1000
0010
0100
0001
0010
,
0100
0100
0100
0100
0010
0000
0100
1000
,
0010
0010
0010
0010
1000
0100
0010
0001
,
0100
0100
0100
0100
0001
0000
0010
0100
,
1000
1000
1000
1000
0010
0100
0001
0010
,
0100
0100
0100
0100
0010
0000
0001
0100
,
0001
1000
0000
0000
1000
0010
0000
0000
0000
0000
1000
0000
0001
0000
0010
0000
,
0001
0100
0000
0000
0100
0001
0000
0000
0000
0000
0001
0000
0100
0000
0010
0000
,
1000
1000
1000
1000
0010
0100
0001
0010
,
0100
0100
0100
0100
0010
0000
0001
1000
,
0010
0010
0010
0010
1000
0010
0100
0001
,
0010
0010
0010
0010
0100
0000
0010
0001
,
1001
0000
0000
1000
0010
1000
0001
0100
,
0110
0000
1010
0000
0110
0100
0010
1000
,
0010
0000
0000
1000
0100
0001
0100
1000
,
1010
0000
0101
0000
0000
0100
0010
1000
,
0010
0010
0000
1000
0010
0010
0000
1000
,
0001
0010
0100
0010
0001
1000
0001
0100
,
0010
1000
0010
1000
0010
0000
1000
0000
0010
0000
0010
0000
0000
0000
1000
0000
,
0100
0010
0001
0100
0001
1000
0100
0010
,
0100
0100
0100
0100
0010
0001
0100
0010
,
1000
1000
1000
1000
0100
0000
0010
0001
,
0010
0010
0010
0010
0100
1000
0100
0001
,
0100
0100
0100
0100
0010
0000
0100
1000
,
0001
0001
0001
0001
0010
0100
0010
0100
,
1000
1000
1000
1000
0010
0000
0100
0010
,
0100
0001
0000
0000
0001
0100
0000
0000
0000
0000
1000
0000
0100
0000
0001
0000
,
1000
0010
0000
0000
0010
1000
0000
0000
0000
0000
1000
0000
0010
0000
0001
0000
,
0010
0010
0010
0010
1000
0010
1000
0001
,
0010
0010
0010
0010
0100
1000
0100
0010
,
1000
1000
1000
1000
0010
0100
1000
0001
,
0100
0100
0100
0100
0010
0000
0001
0010
,
1000
1000
1000
1000
,
1000
0000
1000
0000
1000
0000
0100
0001
,
0100
0000
0000
0000
1000
0000
0000
0000
0010
1000
0100
0010
0001
0000
0000
0000
,
0001
0000
0001
0000
0001
0000
0010
1000
,
0010
0000
0010
0010
,
0010
0000
0010
0000
0010
0000
0010
0001
,
0100
0000
0000
0000
0100
0000
0000
0000
0001
0010
0100
0010
0001
1000
0100
0010
,
0001
0000
0001
0000
0001
0000
0001
1000
,
0001
0001
0001
0001
0010
0100
1000
0010
,
0100
0100
0100
0100
0010
0000
1000
0100
,
0010
0010
0010
0010
1000
0010
0001
0010
,
0100
0100
0100
0100
1000
0000
0100
0001
,
0100
0100
0100
0100
1000
0001
0010
0100
,
1000
1000
1000
1000
0001
0000
0100
0001
,
0010
0001
0000
0000
0001
0010
0000
0000
0000
0000
0010
0100
1000
0100
1000
0100
,
1000
0010
0000
0000
0100
0010
0000
0000
0000
0000
0100
0001
0100
0001
0010
0001
,
0010
0010
0010
0010
0100
1000
0010
0100
,
0001
0001
0001
0001
0010
0000
0100
1000
,
0100
0100
0100
0100
0010
1000
0010
0001
,
0010
0010
0010
0010
1000
0000
0001
0100
,
1000
0000
0000
0010
0001
0010
0001
0010
,
0100
0000
0101
0000
1010
0010
1000
0010
,
0100
0000
0000
0100
0010
0100
0001
0010
,
0100
0000
0011
0000
0000
0001
0010
0100
,
0010
0010
0000
0100
0010
0010
0000
0100
,
1000
0010
0100
0010
1000
0010
0100
0010
,
0100
0001
0100
0001
0100
0000
0010
0000
1000
0000
1000
0000
0000
0000
0001
0000
,
0100
0001
1000
0100
1000
0001
1000
0100
,
1001
0000
0000
0000
;

//---------------dance-single - ----------------
#NOTES:
     dance-single:
     :
     Challenge:
     16:
     0.724357,0.814295,0.386413,0.000000,0.339290,538.000000,497.000000,41.000000,0.000000,0.000000,0.000000,0.724357,0.814295,0.386413,0.000000,0.339290,538.000000,497.000000,41.000000,0.000000,0.000000,0.000000:
0000
0000
0000
0000
,
0000
0000
0000
0000
,
0000
0000
0000
0000
,
0000
0000
0000
0000
,
0100
0100
0100
0100
0010
1000
0010
0001
,
0010
0010
1010
0010
0100
0000
0001
1000
,
0010
0010
0010
0010
1000
0010
0100
0001
,
0010
0010
0011
0010
0100
0000
0010
0001
,
0100
0100
0100
0100
1000
0100
0001
0100
,
1000
1000
1100
1000
0100
0000
0100
0001
,
0010
0001
0000
0000
0001
0010
0000
0000
0000
0000
0010
0001
0100
0010
1000
0001
,
0100
0001
0000
0000
0001
0100
0000
0000
0000
0000
0001
0010
0100
1000
0010
0100
,
0001
0001
0001
0001
1000
0010
0001
0010
,
1000
1000
1001
1000
0010
0000
0100
0001
,
0010
0010
0010
0010
0100
1000
0001
0100
,
0010
0000
0010
0000
1010
0000
0010
0000
0100
0000
0000
0000
1000
0100
0001
0100
,
0010
0000
0000
0010
0101
0001
1000
0010
,
1010
0000
0110
0000
1001
1000
0010
1000
,
0100
0000
0000
0100
1100
0010
0001
0010
,
0011
0000
0011
0000
0110
0010
0100
1000
,
0010
0010
0000
1000
1010
0010
0000
1000
,
0001
0010
1000
0010
0011
0001
0010
0100
,
0010
0001
1000
0100
0010
0100
1000
0000
0000
0001
0000
0000
0011
0000
0000
0010
0000
0000
0000
0000
0000
0001
0000
0000
,
0010
0001
0100
0001
0101
0010
1000
0100
,
0010
0010
0010
0010
0100
1000
0001
0100
,
0010
0010
0011
0010
1000
0010
0100
0001
,
0010
0010
0010
0010
0100
0010
1000
0010
,
0001
0001
1001
0001
0100
0010
1000
0010
,
0001
0001
0001
0001
0010
0100
0001
0100
,
0010
0010
1010
0010
0100
0000
0001
1000
,
0100
0010
0000
0000
0010
0100
0000
0000
0000
0000
1000
0001
0010
1000
0010
0001
,
0100
0010
0000
0000
1000
0010
0000
0000
0000
0000
1000
0001
0100
1000
0100
0001
,
0010
0010
0010
0010
1000
0010
0001
0100
,
0010
0010
0011
0010
0100
0000
0010
1000
,
0100
0100
0100
0100
1000
0010
0001
0010
,
1000
1000
1010
1000
0001
0000
0001
1000
,
0100
0000
0010
0000
0100
0000
0001
0000
0100
0000
0000
1000
0100
0000
1000
0001
,
0100
0001
1000
0000
0100
0000
0001
0000
0100
0000
1000
0000
0100
0010
1000
0010
,
0100
0000
1000
0000
0100
0000
1000
0000
0001
0010
0100
1000
0001
0010
0100
1000
,
0001
0100
0010
0000
0100
0010
1000
0001
0010
0000
0100
0010
0001
1000
0100
0010
,
0001
0000
0000
0000
0000
0000
0001
0000
0010
0000
0000
0001
0010
0000
0001
1000
,
0010
1000
0001
0000
0010
0000
1000
0000
0010
0000
0001
0000
0010
0100
0001
0100
,
0010
0000
0001
0000
0010
0000
0001
0000
1000
0100
0010
0001
1000
0100
0010
0001
,
1000
0010
0100
0000
0010
0100
0001
1000
0100
0000
0010
0100
1000
0001
0010
0001
,
0100
0100
0100
0100
0001
0010
0100
1000
,
0010
0010
0011
0010
1000
0000
0010
0001
,
0010
0010
0010
0010
1000
0100
0001
0100
,
0001
0001
0101
0001
0100
0000
0100
0010
,
0001
0001
0001
0001
1000
0010
0100
0010
,
1000
1000
1001
1000
0100
0000
0001
0100
,
1000
0010
0000
0000
0010
1000
0000
0000
0000
0000
1000
0010
0100
0010
0001
0010
,
0100
1000
0000
0000
1000
0100
0000
0000
0000
0000
1000
0100
0010
0100
0001
0100
,
0010
0010
0010
0010
1000
0100
0010
0001
,
0100
0100
1100
0100
0001
0000
0010
0100
,
1000
1000
1000
1000
0010
0100
0001
0010
,
0100
0000
0100
0000
0101
0000
0100
0000
0010
0000
0001
0000
0010
0001
0100
0010
,
1000
0000
0000
0010
0101
0010
0100
0010
,
0110
0000
1001
0000
0011
1000
0010
0100
,
1010
0000
0000
1000
1100
0010
0001
0010
,
0011
0000
0101
0000
1010
0100
0001
0100
,
0010
0010
0000
0100
0110
0010
0000
0100
,
0001
0010
0001
1000
0011
0010
0001
0100
,
0001
0010
0100
1000
0100
0010
0100
0000
0000
0010
0000
0000
0110
0000
0000
0100
0000
0000
0000
0000
0000
1000
0000
0000
,
0010
0100
0001
0010
1010
1000
0001
0100
,
1001
0000
0000
0000
;

//---------------dance-single - ----------------
#NOTES:
     dance-single:
     :
     Medium:
     12:
     0.545287,0.512704,0.131946,0.000000,0.000000,405.000000,391.000000,14.000000,0.000000,0.000000,0.000000,0.545287,0.512704,0.131946,0.000000,0.000000,405.000000,391.000000,14.000000,0.000000,0.000000,0.000000:
0000
0000
0000
0000
,
0000
0000
0000
0000
,
0000
0000
0000
0000
,
0000
0000
0000
0000
,
0100
0010
0100
0010
0001
0010
0100
1000
,
0010
1000
0010
1000
0001
0000
0100
0001
,
0010
0100
0010
0100
1000
0001
0100
0010
,
0100
0001
0100
0001
1000
0000
0001
1000
,
0100
0010
0100
0010
0001
1000
0100
1000
,
0010
0100
0010
0100
0001
0000
0100
0010
,
0110
0000
0011
0000
0000
0010
0001
0010
,
0100
0000
0110
0000
0000
0100
1000
0001
,
0100
0010
0100
0010
1000
0001
0010
0100
,
1000
0001
1000
0001
0100
0000
0010
0100
,
0001
1000
0001
1000
0010
0100
0010
1000
,
0001
0010
0001
0010
0100
0000
1000
0100
,
0001
0000
0000
0001
0100
1000
0100
0010
,
0100
0000
0110
0000
0000
0010
0100
1000
,
0100
0000
0000
1000
0010
0100
0010
0100
,
0001
0000
0101
0000
0000
0100
0001
0010
,
0001
0010
0000
0100
0010
0100
0000
1000
,
0100
1000
0001
0100
0001
1000
0100
1000
,
0010
0100
0000
0010
0100
0001
0000
1000
,
0001
1000
0100
0010
0100
1000
0010
0100
,
0001
1000
0001
1000
0100
0010
0001
0010
,
0100
1000
0100
1000
0010
0000
1000
0001
,
0010
0100
0010
0100
1000
0010
0100
0001
,
0100
0010
0100
0010
1000
0000
0100
0010
,
0001
0100
0001
0100
0010
1000
0100
0010
,
0001
1000
0001
1000
0010
0000
0100
0001
,
0101
0000
1010
0000
0000
0100
0010
0100
,
1000
0000
0110
0000
0000
1000
0010
0100
,
0001
1000
0001
1000
0010
1000
0100
0010
,
0001
0100
0001
0100
0010
0000
1000
0100
,
1000
0010
1000
0010
0100
0010
1000
0001
,
0010
0100
0010
0100
0001
0000
0001
0100
,
1000
1000
0010
1000
,
0001
0000
0100
0000
0001
0000
0010
0100
,
1000
0010
1000
0100
,
1000
0000
0001
0000
0100
0000
0001
0010
,
0100
0000
0010
0100
,
0010
0000
0100
0000
1000
0000
0010
0100
,
0001
1000
0001
1000
,
0100
0000
1000
0000
0100
0000
1000
0001
,
0010
0100
0010
0100
1000
0001
0100
0001
,
1000
0010
1000
0010
0100
0000
0010
0100
,
0010
1000
0010
1000
0100
0010
0001
0010
,
0100
1000
0100
1000
0010
0000
1000
0001
,
0100
0010
0100
0010
1000
0001
0100
0001
,
0010
0100
0010
0100
1000
0000
0001
0010
,
0110
0000
1001
0000
0000
0100
1000
0010
,
0100
0000
0110
0000
0000
0100
0001
1000
,
0100
0010
0100
0010
0001
1000
0010
1000
,
0001
0100
0001
0100
0010
0000
0100
0001
,
1000
0010
1000
0010
1000
0100
0010
0001
,
1000
0010
1000
0010
0100
0000
0001
0010
,
0001
0000
0000
1000
0010
1000
0010
0100
,
0010
0000
0110
0000
0000
0100
0001
0010
,
0001
0000
0000
0010
0100
1000
0100
1000
,
0100
0000
1100
0000
0000
1000
0010
1000
,
0010
0100
0000
0010
0100
0001
0000
0010
,
0001
0010
0100
1000
0010
0100
0010
1000
,
0100
0010
0000
0100
0010
0001
0000
0100
,
0001
0010
0100
1000
0010
0100
0010
1000
,
1001
0000
0000
0000
;

//---------------dance-single - ----------------
#NOTES:
     dance-single:
     :
     Easy:
     6:
     0.298898,0.331750,0.188494,0.160220,0.000000,222.000000,202.000000,20.000000,17.000000,0.000000,0.000000,0.298898,0.331750,0.188494,0.160220,0.000000,222.000000,202.000000,20.000000,17.000000,0.000000,0.000000:
// measure 0
0000
0000
0000
0000
,  // measure 1
0000
0000
0000
0000
,  // measure 2
0000
0000
0000
0000
,  // measure 3
0000
0000
0000
0000
,  // measure 4
0200
0000
0310
0001
,  // measure 5
0200
0000
0310
1000
,  // measure 6
0002
0000
0013
0100
,  // measure 7
2000
0000
3010
0100
,  // measure 8
0002
0000
1003
0100
,  // measure 9
0020
0000
0130
1000
,  // measure 10
1010
1010
0000
1000
,  // measure 11
0011
0011
0000
0001
,  // measure 12
0010
0010
0100
1000
,  // measure 13
0010
0010
1000
0001
,  // measure 14
0010
0010
0100
1000
,  // measure 15
0001
0001
0100
0010
,  // measure 16
1001
0000
1000
0100
,  // measure 17
0010
0110
0000
0010
,  // measure 18
0100
0000
1000
0100
,  // measure 19
1000
1100
0000
1000
,  // measure 20
0001
0000
0110
0000
,  // measure 21
0001
0010
0100
0010
,  // measure 22
0011
0000
1010
0000
,  // measure 23
0100
1000
0100
1000
,  // measure 24
0001
0001
1000
0100
,  // measure 25
0010
0010
0100
1000
,  // measure 26
0010
0010
0100
0001
,  // measure 27
0010
0010
0001
1000
,  // measure 28
2000
0000
3010
0100
,  // measure 29
0002
0000
1003
0100
,  // measure 30
0010
0010
0000
0001
,  // measure 31
1000
1000
0000
0010
,  // measure 32
1000
1000
0100
0010
,  // measure 33
0001
0001
0010
0100
,  // measure 34
2000
0000
3010
0100
,  // measure 35
0002
0000
0013
0100
,  // measure 36
1100
1000
1000
1000
,  // measure 37
1000
1000
1000
1000
,  // measure 38
0001
0001
0001
0001
,  // measure 39
0001
0001
0001
0001
,  // measure 40
0110
0000
0010
0010
,  // measure 41
0100
0100
0010
0010
,  // measure 42
0100
0100
0010
0010
,  // measure 43
0100
0100
1000
1000
,  // measure 44
0100
0100
1000
0100
,  // measure 45
0010
0010
0001
0100
,  // measure 46
0001
0001
1000
0100
,  // measure 47
0010
0010
0100
1000
,  // measure 48
0020
0000
0130
0001
,  // measure 49
2000
0000
3100
0010
,  // measure 50
0011
1001
0000
0001
,  // measure 51
1010
1001
0000
1000
,  // measure 52
0002
0000
0013
0100
,  // measure 53
2000
0000
3010
0100
,  // measure 54
0002
0000
1003
0100
,  // measure 55
2000
0000
3002
0103
,  // measure 56
0010
0000
0100
0010
,  // measure 57
1000
1000
0000
0100
,  // measure 58
0010
0000
0010
0001
,  // measure 59
0010
0011
0000
0010
,  // measure 60
0100
0000
1010
0000
,  // measure 61
0100
1000
0100
0010
,  // measure 62
0011
0000
0010
0000
,  // measure 63
0100
1000
0100
0010
,  // measure 64
0011
0000
0000
0000
;

//---------------dance-single - ----------------
#NOTES:
     dance-single:
     :
     Beginner:
     4:
     0.169645,0.271432,0.075398,0.000000,0.000000,126.000000,118.000000,8.000000,0.000000,0.000000,0.000000,0.169645,0.271432,0.075398,0.000000,0.000000,126.000000,118.000000,8.000000,0.000000,0.000000,0.000000:
0000
0000
0000
0000
,
0000
0000
0000
0000
,
0000
0000
0000
0000
,
0000
0000
0000
0000
,
1000
0000
0001
0000
,
1000
0000
0010
0000
,
1000
0000
0001
0000
,
0010
0000
0001
0000
,
0100
0000
0001
0000
,
1000
0000
0010
0000
,
0010
0010
0000
0000
,
1000
1000
0000
0000
,
0001
0000
0010
0000
,
0100
0000
1000
0000
,
0001
0000
0100
0000
,
0010
0000
1000
0000
,
1001
0000
0000
0000
,
1000
0000
0000
0000
,
1001
0000
0000
0000
,
0001
0000
0000
0000
,
0110
0000
0000
0000
,
1001
0000
0000
0000
,
0110
0000
0000
0000
,
1001
0000
0000
0000
,
1000
0000
0001
0000
,
0010
0000
0001
0000
,
1000
0000
0100
0000
,
1000
0000
0010
0000
,
0100
0000
0001
0000
,
0010
0000
0100
0000
,
1000
1000
0000
0000
,
0001
0001
0000
0000
,
1000
0000
0010
0000
,
0100
0000
0010
0000
,
1000
0000
0001
0000
,
0010
0000
0100
0000
,
1000
1000
1000
1000
,
1000
1000
1000
1000
,
1000
0000
0000
0000
,
0000
0000
0000
0000
,
0001
0000
0001
0001
,
0001
0001
0001
0001
,
0001
0000
0000
0000
,
1001
0000
0000
0000
,
0100
0000
0010
0000
,
1000
0000
0001
0000
,
0010
0000
0100
0000
,
0010
0000
0001
0000
,
1000
0000
0010
0000
,
1000
0000
0100
0000
,
0010
0010
0000
0000
,
0001
0001
0000
0000
,
1000
0000
0010
0000
,
0100
0000
0010
0000
,
1000
0000
0001
0000
,
0100
0000
0010
0000
,
0100
0000
0001
0000
,
0010
0010
0000
0000
,
0100
0000
1000
0000
,
0001
0001
0000
0000
,
1000
0000
0010
0000
,
0100
0100
0100
0000
,
0001
0000
0010
0000
,
0001
0001
1000
1000
,
1001
0000
0000
0000
;
