#TITLE:TWILIGHT ZONE (R-C Extended Club MIX);
#SUBTITLE:;
#ARTIST:2 UNLIMITED;
#TITLETRANSLIT:;
#SUBTITLETRANSLIT:;
#ARTISTTRANSLIT:;
#GENRE:;
#CREDIT:;
#BANNER:TWILIGHT ZONE (R-C Extended Club MIX).png;
#BACKGROUND:TWILIGHT ZONE (R-C Extended Club MIX)-bg.png;
#LYRICSPATH:;
#CDTITLE:;
#MUSIC:TWILIGHT ZONE (R-C Extended Club MIX).ogg;
#OFFSET:0.000000;
#SAMPLESTART:17.360001;
#SAMPLELENGTH:15.000000;
#SELECTABLE:YES;
#DISPLAYBPM:138.000000;
#BPMS:0.000000=137.684998
,4.000000=138.018005
;
#STOPS:
;
#BGCHANGES:;
#KEYSOUNDS:;
#ATTACKS:;

//---------------dance-single - Raikou Rider----------------
#NOTES:
     dance-single:
     Raikou Rider:
     Challenge:
     14:
     0.670220,0.788905,0.297875,0.255322,0.691497,441.000000,413.000000,28.000000,24.000000,20.000000,0.000000,0.670220,0.788905,0.297875,0.255322,0.691497,441.000000,413.000000,28.000000,24.000000,20.000000,0.000000:
// measure 0
0000
0000
0000
0000
,  // measure 1
0000
0000
0000
0000
,  // measure 2
0000
0000
0000
0000
,  // measure 3
1000
0100
0010
0001
1000
0100
0010
0001
,  // measure 4
0100
0001
1000
0010
1000
0010
0100
0001
,  // measure 5
0010
0100
0001
0100
1001
0000
1100
0000
,  // measure 6
1000
0100
0000
0010
0001
0000
1000
0100
0000
0010
0001
0000
1000
0000
0001
0000
,  // measure 7
0100
0010
0000
1000
0001
0000
0100
0010
0000
1000
0001
0000
0100
0000
0010
0000
,  // measure 8
1000
0100
0000
0010
0001
0000
0100
0010
0000
1000
0001
0000
1000
0000
0001
0000
,  // measure 9
0010
0000
0100
0000
1000
0000
0001
1000
0000
0000
0100
0000
0101
0000
MMMM
0000
,  // measure 10
0010
0001
0000
0100
0001
0000
1000
0010
0000
1000
0100
0000
1000
0000
0010
0000
,  // measure 11
0010
1000
0000
0100
1000
0000
0001
0100
0000
0001
1000
0000
0001
0000
0010
0000
,  // measure 12
0010
0001
0000
0100
0001
0000
1000
0001
0000
1000
0100
0000
1000
0000
0010
0000
,  // measure 13
1000
0000
0001
0000
0100
0000
0010
0100
0000
0000
1000
0000
0100
0000
0010
0000
,  // measure 14
0100
0001
0000
0100
0010
0000
0100
1000
0000
0100
0010
0000
0100
0000
0001
0000
,  // measure 15
0010
0100
0000
0010
0001
0000
0010
0100
0000
0010
1000
0000
0010
0000
0001
0000
,  // measure 16
0010
0001
0000
0100
0010
0000
0100
0001
0000
1000
0100
0000
0010
0000
0100
0000
,  // measure 17
0001
0000
0100
0000
1000
0000
0100
0010
0000
0000
0001
0000
1000
0000
0100
0000
,  // measure 18
1100
0000
0010
0100
0010
0000
0101
0000
0010
1000
0010
0000
0110
0000
0001
0010
,  // measure 19
0001
0000
1000
0100
1000
0000
0110
0000
1000
0010
1000
0000
0101
0000
0001
0000
,  // measure 20
0110
0000
1000
0100
0010
0000
0101
0000
0001
0100
0010
0000
1100
0000
0100
0010
,  // measure 21
0001
1000
0010
0100
0001
1000
0100
0000
0101
0000
0110
0000
1100
0000
MMMM
0000
,  // measure 22
1000
0100
0000
0010
0001
0000
0010
0100
0000
1000
0100
0000
0010
0000
0001
0000
,  // measure 23
0100
0010
0000
1000
0100
0000
0010
0100
0000
1000
0010
0000
0100
0000
0100
0000
,  // measure 24
0010
1000
0000
1000
0001
0000
1000
0100
0000
0010
0001
0000
0100
0000
0010
0000
,  // measure 25
1000
0000
0010
0000
1000
0000
0001
1000
0000
0000
1000
0000
0110
0000
MMMM
0000
,  // measure 26
1000
0100
0000
0100
0001
0000
0001
0100
0000
0100
1000
0000
0100
0000
0010
0000
,  // measure 27
0001
0100
0000
0010
0100
0000
0100
0001
0000
1000
0001
0000
0010
0000
0100
0000
,  // measure 28
1000
0010
0000
0010
0001
0000
0001
0010
0000
0010
1000
0000
0010
0000
0100
0000
,  // measure 29
0100
0000
0001
0000
1000
0000
0100
0010
0000
0000
0100
0000
0101
0000
MMMM
0000
,  // measure 30
1000
0010
0000
0010
0100
0000
0100
0001
0000
0001
0010
0000
0010
0100
1000
0000
,  // measure 31
0010
0100
0000
0100
1000
0000
1000
0100
0000
0100
0010
0000
0010
0100
0001
0000
,  // measure 32
0001
0010
0100
1000
0100
0010
0001
1000
0100
1000
0001
0100
0010
0100
0001
0010
,  // measure 33
0100
1000
0001
1000
0100
1000
0001
0010
0100
0000
1000
0000
0001
0000
1000
0000
,  // measure 34
2000
0000
0000
0000
0002
0000
3000
0020
0000
0033
1000
0000
0001
0000
1000
0000
,  // measure 35
2000
0000
0000
0000
0020
0000
3000
0002
0000
0033
0010
0000
0100
0000
1000
0000
,  // measure 36
2000
0000
0000
0000
3002
0000
0000
0000
0200
0000
0000
0003
0020
0300
2000
0000
,  // measure 37
0000
0000
0000
0000
3030
1000
0100
0010
,  // measure 38
0002
0000
0000
0000
2000
0000
0003
0020
0000
3030
1000
0000
0010
0000
0100
0000
,  // measure 39
0002
0000
0000
0000
0020
0000
0003
0200
0000
0330
0001
0000
0100
0000
0010
0000
,  // measure 40
0002
0000
0000
0000
0203
0000
0000
0000
2000
0000
0000
0300
0002
3000
0020
0000
,  // measure 41
0000
0000
0000
0000
0033
0000
1000
0100
0000
MMMM
0000
0000
1100
0000
0000
0000
,  // measure 42
1000
0100
0000
0100
1000
0000
0100
0001
0000
0001
0100
0000
1000
0000
0001
0000
,  // measure 43
0001
0100
0000
0100
0001
0000
0100
1000
0000
1000
0100
0000
0001
0000
0100
0000
,  // measure 44
0010
0100
0000
0001
1000
0000
1000
0100
0000
0001
0100
0000
1000
0000
0001
0000
,  // measure 45
0110
0000
0100
0000
0001
0000
1000
0001
0000
0000
2000
0000
0002
0000
3003
0000
,  // measure 46
1000
1000
0000
0001
0001
0000
1000
1000
0000
0001
0001
0000
1010
0000
0101
0000
,  // measure 47
0010
0010
0000
0100
0100
0000
0010
0010
0000
0100
0100
0000
0011
0000
1100
0000
,  // measure 48
1000
1000
0000
0100
0100
0000
0010
0010
0000
0001
0001
0000
0011
0000
1010
0000
,  // measure 49
1100
0000
0110
0000
0011
0000
1000
1001
0000
0000
0000
0000
0000
0000
0000
0000
;

//---------------dance-double - ----------------
#NOTES:
     dance-double:
     :
     Easy:
     3:
     0.261401,0.368621,0.234045,0.053192,0.000000,172.000000,150.000000,22.000000,5.000000,0.000000,0.000000,0.261401,0.368621,0.234045,0.053192,0.000000,172.000000,150.000000,22.000000,5.000000,0.000000,0.000000:
00000000
00000000
00000000
00000000
,
00000000
00000000
00000000
00000000
,
00000000
00000000
00000000
00000000
,
00010000
00000000
00000000
00000000
,
00001000
00000000
00000000
00000000
,
00010000
00000000
00000000
00000000
,
00010100
00000000
00000000
00000000
,
01001000
00000000
00000000
00000000
,
00010100
00000000
00000000
00000000
,
00010000
00010000
00010000
00000000
,
00010000
00010000
00010000
00010000
,
01000000
01000000
01000000
01000000
,
10000000
10000000
10000000
10000000
,
01000000
00010000
00001000
00000000
,
00001000
00001000
00001000
00001000
,
00000100
00000100
00000100
00000100
,
00000001
00000001
00000001
00000001
,
00000100
00001000
00010000
00000000
,
00010000
00010000
00010000
00010000
,
00010000
00010000
00010010
00011000
,
00001000
00001000
00001000
00001000
,
00001000
00001000
00101000
00011000
,
00001000
00001000
00001000
00002000
,
00000100
00000100
00003100
00000200
,
00000001
00000001
00000301
00000001
,
00000100
00001000
00010000
00000000
,
00010000
00010000
00010000
00020000
,
01000000
01000000
01030000
02000000
,
10000000
10000000
13000000
10000000
,
01000000
00010000
00001000
00000000
,
00011000
00001000
00001000
00010010
,
00011000
00010000
00010000
00101000
,
00011000
00001000
00001000
00010010
,
00011000
00001000
00000100
00000000
,
00000001
00000100
00001000
00000000
,
00001000
00000100
00000001
00000000
,
00000001
00000100
00001000
00000000
,
00010000
01000000
10000000
00000000
,
10000000
01000000
00010000
00000000
,
00010000
01000000
10000000
00000000
,
10000000
01000000
00010000
00000000
,
00002000
00000000
00000000
00003000
,
00011000
00001000
00001000
00010010
,
00011000
00010000
00010000
00101000
,
00011000
00001000
00001000
00010010
,
00011000
00001000
00000100
00000000
,
00000001
00000100
00001000
00000000
,
00001000
00000100
00000001
00000000
,
00000001
00000100
00001000
00010000
,
01000000
10000000
10010000
00000000
,
00000000
00000000
00000000
00000000
;

//---------------dance-double - ----------------
#NOTES:
     dance-double:
     :
     Medium:
     5:
     0.348028,0.394951,0.265960,0.085107,0.000000,229.000000,204.000000,25.000000,8.000000,0.000000,0.000000,0.348028,0.394951,0.265960,0.085107,0.000000,229.000000,204.000000,25.000000,8.000000,0.000000,0.000000:
00000000
00000000
00000000
00000000
,
00000000
00000000
00000000
00000000
,
00000000
00000000
00000000
00000000
,
01000000
00010000
00001000
00000100
,
00000100
00001000
00010000
01000000
,
01000000
00010000
00001000
00000100
,
00000110
00000000
00001000
00010000
,
01100000
00000000
00010000
00001000
,
00000110
00000000
00001000
00010000
,
01000000
10000000
00010000
00000000
,
01000000
10000000
00000000
10010000
00000000
00100000
00000000
01000000
,
00000000
10000000
00000000
10010000
00000000
01000000
00010000
00001000
,
00000100
00000001
00000000
00001001
00000000
00000010
00000000
00000100
,
00000000
00000001
00000000
00001001
00000000
00000100
00000010
00000000
,
00000100
00000001
00000000
00001001
00000000
00000010
00000000
00000100
,
00000000
00000001
00000000
00001001
00000000
00000100
00001000
00010000
,
01000000
10000000
00000000
10010000
00000000
00100000
00000000
01000000
,
00000000
10000000
00000000
10010000
00000000
00100000
01000000
00000000
,
02100000
00010000
10000000
03020000
,
00001000
00000000
01030000
00000000
00001000
00000100
00000001
00000000
,
00000210
00001000
00000001
00002300
,
00010000
00000000
00013000
00000000
00000100
00001000
00010000
00000000
,
00010010
00001000
00010010
00002000
,
00000100
00000100
00010000
00013000
,
00101000
00010000
00101000
00020000
,
01000000
01000000
00001000
00031000
,
00001000
00000100
00000001
00001000
,
00000001
00000001
00000100
00001000
,
00010000
01000000
10000000
00010000
,
10000000
10000000
01000000
00010000
,
00001000
00010000
00000000
00100000
00000000
00010000
00001000
00000000
,
00010000
00001000
00000000
00000010
00000000
00001000
00010000
00000000
,
00001000
00010000
00000000
00100000
00000000
00010000
00001000
00000000
,
00000100
00000001
00001001
00000100
,
00000010
00000000
00000100
00000000
00000010
00001000
00000100
00001000
,
00000001
00000000
00001100
00000000
00000010
00000001
00000100
00000000
,
00001000
00010000
01000000
10000000
,
10010000
01000000
00100000
10010000
,
01000000
00000000
10000000
00000000
01000000
00010000
00001000
00010000
,
01000000
00000000
01100000
00000000
10000000
01000000
00010000
01000000
,
10000000
10010000
01000000
00100000
,
20020000
00000000
00000000
30030000
,
00100000
00000000
10000000
00000000
00100000
00000000
10000000
01000000
,
00010000
00000000
00001000
00000000
01000000
00000000
00001000
00000100
,
00000001
00000000
00000010
00000000
00001000
00000000
00000100
00001000
,
00000001
00000100
00001001
00000100
,
00000010
00000000
00000100
00000000
00000001
00000000
00000010
00000100
,
00001000
00000000
00000010
00000000
00000001
00000000
00000100
00000001
,
00001000
00000000
00000001
00000000
00000100
00000000
00001000
00010000
,
01000000
10000000
00100000
00000000
,
00000000
00000000
00000000
00000000
;

//---------------dance-double - ----------------
#NOTES:
     dance-double:
     :
     Hard:
     8:
     0.483288,0.552233,0.297875,0.074469,0.101065,318.000000,290.000000,28.000000,7.000000,0.000000,0.000000,0.483288,0.552233,0.297875,0.074469,0.101065,318.000000,290.000000,28.000000,7.000000,0.000000,0.000000:
00000000
00000000
00000000
00000000
,
00000000
00000000
00000000
00000000
,
00000000
00000000
00000000
00000000
,
10000000
01000000
00100000
00010000
,
01000000
00100000
00010000
00001000
,
00010000
01000000
10000000
00100000
,
10010000
00000000
00000000
00000000
10000000
00010000
01000000
00000000
,
01001000
00000000
00000000
00000000
00100000
00010000
00001000
00000000
,
00010100
00000000
00000000
00000000
00000010
00001000
00010000
00000000
,
00001000
00000000
00000100
00000000
00000001
00000000
00001000
00000001
00000000
00000000
00000000
00000000
00000000
00000000
00000000
00000000
,
00000001
00000010
00000100
00001000
00000001
00000010
00001000
00000001
,
00000100
00001000
00000010
00000100
00001000
00010000
00100000
10000000
,
01000000
00010000
00001000
00010000
01000000
00100000
00010000
01000000
,
00100000
00000000
00010000
00000000
00100000
00000000
01000000
00100000
00000000
00000000
00000000
00000000
00000000
00000000
00000000
00000000
,
10000000
00100000
01000000
00010000
10000000
00100000
00010000
10000000
,
01000000
00010000
00100000
01000000
00010000
00001000
00000010
00000001
,
00000100
00001000
00010000
00001000
00000100
00000010
00001000
00000100
,
00000010
00000000
00001000
00000000
00000010
00000000
00000100
00000010
00000000
00000000
00000000
00000000
00000000
00000000
00000000
00000000
,
00001001
00000110
00001001
00001100
,
00001001
00000101
00001001
00011000
,
10010000
01100000
10010000
01010000
,
10010000
01000000
00010000
00001000
,
00000010
00001000
00010000
00001000
00000010
00000001
00000010
00001000
,
00010000
00001000
00000010
00000001
00000100
00001000
00010000
00001000
,
00000100
00000001
00001000
00000100
00000010
00000001
00000100
00001000
,
00010000
00000000
00001000
00000000
00000010
00000000
00000100
00000010
00000000
00000000
00000000
00000000
00000000
00000000
00000000
00000000
,
00000010
00000001
00000100
00000001
00001000
00000100
00001000
00000010
,
00001000
00000100
00000010
00001000
00010000
01000000
00010000
00001000
,
00010000
00100000
00010000
00001000
00010000
01000000
10000000
00100000
,
01000000
00000000
00010000
00000000
10000000
00000000
01000000
10000000
00000000
00000000
00000000
00000000
00000000
00000000
00000000
00000000
,
10000000
01000000
00010000
01000000
10000000
01000000
00020000
00000000
,
00031000
00000100
00000001
00000100
00001000
00000100
00000002
00000000
,
00000013
00000001
00001000
00000010
00000100
00000001
00002000
00000000
,
00003001
00000000
00000110
00000000
00001001
00000100
00000010
00000100
,
00000001
00000000
00000010
00000000
00001000
00000010
00000001
00000100
,
00001000
00000000
00010000
00000000
01100000
10000000
00010000
01000000
,
00100000
10010000
11000000
01010000
,
20020000
00000000
00000000
30030000
10000000
01000000
00100000
00010000
,
10000000
00000000
01100000
00000000
00010000
00001000
00000010
00001000
,
00010000
00000000
01100000
00000000
00010000
00001000
00000100
00001000
,
00010000
00001000
00000110
00000101
,
00002002
00000000
00000000
00003003
,
00000001
00000100
00001000
00001000
00000100
00000100
00001000
00010000
,
01000000
01000000
00100000
00100000
00010000
10000000
00100000
01000000
,
00010000
00100000
01000000
01000000
00010000
00010000
00001000
00000100
,
00000001
00000000
00000010
00000000
00000100
00000000
00001000
00000001
00000000
00000000
00000000
00000000
00000000
00000000
00000000
00000000
,
00001000
00001000
00000000
00000100
00000100
00000000
00000010
00000010
00000000
00000001
00000001
00000000
00000100
00000000
00001000
00000000
,
00010000
00010000
00000000
01000000
01000000
00000000
00100000
00100000
00000000
10000000
10000000
00000000
00010000
00000000
01000000
00000000
,
10000000
10000000
00000000
01000000
01000000
00000000
00100000
00100000
00000000
00010000
00010000
00000000
01000000
00000000
00100000
00000000
,
00010000
00000000
00001000
00000000
00000100
00000000
00000010
00000001
00000000
00000000
00000000
00000000
00000000
00000000
00000000
00000000
,
00000000
00000000
00000000
00000000
;
