#TITLE:TROOPERS;
#SUBTITLE:;
#ARTIST:Des-TRACT;
#TITLETRANSLIT:;
#SUBTITLETRANSLIT:;
#ARTISTTRANSLIT:;
#GENRE:;
#CREDIT:;
#BANNER:bn.png;
#BACKGROUND:bg.png;
#LYRICSPATH:;
#CDTITLE:;
#MUSIC:TROOPERS.mp3;
#OFFSET:-0.073000;
#SAMPLESTART:81.078003;
#SAMPLELENGTH:15.000000;
#SELECTABLE:YES;
#BPMS:0.000000=177.000000
;
#STOPS:
;
#BGCHANGES:;
#KEYSOUNDS:;
#ATTACKS:;

//---------------dance-single - ----------------
#NOTES:
     dance-single:
     :
     Hard:
     14:
     0.770492,0.844887,0.708754,0.095077,0.181510,624.000000,542.000000,82.000000,11.000000,0.000000,0.000000,0.770492,0.844887,0.708754,0.095077,0.181510,624.000000,542.000000,82.000000,11.000000,0.000000,0.000000:
0000
0000
0000
0000
,
0000
0000
0000
0000
,
1001
0001
0001
0001
,
0001
0001
1010
0101
,
1000
1000
1000
1000
,
1000
1000
1000
0110
,
0001
0101
0010
1000
,
1001
1001
0000
0000
0110
0110
0000
0000
,
0010
0100
0001
0100
0010
0100
0001
0100
,
0010
0100
0001
1000
0100
0010
0110
0000
,
1000
0001
0100
0001
1000
0001
0100
0001
,
1000
0010
1000
0001
0011
0000
1100
0000
,
0100
1000
0001
1000
0100
1000
0001
1000
,
0100
1000
0001
1000
0010
0001
0010
1000
,
0100
0001
0100
1000
0001
0010
0100
1000
,
1010
1010
0000
0000
0101
0101
0000
0000
,
0100
0010
1000
0001
0010
0100
1000
0010
,
0100
0010
1000
0100
1000
0001
1001
0000
,
0001
0010
0001
1000
0100
1000
0001
0010
,
0100
0000
0010
0000
0001
0000
0100
0000
1000
0000
0100
0000
0001
0000
1000
0001
,
1000
0001
1000
0001
0010
0100
1000
0001
,
1000
0010
0100
0001
1000
0100
0110
0000
,
0001
0010
0001
0100
1000
0100
0001
1000
,
0011
0011
0000
0000
1100
1100
0000
0000
,
1000
0000
0001
0000
0100
0001
0000
0000
0010
0000
0100
0000
1000
0010
0000
0000
,
0100
0000
0010
0000
1000
0100
0000
0000
0001
0000
0100
0000
0010
0100
0000
0000
,
1000
0000
0100
0000
1000
0001
0000
0000
0100
0000
1000
0000
0100
0001
0000
0000
,
0100
0000
0010
0000
1000
0001
0000
0000
0100
0000
0010
0000
0101
0000
0000
0000
,
0100
0010
1000
0100
0001
1000
0001
0100
,
0000
1000
0100
0001
0100
1000
0100
0010
,
0000
0000
0001
0010
0100
0000
0000
0000
0000
0000
0010
0000
1000
0000
0010
0000
,
0011
0011
0000
0000
1010
1010
0000
0000
,
1000
0000
0100
0000
0010
0001
0000
0000
1000
0000
0010
0000
0100
0001
0000
0000
,
0100
0000
0010
0000
1000
0100
0000
0000
1000
0000
0010
0000
0110
0000
0000
0000
,
1001
0000
0100
0000
0010
0100
0000
0000
0001
0000
1000
0000
0100
0001
0000
0000
,
0100
0000
1000
0000
0100
1000
0000
0000
0010
0000
0100
0000
1001
0000
0000
0000
,
1010
0000
0100
0101
1001
0000
0000
1000
,
0100
1000
0001
0010
0000
0000
1010
0000
,
0110
0101
0011
1010
,
0011
0202
0000
0303
,
0100
1000
0100
0010
0100
0001
0100
1000
,
0100
0010
0100
0001
0100
1000
0100
0010
,
0100
0001
0100
1000
0100
0010
0100
0001
,
0100
1000
0100
0010
0100
0001
0100
0010
,
0100
0000
0001
1000
0010
0000
0010
0000
,
1000
0000
0000
0000
0000
0000
0001
0000
0000
0000
0000
0000
0001
0000
0010
0000
0100
0000
1000
0000
0000
0100
0000
0000
,
0100
0000
1000
0010
0100
0000
0100
0001
,
0010
0010
1100
0101
,
0010
0000
0001
0100
0010
0000
1000
0001
,
0010
0000
0000
0000
0000
0000
0100
0000
0000
0000
0000
0000
1000
0000
0100
0000
0010
0000
0001
0000
0000
0100
0000
0000
,
0100
0000
0010
1000
0100
0000
0010
0000
,
1001
0110
1010
0101
,
0001
0000
1000
0000
0100
1000
0000
0000
0001
0000
0100
0000
0010
0100
0000
0000
,
0001
0000
1000
0000
0010
0100
0000
0000
0010
0000
0001
0000
0010
1000
0000
0000
,
0010
0000
0100
0000
0001
1000
0000
0000
1000
0000
0100
0000
1000
0001
0000
0000
,
0010
0000
1000
0000
0010
0001
0000
0000
0010
0000
0100
0000
0110
0000
0000
0000
,
0001
0000
0010
0000
0100
1000
0000
0000
1000
0000
0100
0000
0010
0001
0000
0000
,
0100
0000
1000
0000
0100
0001
0000
0000
0010
0000
0100
0000
1000
0001
0000
0000
,
0010
0000
1000
0000
0010
0100
0000
0000
0010
0000
0001
0000
0100
0010
0000
0000
,
1000
0001
1000
0001
1000
0001
1000
0001
1000
0000
0001
0000
1001
0000
0000
0000
,
1001
0000
0000
0100
1000
0001
0010
1000
,
0000
0010
0001
1000
0000
0100
0101
0000
,
1010
0000
0000
1000
0001
0010
1000
0001
,
0100
1000
0000
1001
0000
0010
0110
0000
,
0101
0000
1000
0101
1001
0000
0000
1000
,
0100
0001
0000
1001
0000
0000
0101
0000
,
1001
1010
0110
1001
,
0110
0110
0000
0000
1001
1001
0000
0000
,
1000
1000
1001
0001
0001
0101
0100
0100
,
0101
0001
0001
2002
0000
0000
3003
0000
,
0100
0100
0101
0001
0001
1001
1000
1000
,
1100
0100
0100
0220
0000
0000
0330
0000
,
0001
0001
0101
0100
0100
0110
0010
0010
,
1010
1000
1000
2200
0000
0000
3300
0000
,
0001
0001
1001
1000
1000
1010
0010
0010
,
0110
0100
0100
0220
0000
0000
0330
0000
,
1000
0001
0100
1000
0001
0010
0100
0001
,
0010
0100
0001
1000
0010
0100
1000
0001
,
0010
1000
0001
0100
0010
0001
0100
0010
,
0001
1000
0100
0001
1000
0100
0001
0100
,
0010
1000
0010
0001
0100
1000
0100
0010
,
1000
0100
0001
0100
1000
0010
0001
0010
,
1000
0000
0001
0000
0010
0001
0010
0000
1000
0000
0010
0000
0001
0010
0001
0000
,
1000
0000
0001
0000
1000
0100
1000
0100
1000
0000
0010
0000
1000
0001
1000
0001
,
2000
0000
0000
0000
,
3000
0000
0000
0000
;

//---------------dance-single - ----------------
#NOTES:
     dance-single:
     :
     Medium:
     12:
     0.614912,0.653437,0.259300,0.043217,0.017287,498.000000,468.000000,30.000000,5.000000,0.000000,0.000000,0.614912,0.653437,0.259300,0.043217,0.017287,498.000000,468.000000,30.000000,5.000000,0.000000,0.000000:
0000
0000
0000
0000
,
0000
0000
0000
0000
,
1000
0100
0010
0001
,
0010
0100
0101
1010
,
1000
0100
0010
0001
,
1000
0010
0100
1001
,
0010
0100
0001
1000
,
0100
0100
0000
0000
0010
0010
0000
0000
,
0001
0010
0001
0010
0001
1000
0001
1000
,
0010
1000
0010
1000
0001
0100
0001
0000
,
1000
0010
1000
0010
1000
0001
1000
0001
,
0010
0100
1000
0000
0101
0000
1010
0000
,
1000
0100
0010
0100
,
0001
0100
0010
0001
,
0100
0010
0100
1000
,
0100
0010
0000
0000
1000
0100
0000
0000
,
0010
0001
0010
0001
1000
0010
0100
0010
,
1000
0001
0010
0100
1000
0000
1001
0000
,
0001
0010
0100
1000
0010
1000
0001
0100
,
0010
1000
0100
0000
1001
0000
0110
0000
,
0010
1000
0010
1000
0100
0010
0001
0100
,
0001
1000
0010
0100
0001
0000
0101
0000
,
1000
0001
0100
0010
1000
0100
0010
0001
,
0100
0100
0000
0000
0010
0010
0000
0000
,
0100
0001
0010
0000
0100
1000
0001
0000
,
0100
0010
1000
0000
0100
0010
0001
0000
,
0100
0001
0010
0000
0100
1000
0001
0100
,
0020
0000
1000
0000
1000
0000
1000
0030
,
1000
0000
0001
0010
0100
1000
0010
1000
,
0000
0001
0010
0000
0100
1000
0001
0100
,
0000
0010
1000
0000
0000
1000
0001
0100
,
0001
0001
0000
0000
1000
1000
0000
0000
,
1000
0100
0010
0001
1000
0100
1000
0001
,
0000
0010
0100
1000
0000
0000
1010
0000
,
0101
0000
0000
1000
0010
1000
0010
1000
,
0100
0010
0000
0011
0000
0000
1001
0000
,
0110
0000
0000
1000
0001
0000
0000
0001
,
0010
0100
0000
1001
0000
0000
0001
0000
,
0100
1000
0100
0001
,
0110
0220
0000
0330
,
1000
0010
0001
0010
,
1000
0100
0001
0100
,
1000
0010
0001
0010
,
1000
0100
0001
0100
,
1000
0000
0001
0100
0010
0000
1000
0001
,
0010
0000
0000
0100
0000
0000
0010
0100
0010
0100
0000
0000
,
1000
0000
0001
0100
0010
0000
1000
0001
,
0010
0000
0100
1000
0001
0000
0100
0000
,
0010
0000
1000
0100
0010
0000
0001
1000
,
0010
0000
0000
0100
0000
0000
0001
0010
0001
0010
0000
0000
,
0100
0000
1000
0001
0100
0000
0010
0000
,
1001
1001
0110
0110
,
1000
1000
0010
0000
0100
0100
0001
0000
,
0010
0010
0100
0000
1000
1000
0010
0000
,
0100
0100
0001
0000
0010
0010
0100
0000
,
1000
1000
0100
0010
0100
0001
0100
0000
,
0100
0100
1000
0000
0001
0001
1000
0000
,
0001
0001
0010
0000
0100
0100
1000
0000
,
0100
0010
0001
1000
0100
0010
0001
0010
,
0100
0100
0000
0000
0010
0010
0000
0000
,
0100
1000
0001
0100
0001
1000
0010
0100
,
0000
0010
1000
0001
0000
0000
0101
0000
,
1001
0000
0000
0010
0001
0010
0001
0010
,
0100
1000
0000
1010
0000
0000
0101
0000
,
1100
0000
0000
0010
0001
0000
0000
1000
,
0100
0010
0000
0101
0000
0000
1000
0000
,
0010
0001
0100
1000
,
0110
2002
0000
3003
,
1000
1000
0100
1000
1000
0001
1000
1000
,
0010
1000
1000
0001
1000
1000
0100
0000
,
1000
1000
0100
1000
1000
0001
1000
1000
,
0010
1000
1000
0001
1000
1000
0100
0000
,
0001
0001
0100
0001
0001
1000
0001
0001
,
0010
0001
0001
1000
0001
0001
0100
0000
,
0001
0001
0100
0001
0001
1000
0001
0001
,
0010
0001
0001
1000
0001
0001
0100
0000
,
0100
0001
0010
0100
0010
0001
0010
0000
,
0010
0001
1000
0100
0010
0001
0100
0000
,
0100
0001
0010
0100
1000
0001
0100
0000
,
0100
0010
1000
0001
0010
0100
1000
0000
,
1000
0001
0001
0001
0100
0010
0010
0010
,
0100
0001
0100
0001
0010
1000
0010
0001
,
1000
0100
0100
0100
0001
0100
0100
0100
,
1000
0001
0010
1000
0010
0001
0100
1000
,
1010
0000
0000
0000
;

//---------------dance-single - ----------------
#NOTES:
     dance-single:
     :
     Easy:
     9:
     0.450689,0.477545,0.233370,0.069147,0.000000,365.000000,338.000000,27.000000,8.000000,0.000000,0.000000,0.450689,0.477545,0.233370,0.069147,0.000000,365.000000,338.000000,27.000000,8.000000,0.000000,0.000000:
0000
0000
0000
0000
,
0000
0000
0000
0000
,
0001
0010
0001
0010
,
0100
0010
1100
1000
,
0001
0100
0010
1000
,
0001
1000
0010
0110
,
0100
0001
0010
0100
,
1001
0000
0110
0000
,
0010
0010
0001
0001
,
1000
1000
0100
0100
,
0010
0010
0001
0001
,
0100
0100
1010
0101
,
0010
0010
0001
0001
,
1000
1000
0100
0100
,
0001
0001
0100
0100
,
1100
0010
0101
0010
,
0100
0000
0100
0000
1000
0100
1000
0000
,
0001
0000
0001
0000
0010
0001
0010
0000
,
0100
0000
0100
0000
0010
0100
0010
0000
,
0001
1000
0001
1000
0001
0000
1001
0000
,
0010
0000
0010
0000
0100
0010
0100
0000
,
1000
0000
1000
0000
0001
1000
0001
0000
,
1000
0000
1000
0000
0100
1000
0100
0000
,
1100
0000
0011
0000
,
0001
0010
1000
0010
,
0001
0010
0100
1000
,
0100
0000
1000
0000
0100
0000
0010
0001
,
0020
0100
0100
0130
,
1000
0100
0001
0001
,
0100
1000
1000
0100
,
0010
0001
1000
0100
,
1001
0000
0110
0000
,
0001
0000
0010
0001
0000
0000
0010
0001
,
0000
0000
0010
0001
0000
0001
1000
0000
,
1100
0000
1000
0100
0000
0000
1000
0100
,
0000
0000
1000
0100
0000
0010
0100
0000
,
0110
0000
0000
0100
0010
0000
0000
0100
,
0010
0000
0000
0101
0000
0000
1001
0000
,
0100
0001
0100
1000
,
0200
0020
0000
0330
,
0100
0100
0100
0001
,
0001
0001
0100
0100
,
0100
1000
1000
1000
,
0100
0100
0200
0000
,
1300
0100
0010
0001
,
0100
0001
0011
0010
,
0100
1000
0010
1000
,
0001
0000
0010
0000
0100
0010
0100
0000
,
1000
0001
0100
0010
,
1000
0001
0011
0010
,
0001
0000
1000
0010
1000
0000
0001
0000
,
1000
0001
0000
0000
0001
1000
0000
0000
,
0100
0010
0001
1000
,
0001
0010
1000
0010
,
0001
1000
0100
0010
,
0100
1000
0000
1001
0000
0000
0000
0000
,
0000
1000
0001
0010
,
1000
0010
0001
0100
,
0001
0010
1000
0010
,
0002
0000
0000
0000
1000
0000
0000
0003
,
1000
0000
1000
0001
0000
0000
0001
0010
,
0000
0000
0010
0100
0000
1000
0001
0000
,
0100
0000
0000
0100
0001
0000
0001
0000
,
0001
1000
0000
1010
0000
0000
0010
0000
,
0110
0000
0000
0001
1000
0000
0000
0000
,
0010
1000
0000
0101
0000
0000
0100
0000
,
0110
0100
0101
0001
,
1001
2002
0000
3003
,
1000
0000
0100
0000
1000
0100
0000
1000
,
0100
0000
1000
0100
0000
1000
0100
0000
,
0010
0000
0010
0000
0001
0010
0000
0001
,
0010
0000
0001
0010
0000
0001
0010
0000
,
0010
0000
0010
0000
0010
0100
0000
0010
,
0100
0000
0010
0100
0000
0010
0100
0000
,
1000
0000
0001
0000
1000
0001
0000
1000
,
0001
0000
1000
0001
0000
1000
0001
0000
,
1000
0100
0010
0001
,
0100
0001
1000
0010
,
1000
0100
0010
0001
,
0100
0000
0001
1000
0001
1000
0001
0000
,
1000
1000
0100
0100
,
0010
0010
0001
0001
,
0010
0010
0100
0100
,
1000
0000
0010
0000
1000
0001
1000
0001
,
2000
0000
0000
0000
,
3000
0000
0000
0000
;

//---------------dance-single - ----------------
#NOTES:
     dance-single:
     :
     Beginner:
     5:
     0.224727,0.290416,0.190154,0.017287,0.000000,182.000000,160.000000,22.000000,2.000000,0.000000,0.000000,0.224727,0.290416,0.190154,0.017287,0.000000,182.000000,160.000000,22.000000,2.000000,0.000000,0.000000:
0000
0000
0000
0000
,
0000
0000
0000
0000
,
1001
0000
0000
0000
,
0000
0000
0110
1001
,
0000
0000
0000
0000
,
0000
0000
0000
1001
,
0000
0000
0000
0000
,
0110
0000
0110
0000
,
1000
0000
0001
0000
,
0010
0000
0001
0000
,
1000
0000
0010
0000
,
1000
0000
1001
0000
,
0001
0000
0010
0000
,
0001
0000
0100
0000
,
0001
0000
1000
0000
,
1001
0000
0110
0000
,
1000
0000
0001
0000
,
0010
0000
0001
0000
,
1000
0000
0100
0000
,
1000
0000
0010
0010
,
0110
0000
0100
0000
,
0001
0000
1000
0000
,
0100
0000
0010
0000
,
1001
0000
0110
0000
,
0010
0000
1000
0000
,
0001
0000
0010
0000
,
0100
0000
1000
0000
,
0020
0000
0000
0030
,
1000
0000
0001
0000
,
0010
0000
0100
0000
,
0010
0000
0001
0000
,
2000
0000
3000
0000
,
0001
0000
0010
0000
,
0100
0000
0010
0000
,
1001
0000
1000
0000
,
0010
0000
0100
0000
,
1001
0000
1000
0000
,
0100
0000
1000
0000
,
0010
0000
0100
0000
,
0110
0000
0000
0000
,
1000
0000
0001
0000
,
1000
0000
0001
0000
,
1000
0000
0001
0000
,
1000
0000
0001
0000
,
1000
0000
0100
0000
,
0010
0000
0100
0000
,
0010
0000
0001
0000
,
1000
0000
0010
0000
,
0100
0000
0010
0000
,
0100
0000
0001
0000
,
1000
0000
0100
0000
,
0110
0000
1001
0000
,
1000
0000
0100
0000
,
0010
0000
0001
0000
,
1000
0000
0001
0000
,
0010
0000
0100
0000
,
1000
0000
0010
0000
,
0100
0000
0001
0000
,
1000
0000
0100
0000
,
0110
0000
0000
0000
,
1001
0000
1000
0000
,
0010
0000
0100
0000
,
1001
0000
1000
0000
,
0010
0000
0100
0000
,
1001
0000
0010
0000
,
0100
0000
1000
0000
,
0010
0000
0100
0000
,
0001
0000
0010
0000
,
0100
0000
0100
0000
0000
0100
0000
0000
,
0100
0000
0000
0100
0000
0000
0000
0000
,
0000
0000
0010
0000
0000
0010
0000
0000
,
0010
0000
0000
0010
0000
0000
0000
0000
,
0000
0000
0001
0000
0000
0001
0000
0000
,
0001
0000
0000
0001
0000
0000
0000
0000
,
0000
0000
1000
0000
0000
1000
0000
0000
,
1000
0000
0000
1000
0000
0000
0000
0000
,
1000
0000
0100
0000
,
1000
0000
0001
0000
,
0100
0000
0001
0000
,
0010
0000
0100
0100
,
1000
0000
0010
0000
,
1000
0000
0001
0000
,
0010
0000
0001
0000
,
0100
0100
0001
0001
,
1001
0000
0000
0000
;

//---------------dance-single - ----------------
#NOTES:
     dance-single:
     :
     Challenge:
     17:
     1.023619,1.065292,0.458097,0.017287,0.764936,829.000000,776.000000,53.000000,2.000000,0.000000,0.000000,1.023619,1.065292,0.458097,0.017287,0.764936,829.000000,776.000000,53.000000,2.000000,0.000000,0.000000:
// measure 0
0000
0000
0000
0000
,  // measure 1
0000
0000
0000
0000
,  // measure 2
1000
0000
0010
0000
0100
0000
0001
0000
0100
0010
0100
0010
0100
0000
0000
0000
,  // measure 3
0001
0010
0001
0010
0100
1000
0100
1000
0010
0000
0000
0000
0110
0000
0000
0000
,  // measure 4
1000
0000
0100
0000
0001
0000
0100
0000
1000
0010
1000
0010
0100
0001
0100
0001
,  // measure 5
0010
0000
0100
0000
1000
0100
0010
0001
0100
0000
0000
0000
1001
0000
0000
0000
,  // measure 6
0011
1010
1100
0101
,  // measure 7
1000
0100
0010
0100
1000
0001
1000
0010
0100
0001
1000
0100
0010
0000
0000
0000
,  // measure 8
1001
1000
0100
0010
0011
0001
0100
0010
,  // measure 9
1010
1000
0001
0100
0101
0001
1001
0000
,  // measure 10
0110
0000
1000
0100
0010
0001
0000
0100
0010
0000
1000
0100
1000
0010
0100
0000
,  // measure 11
0001
1000
0010
0100
0011
0000
1100
0000
,  // measure 12
1000
0100
0010
0100
1000
0010
0001
0010
1000
0100
0010
0100
,  // measure 13
1000
0010
0001
0010
1000
0100
0001
0100
0010
0011
0000
0000
,  // measure 14
0001
0010
0100
0010
1000
0010
0100
0010
0001
1000
0100
0010
,  // measure 15
0001
0000
1000
0000
1001
0000
0000
0100
0010
0000
0100
0000
0110
0000
0000
0000
,  // measure 16
1000
0010
0100
0001
0010
0100
1000
0010
,  // measure 17
1000
0100
0010
0001
1000
0100
0110
0000
,  // measure 18
0001
0100
1000
0100
0001
1000
0100
0001
,  // measure 19
0100
0000
1000
0000
0010
0000
0100
0000
1000
0000
0100
0010
1000
0000
0100
0010
,  // measure 20
0001
1000
0100
0010
0100
0001
0100
1000
,  // measure 21
0010
0001
0010
0100
0010
1000
0100
0001
,  // measure 22
0100
1000
0001
0010
1000
0001
0100
1000
,  // measure 23
1001
1001
0100
0000
1001
1001
0010
0000
,  // measure 24
1000
0000
0010
0000
0100
0001
0010
0000
0001
0000
0010
0000
0100
1000
0010
0000
,  // measure 25
1000
0000
0010
0000
0100
0001
1000
0000
0001
0000
0010
0000
0100
1000
0001
0000
,  // measure 26
1000
0000
0010
0000
1000
0001
0100
0000
0001
0000
0010
0000
0001
0100
0010
0000
,  // measure 27
2000
0100
0100
0000
0001
0001
0001
3000
,  // measure 28
1000
0000
0100
0000
0010
0001
1000
0000
0001
0000
0100
0000
0010
1000
0001
0000
,  // measure 29
0010
0000
1000
0000
0010
0001
1000
0000
0010
0000
0100
0000
0001
0010
1000
0000
,  // measure 30
0010
0000
0100
0000
1000
0010
0100
0000
1000
0000
0100
0000
0010
1000
0100
0000
,  // measure 31
1000
0100
0010
0100
0001
0100
0010
0100
1000
0000
1001
0000
0010
0000
0000
0000
,  // measure 32
1000
0000
0010
0000
0100
0001
0010
0000
0100
0000
0010
0000
0001
1000
0010
0000
,  // measure 33
0100
0000
0010
0000
1000
0100
0010
0000
0001
0000
0010
0000
1000
0010
0001
0000
,  // measure 34
1000
0000
0001
0000
0100
1000
0100
0000
0001
0000
0010
0000
1000
0010
0001
0000
,  // measure 35
1000
0000
0100
0000
0010
0001
1000
0000
0001
0000
0010
0000
0100
0010
1000
0000
,  // measure 36
0010
0000
0001
0000
0100
0001
0010
0000
0100
0000
1000
0000
0001
1000
0100
0000
,  // measure 37
1000
0000
0010
0000
0100
0001
0010
0000
0100
0000
0010
0000
1000
0010
0100
0000
,  // measure 38
1000
0000
0010
0000
0100
0010
0001
0000
0010
0000
1000
0000
0001
0010
0100
0000
,  // measure 39
0110
0110
1000
0000
0110
0110
0001
0000
,  // measure 40
1000
0100
1100
0010
0100
0110
0001
0010
,  // measure 41
0011
1000
0010
1010
0100
0001
0101
0010
,  // measure 42
0100
0110
1000
0001
1001
0100
0001
0101
,  // measure 43
0010
0100
0110
1000
0010
1010
0110
0101
,  // measure 44
1001
0000
1000
0100
0001
0000
0100
1000
,  // measure 45
0010
0000
0000
0000
0000
0000
0100
0000
0000
1000
0000
0000
0100
0000
0010
0000
1000
0000
0100
0000
0000
0010
0000
0000
,  // measure 46
0001
0000
0100
0001
1000
0000
0100
0001
,  // measure 47
1000
0000
0000
0000
0010
0000
0001
0000
1000
0000
0010
0100
0010
0100
0001
0010
,  // measure 48
0100
0000
0010
0100
1000
0000
1000
0100
,  // measure 49
0001
0000
0000
0000
0000
0000
0100
0000
0000
0000
0000
0000
1000
0000
0001
0000
0100
0000
1000
0000
0000
0100
0000
0000
,  // measure 50
0001
0000
1000
0100
0001
0000
0100
0000
,  // measure 51
1001
1001
0010
0000
1001
1001
0100
0000
,  // measure 52
0100
0000
1000
0000
0010
0100
0001
0000
0010
0000
0100
0000
1000
0001
0100
0000
,  // measure 53
0010
0000
1000
0000
0001
0010
0100
0000
1000
0000
0001
0000
0100
0001
1000
0000
,  // measure 54
0100
0000
1000
0000
0010
0100
0001
0000
0010
0000
0100
0000
0010
1000
0010
0000
,  // measure 55
0001
0000
1000
0000
0010
0100
0001
0000
0101
0000
1000
0000
1100
0000
0000
0000
,  // measure 56
1000
0000
0010
0000
0100
0001
0010
0000
1000
0000
0010
0000
0100
1000
0010
0000
,  // measure 57
0100
0000
0001
0000
0100
0010
0001
0000
0010
0000
1000
0000
0100
1000
0010
0000
,  // measure 58
0100
0000
0001
0000
1000
0100
0010
0000
0001
0000
1000
0000
0100
1000
0001
0000
,  // measure 59
1000
0100
0010
0001
0100
0001
1000
0010
1000
0000
0001
0000
0010
0000
0000
0000
,  // measure 60
0110
0000
0010
0000
0001
1000
0010
0000
1000
0000
0010
0000
0100
0010
1000
0000
,  // measure 61
0100
0000
1000
0000
0010
0100
0001
0000
0010
0000
0001
0000
1000
0001
0100
0000
,  // measure 62
0101
0000
1000
0000
0100
1000
0010
0000
0100
0000
1000
0000
0100
0010
1000
0000
,  // measure 63
0100
0000
0010
0000
1000
0010
0001
0000
0010
0000
0001
0000
1000
0100
0001
0000
,  // measure 64
1001
0000
0100
0000
0001
1000
0010
0000
1000
0000
0100
0000
0100
0010
0001
0000
,  // measure 65
1000
0000
0010
0000
0100
0010
1000
0000
0100
0000
1000
0000
0100
1000
0001
0000
,  // measure 66
1000
0000
0010
0000
0001
0010
0100
0000
0001
0000
0010
0000
0010
0100
1000
0000
,  // measure 67
1100
0000
1001
0000
0010
0000
0000
0000
0101
0000
1001
0000
0100
0010
0100
0010
,  // measure 68
1000
0100
0010
0001
1000
0000
1000
0100
0010
0001
1000
0000
1000
0100
0010
0001
,  // measure 69
1000
0000
1000
0100
0010
0001
1000
0000
1000
0100
0010
0001
1000
0000
0001
0000
,  // measure 70
0001
0010
0100
1000
0001
0000
0001
0010
0100
1000
0001
0000
0001
0010
0100
1000
,  // measure 71
0001
0000
0001
0010
0100
1000
0001
0000
0001
0010
0100
1000
0001
0000
0010
0100
,  // measure 72
1000
0010
0100
0010
1000
0000
1000
0010
0100
0010
1000
0000
1000
0010
0100
0010
,  // measure 73
1000
0000
1000
0010
0100
0010
1000
0000
1000
0010
0100
0010
1000
0000
0001
0000
,  // measure 74
0001
0100
0010
0100
0001
0000
0001
0100
0010
0100
0001
0000
0001
0100
0010
0100
,  // measure 75
0001
0000
0001
0100
0010
0100
0001
0000
0001
0100
0010
0100
0001
0000
0000
0000
,  // measure 76
0001
0000
1000
0000
0010
0100
0010
0000
1000
0000
0001
0000
0010
0100
0010
0000
,  // measure 77
0001
0000
0100
0000
0010
0100
0010
0000
1000
0000
0001
0000
1000
0100
1000
0000
,  // measure 78
0001
0000
0010
0000
1000
0010
0100
0000
1000
0000
0010
0000
0100
0001
0010
0000
,  // measure 79
0001
0000
0010
0000
0100
1000
0001
0000
1000
0000
0001
0000
0100
0010
1000
0000
,  // measure 80
0001
0000
0010
0000
1000
0010
0001
0000
0100
0000
1000
0000
0100
0001
0010
0000
,  // measure 81
1000
0000
0010
0000
0100
1000
0010
0000
0100
0000
1000
0000
0100
0010
1000
0000
,  // measure 82
0100
0000
0010
0000
0100
0001
0100
0000
0010
0000
0001
0000
0100
0010
1000
0000
,  // measure 83
0001
0000
0010
0000
0100
0010
0000
0100
1000
0000
0001
0000
1000
0010
0001
0010
,  // measure 84
2000
0000
0000
0000
,  // measure 85
3000
0000
0000
0000
;
