#TITLE:Overworld Theme;
#SUBTITLE:Super Mario Bros.;
#ARTIST:近藤浩治;
#TITLETRANSLIT:;
#SUBTITLETRANSLIT:;
#ARTISTTRANSLIT:Koji Kondo;
#GENRE:;
#CREDIT:;
#BANNER:bn.png;
#BACKGROUND:bg.png;
#LYRICSPATH:;
#CDTITLE:;
#MUSIC:Overworld Theme.ogg;
#OFFSET:-1.048001;
#SAMPLESTART:3.444000;
#SAMPLELENGTH:20.000000;
#SELECTABLE:YES;
#BPMS:0.000000=100.160004
;
#STOPS:
;
#BGCHANGES:;
#KEYSOUNDS:;
#ATTACKS:;

//---------------dance-single - ----------------
#NOTES:
     dance-single:
     :
     Challenge:
     12:
     0.616737,0.597190,0.582866,0.000000,1.002727,437.000000,378.000000,59.000000,0.000000,0.000000,0.000000,0.616737,0.597190,0.582866,0.000000,1.002727,437.000000,378.000000,59.000000,0.000000,0.000000,0.000000:
// measure 0
0000
0000
0000
0000
,  // measure 1
1001
0000
0000
1000
0000
0000
0100
0000
0000
0010
0000
0001
0000
0010
0100
0000
,  // measure 2
1000
0000
0000
0000
0010
0000
0000
0000
1000
0000
0000
0000
0010
0000
0000
0000
0000
0000
0100
0000
0000
0010
0000
0000
0000
0000
0000
0100
0000
0000
0000
0000
0000
0001
0000
0000
0010
0000
0000
0001
0000
0000
0000
0000
0000
0000
0000
0000
,  // measure 3
0110
0000
0000
0100
0000
0000
1000
0000
0000
0010
0000
0100
0000
0001
0010
0000
,  // measure 4
0100
0000
0000
0000
0010
0000
0000
0000
1000
0000
0000
0000
0010
0000
0000
0000
0000
0000
0100
0000
0000
0010
0000
0000
0000
0000
0000
0001
0000
0000
0000
0000
0000
0100
0000
0000
0001
0000
0000
1000
0000
0000
0000
0000
0000
0000
0000
0000
,  // measure 5
0110
0000
1000
0001
0010
0100
0000
0010
0000
0100
0010
0001
0000
0001
0010
0100
,  // measure 6
0000
0000
1000
0010
0100
0010
0000
1000
0000
0011
0000
0010
0011
0000
0010
0000
,  // measure 7
0100
0000
1000
0010
0100
0010
0000
1000
0000
0100
0010
0001
0000
0001
0100
1000
,  // measure 8
0000
0000
1010
0000
0000
0110
0000
0000
0101
0000
0000
0010
0001
0000
0010
0000
,  // measure 9
0100
0000
1000
0010
0100
0010
0000
1000
0000
0001
0010
0100
0000
0001
0100
1000
,  // measure 10
0000
0000
1000
0100
0010
0100
0000
1000
0000
1010
0000
0100
0110
0000
0100
0000
,  // measure 11
0001
0000
0010
0100
1000
0010
0000
0100
0000
1000
0100
0001
0000
1000
0100
0001
,  // measure 12
0000
0000
1100
0000
0000
0110
0000
0000
0011
0000
0000
0010
0001
0000
0100
0000
,  // measure 13
1001
0001
0000
0110
0000
1000
0100
0000
0110
0010
0000
0001
0101
0000
0010
0000
,  // measure 14
1010
1000
0000
1100
0000
0010
0100
0010
0011
0000
0000
0101
0000
0010
1010
0000
,  // measure 15
1010
1000
0000
0110
0000
0010
0001
0000
0101
0100
0000
0010
1010
0000
0100
0000
,  // measure 16
1100
1000
0000
0101
0000
1000
0001
0000
0110
0000
0000
0000
0011
0001
0001
0001
,  // measure 17
1100
0000
0000
1010
0000
0000
0110
0000
0000
0100
0000
0001
0000
0010
0100
0000
,  // measure 18
1000
0000
0000
0000
0010
0000
0000
0000
0100
0000
0000
0000
0001
0000
0000
0000
0000
0000
1000
0000
0000
0100
0000
0000
0000
0000
0000
0001
0000
0000
0000
0000
0000
0100
0000
0000
1000
0000
0000
0100
0000
0000
0000
0000
0000
0000
0000
0000
,  // measure 19
0101
0000
0000
0110
0000
0000
1100
0000
0000
1000
0000
0100
0000
0001
1000
0000
,  // measure 20
0100
0000
0000
0000
0010
0000
0000
0000
0001
0000
0000
0000
0100
0000
0000
0000
0000
0000
0010
0000
0000
1000
0000
0000
0000
0000
0000
0001
0000
0000
0000
0000
0000
0001
0000
0000
0100
0000
0000
0010
0000
0000
0000
0000
0000
0000
0000
0000
,  // measure 21
0110
0010
0000
0100
1000
0000
1000
0000
0100
0010
0000
1000
0010
1000
0010
0000
,  // measure 22
1000
0000
0000
0000
0001
0000
0000
0000
0001
0000
0000
0000
0001
0000
0000
0000
0010
0000
0000
0000
0010
0000
0000
0000
0001
0000
0000
1000
0000
0000
0000
0000
0000
0010
0000
0000
1000
0000
0000
0010
0000
0000
0100
0000
0000
0000
0000
0000
,  // measure 23
0001
0100
0000
0010
1000
0000
1000
0000
0100
0010
0000
0010
0001
1000
0100
0000
,  // measure 24
0010
0000
0000
0001
0000
0000
0000
0000
0000
0001
0000
0000
0010
0000
0000
0000
0100
0000
0000
0000
0010
0000
0000
0000
0100
0000
0000
1000
0000
0000
0000
0000
0000
1000
0000
0000
0010
0000
0000
0000
0000
0000
0100
0000
0000
0000
0000
0000
,  // measure 25
0010
1000
0000
1000
0100
0000
0100
0000
0100
0010
0000
0010
0001
1000
0010
0000
,  // measure 26
1000
0000
0000
0000
0010
0000
0000
0000
0010
0000
0000
0000
0010
0000
0000
0000
1000
0000
0000
0000
1000
0000
0000
0000
1000
0000
0000
0100
0000
0000
0000
0000
0000
0100
0000
0000
0010
0000
0000
0001
0000
0000
0010
0000
0000
0000
0000
0000
,  // measure 27
0010
0001
0000
0100
1000
0000
0100
0000
0001
0010
0000
0010
0100
1000
0010
0000
,  // measure 28
1000
0000
0000
0010
0000
0000
0000
0000
0000
0010
0000
0000
0100
0000
0000
0000
0100
0000
0000
0000
0001
0000
0000
0000
0010
0000
0000
0001
0000
0000
0000
0000
0000
0010
0000
0000
0100
0000
0000
0000
0000
0000
0100
0000
0000
0000
0000
0000
,  // measure 29
1010
1000
0000
1100
0000
1000
0010
0000
0101
0100
0000
0001
0011
0000
1000
0000
,  // measure 30
0110
0010
0000
1100
0000
1000
0010
1000
0110
0000
0000
0110
0000
0100
0101
0000
,  // measure 31
1001
1000
0000
1100
0000
1000
0010
0000
0110
0100
0000
0001
0011
0000
0100
0000
,  // measure 32
1010
1000
0000
1100
0000
1000
0010
0000
0110
0000
0000
0000
1001
0001
0001
0001
,  // measure 33
0110
0010
0000
0101
0010
0000
1010
0000
1000
0100
0000
0010
0100
0010
0001
0000
,  // measure 34
0010
0000
0000
0000
0001
0000
0000
0000
0001
0000
0000
0000
0001
0000
0000
0000
0010
0000
0000
0000
0010
0000
0000
0000
0010
0000
0000
0100
0000
0000
0000
0000
0000
0100
0000
0000
1000
0000
0000
0010
0000
0000
0100
0000
0000
0000
0000
0000
,  // measure 35
0010
1000
0000
0010
0100
0000
0100
0000
0001
1000
0000
1000
0100
0010
0001
0000
,  // measure 36
0001
0000
0000
0100
0000
0000
0000
0000
0000
1000
0000
0000
0100
0000
0000
0000
0001
0000
0000
0000
1000
0000
0000
0000
0100
0000
0000
0001
0000
0000
0000
0000
0000
0100
0000
0000
1000
0000
0000
0000
0000
0000
0000
0000
0000
0000
0000
0000
,  // measure 37
1001
0000
0000
0010
0000
0000
0100
0000
0000
0010
0000
0001
0000
1000
0010
0000
,  // measure 38
0100
0000
0000
0000
0010
0000
0000
0000
1000
0000
0000
0000
0100
0000
0000
0000
0000
0000
0010
0000
0000
0001
0000
0000
0000
0000
0000
0100
0000
0000
0000
0000
0000
0010
0000
0000
1000
0000
0000
0001
0000
0000
0000
0000
0000
0000
0000
0000
,  // measure 39
1001
0000
0000
0000
;

//---------------dance-single - ----------------
#NOTES:
     dance-single:
     :
     Hard:
     10:
     0.479841,0.423813,0.148186,0.000000,0.913815,340.000000,325.000000,15.000000,0.000000,0.000000,0.000000,0.479841,0.423813,0.148186,0.000000,0.913815,340.000000,325.000000,15.000000,0.000000,0.000000,0.000000:
0000
0000
0000
0000
,
1001
0000
0000
0010
0000
0000
0100
0000
0000
1000
0000
0010
0000
0100
0010
0000
,
1000
0000
0000
0000
0100
0000
0000
0000
0010
0000
0000
0000
0001
0000
0000
0000
0000
0000
0100
0000
0000
0001
0000
0000
0000
0000
0000
1000
0000
0000
0000
0000
0000
0010
0000
0000
0100
0000
0000
0010
0000
0000
0000
0000
0000
0000
0000
0000
,
1010
0000
0000
1000
0000
0000
0100
0000
0000
0010
0000
0001
0000
1000
0010
0000
,
0100
0000
0000
0000
0001
0000
0000
0000
0010
0000
0000
0000
0100
0000
0000
0000
0000
0000
1000
0000
0000
0010
0000
0000
0000
0000
0000
1000
0000
0000
0000
0000
0000
0010
0000
0000
0100
0000
0000
0010
0000
0000
0000
0000
0000
0000
0000
0000
,
0000
0000
0001
0010
0100
1000
0000
0100
0000
1000
0100
0010
0000
0100
0010
0001
,
0000
0000
0001
0100
0010
1000
0000
1010
0000
1000
0000
1000
1000
0000
0000
0000
,
0000
0000
1000
0010
0100
0001
0000
0010
0000
0001
0010
0100
0000
0010
0100
1000
,
0000
0000
1001
0000
0000
0101
0000
0000
0110
0000
0000
0000
0000
0000
0000
0000
,
0000
0000
1000
0010
0100
0001
0000
0010
0000
0001
0010
0100
0000
0010
0100
1000
,
0000
0000
1000
0010
0100
0010
0000
0100
0000
0101
0000
0100
0001
0000
0000
0000
,
0000
0000
0001
0010
0100
1000
0000
1000
0000
0010
0100
0010
0000
1000
0100
1000
,
0000
0000
1010
0000
0000
1100
0000
0000
0011
0000
0000
0100
0001
0000
1000
0000
,
0100
0010
0000
0001
0000
1000
0010
0000
1000
0010
0000
0100
0010
0000
0000
0000
,
1000
0001
0000
0010
0000
0001
0010
0100
0000
0000
0000
0000
0000
0000
0000
0000
,
1000
0100
0000
0100
0000
0010
0100
0000
0010
0001
0000
0100
0001
0000
0000
0000
,
1000
0100
0000
0010
0000
0001
0100
0000
0001
0000
0000
0000
1001
0000
0000
0000
,
1000
0000
0000
0010
0000
0000
0100
0000
0000
0001
0000
1000
0000
0010
0100
0000
,
0001
0000
0000
0000
0010
0000
0000
0000
0100
0000
0000
0000
1000
0000
0000
0000
0000
0000
0010
0000
0000
1000
0000
0000
0000
0000
0000
0010
0000
0000
0000
0000
0000
0100
0000
0000
0010
0000
0000
1000
0000
0000
0000
0000
0000
0000
0000
0000
,
1100
0000
0000
1000
0000
0000
0100
0000
0000
0010
0000
0001
0000
1000
0001
0000
,
0100
0000
0000
0000
0010
0000
0000
0000
1000
0000
0000
0000
0010
0000
0000
0000
0000
0000
1000
0000
0000
0001
0000
0000
0000
0000
0000
0010
0000
0000
0000
0000
0000
0001
0000
0000
0010
0000
0000
0001
0000
0000
0000
0000
0000
0000
0000
0000
,
0010
0001
0000
0010
0000
0000
0100
0000
0010
0100
0000
1000
0100
0000
0000
0000
,
1000
0000
0000
0000
0100
0000
0000
0000
1000
0000
0000
0000
0100
0000
0000
0000
0010
0000
0000
0000
0100
0000
0000
0000
0010
0000
0000
0001
0000
0000
0000
0000
0000
0001
0000
0000
0010
0000
0000
0000
0000
0000
0000
0000
0000
0000
0000
0000
,
0001
0010
0000
0010
0000
0000
0100
0000
0100
1000
0000
1000
0010
0000
0000
0000
,
0100
0000
0000
0010
0000
0000
0000
0000
0000
1000
0000
0000
0001
0000
0000
0000
0010
0000
0000
0000
0100
0000
0000
0000
1000
0000
0000
0001
0000
0000
0000
0000
0000
0010
0000
0000
0001
0000
0000
0000
0000
0000
0000
0000
0000
0000
0000
0000
,
1000
0010
0000
1000
0000
0000
0100
0000
1000
0010
0000
0100
0001
0000
0000
0000
,
0010
0000
0000
0000
0100
0000
0000
0000
0010
0000
0000
0000
0100
0000
0000
0000
1000
0000
0000
0000
0001
0000
0000
0000
0100
0000
0000
0001
0000
0000
0000
0000
0000
1000
0000
0000
0010
0000
0000
0000
0000
0000
0000
0000
0000
0000
0000
0000
,
0100
0010
0000
1000
0000
0000
0100
0000
0010
0001
0000
1000
0001
0000
0000
0000
,
0100
0000
0000
0001
0000
0000
0000
0000
0000
0001
0000
0000
0010
0000
0000
0000
0100
0000
0000
0000
0010
0000
0000
0000
0001
0000
0000
0010
0000
0000
0000
0000
0000
0100
0000
0000
0010
0000
0000
0000
0000
0000
0000
0000
0000
0000
0000
0000
,
0001
1000
0000
0001
0000
0010
0100
0000
1000
0001
0000
0100
0001
0000
0000
0000
,
1000
0100
0000
0100
0000
0010
0100
0010
0000
0000
0000
0000
0000
0000
0000
0000
,
0010
0001
0000
0001
0000
1000
0010
0000
1000
0010
0000
0100
0010
0000
0000
0000
,
0100
0001
0000
0010
0000
0100
1000
0000
0001
0000
0000
0000
1001
0000
0000
0000
,
1000
0100
0000
0100
0000
0000
0010
0000
0001
0100
0000
0100
0001
0000
0000
0000
,
1000
0000
0000
0000
0100
0000
0000
0000
1000
0000
0000
0000
0100
0000
0000
0000
0010
0000
0000
0000
0001
0000
0000
0000
0100
0000
0000
0010
0000
0000
0000
0000
0000
1000
0000
0000
0010
0000
0000
0000
0000
0000
0000
0000
0000
0000
0000
0000
,
1000
0010
0000
0100
0000
0000
0001
0000
0010
0100
0000
0010
0001
0000
0000
0000
,
0100
0000
0000
0001
0000
0000
0000
0000
0000
1000
0000
0000
0010
0000
0000
0000
0100
0000
0000
0000
0010
0000
0000
0000
0100
0000
0000
0001
0000
0000
0000
0000
0000
0010
0000
0000
0100
0000
0000
0000
0000
0000
0000
0000
0000
0000
0000
0000
,
1001
0000
0000
1000
0000
0000
0001
0000
0000
0100
0000
0001
0000
0010
0100
0000
,
1000
0000
0000
0000
0010
0000
0000
0000
0100
0000
0000
0000
0001
0000
0000
0000
0000
0000
0010
0000
0000
0100
0000
0000
0000
0000
0000
1000
0000
0000
0000
0000
0000
0100
0000
0000
0010
0000
0000
0001
0000
0000
0000
0000
0000
0000
0000
0000
,
1001
0000
0000
0000
;

//---------------dance-single - ----------------
#NOTES:
     dance-single:
     :
     Medium:
     8:
     0.283671,0.308227,0.108670,0.000000,0.227219,201.000000,190.000000,11.000000,0.000000,0.000000,0.000000,0.283671,0.308227,0.108670,0.000000,0.227219,201.000000,190.000000,11.000000,0.000000,0.000000,0.000000:
0000
0000
0000
0000
,
1001
0000
0000
1000
0000
0000
0001
0000
0000
1000
0000
0010
0000
0000
1000
0000
,
0001
0000
0000
0000
0110
0000
0000
0100
0000
0010
0000
0000
0110
0000
0000
0000
,
0101
0000
0000
0100
0000
0000
0010
0000
0000
0001
0000
1000
0000
0000
1000
0000
,
0100
0000
0000
0000
0010
0000
0000
0100
0000
0010
0000
0000
0001
0000
0000
0000
,
0000
0000
0010
0000
0001
0000
0000
0010
0000
0000
0000
0001
0000
0000
0010
0000
,
0000
0000
0100
0000
1000
0000
0000
1000
0000
0010
0000
0000
0010
0000
0000
0000
,
0000
0000
1000
0000
0100
0000
0000
0100
0000
0000
0000
0010
0000
0000
0010
0000
,
0000
0000
1001
0000
0000
0100
0000
0000
0010
0000
0000
0000
0000
0000
0000
0000
,
0000
0000
0001
0000
0010
0000
0000
0100
0000
0000
0000
0010
0000
0000
0001
0000
,
0000
0000
1000
0000
0010
0000
0000
0010
0000
1000
0000
0000
1000
0000
0000
0000
,
0000
0000
1000
0000
0001
0000
0000
0001
0000
0000
0000
0010
0000
0000
0010
0000
,
0000
0000
0110
0000
0000
1000
0000
0000
1001
0000
0000
0000
0000
0000
0000
0000
,
0100
0000
0000
0100
0000
0000
0010
0000
0010
0000
0000
0000
1000
0000
0000
0000
,
1000
0000
0000
0001
0000
0000
0001
0000
0010
0000
0000
0100
0000
0000
1000
0000
,
0100
0000
0000
1000
0000
0000
0001
0000
0100
0000
0000
0000
0001
0000
0000
0000
,
0010
0000
0000
0100
0000
0000
1000
0000
0001
0000
0000
0000
1010
0000
0000
0000
,
1000
0000
0000
0100
0000
0000
0010
0000
0000
0000
0000
0001
0000
0000
1000
0000
,
0010
0000
0000
0000
1000
0000
0000
0100
0000
0000
0000
0000
0010
0000
0000
0000
,
0001
0000
0000
1000
0000
0000
0010
0000
0000
0000
0000
0100
0000
0000
0010
0000
,
1000
0000
0000
0000
0100
0000
0000
0010
0000
0000
0000
0000
0100
0000
0000
0000
,
1000
0000
0000
0001
0000
0000
0100
0000
0001
0000
0000
0000
0010
0000
0000
0000
,
0010
0000
0001
0000
1000
0010
1000
0000
,
1000
0000
0100
0000
0010
0001
1000
0000
,
0010
0000
1000
0000
0100
0010
0001
0000
,
0100
0000
0001
0000
1000
0000
0010
1000
,
0100
0000
1000
0000
0001
0010
0001
0000
,
0010
0000
0100
0000
1000
0001
1000
0000
,
0010
0000
1000
0000
0100
0010
0001
0000
,
1000
0000
0000
0100
0000
0000
1000
0000
0001
0000
0000
0100
0000
0000
0001
0000
,
0010
0000
0000
0001
0000
0000
1000
0000
0010
0000
0000
1000
0000
0000
0100
0000
,
0010
0000
0000
0001
0000
0000
0100
0000
0010
0000
0000
1000
0000
0000
0100
0000
,
0010
0000
0000
0001
0000
0000
1000
0000
0001
0000
0000
0000
1001
0000
0000
0000
,
1000
0000
0010
0000
0100
0001
0010
0000
,
0010
0000
0100
0000
1000
0010
1000
0000
,
1000
0000
0010
0000
0100
0001
1000
0000
,
0010
0000
1000
0000
0100
0010
0001
0000
,
1001
0000
0000
0100
0000
0000
0010
0000
0000
0000
0000
0001
0000
0000
0010
0000
,
0100
0000
0000
0000
1000
0000
0000
0010
0000
0000
0000
0000
0010
0000
0000
0000
,
1001
0000
0000
0000
;

//---------------dance-single - ----------------
#NOTES:
     dance-single:
     :
     Easy:
     4:
     0.215928,0.211906,0.069154,0.000000,0.000000,153.000000,146.000000,7.000000,0.000000,0.000000,0.000000,0.215928,0.211906,0.069154,0.000000,0.000000,153.000000,146.000000,7.000000,0.000000,0.000000,0.000000:
0000
0000
0000
0000
,
1000
0100
0010
0001
,
1000
0100
0010
0001
,
0010
0100
1000
0001
,
0010
0100
1000
0001
,
0000
1000
0100
0010
,
0001
1000
0010
0100
,
0001
0010
0100
1000
,
0010
1000
0001
1000
,
0001
0010
0100
1000
,
0001
0100
0010
1000
,
0100
0010
0001
1000
,
0001
0000
0000
0000
,
1000
0100
0010
0001
,
1000
0010
0100
0000
,
0001
0010
0100
1000
,
0010
1000
0001
1001
,
1000
0100
0010
0001
,
1000
0010
0100
0001
,
0010
0100
1000
0010
,
1000
0001
0010
0001
,
1001
1000
0100
0010
,
0001
0000
0001
0010
,
0100
0010
0100
1000
,
0001
0100
0010
1000
,
0110
0010
0001
0010
,
0100
0000
0100
0010
,
0001
1000
0100
0010
,
0001
1000
0010
0100
,
1001
1000
0100
1000
,
0001
0100
0001
0010
,
0001
0100
0001
1000
,
0010
1000
0100
0110
,
0010
0001
1000
0010
,
1000
0001
0100
0001
,
0010
0100
1000
0010
,
1000
0001
0010
0100
,
0110
0010
0001
0010
,
0100
1000
0100
0010
,
0101
0000
0000
0000
;

//---------------dance-single - ----------------
#NOTES:
     dance-single:
     :
     Beginner:
     1:
     0.110081,0.115585,0.138307,0.000000,0.000000,78.000000,64.000000,14.000000,0.000000,0.000000,0.000000,0.110081,0.115585,0.138307,0.000000,0.000000,78.000000,64.000000,14.000000,0.000000,0.000000,0.000000:
0000
0000
0000
0000
,
1000
0000
0001
0000
,
1000
0000
0010
0000
,
1000
0000
0001
0000
,
0010
0000
0001
0000
,
1000
0000
0010
0000
,
1000
0000
0001
0000
,
0000
1000
0000
0001
,
0000
0010
0000
0000
,
0100
0000
1000
0000
,
0100
0000
0010
0000
,
0001
0000
1000
0000
,
0010
0000
0100
0000
,
1001
0000
0000
0000
,
1001
0000
0000
0000
,
0110
0000
0000
0000
,
0110
0000
0000
1001
,
0000
0000
0100
0000
,
0010
0000
0001
0000
,
0010
0000
0100
0000
,
1000
0000
0001
0000
,
0010
0000
0000
0000
,
1001
0000
0000
0000
,
1100
0000
0000
0000
,
0011
0000
0000
0000
,
0110
0000
0000
0000
,
1100
0000
0000
0000
,
0011
0000
0000
0000
,
0110
0000
0000
0000
,
1000
0000
0001
0000
,
0100
0000
0010
0000
,
1000
0000
0010
0000
,
0100
0000
0001
0000
,
1001
0000
0100
0000
,
0010
0000
0100
0000
,
1000
0000
0001
0000
,
0010
0000
0100
0000
,
0010
0000
0001
0000
,
1000
0000
0010
0000
,
1001
0000
0000
0000
;
