#TITLE:Stickerbush Symphony;
#SUBTITLE:Donkey Kong Country 2;
#ARTIST:David Wise;
#TITLETRANSLIT:;
#SUBTITLETRANSLIT:;
#ARTISTTRANSLIT:;
#GENRE:;
#CREDIT:;
#BANNER:bn.png;
#BACKGROUND:bg.png;
#LYRICSPATH:;
#CDTITLE:;
#MUSIC:Stickerbush Symphony.ogg;
#OFFSET:-0.026000;
#SAMPLESTART:19.641001;
#SAMPLELENGTH:30.000000;
#SELECTABLE:YES;
#BPMS:0.000000=98.440002
;
#STOPS:
;
#BGCHANGES:;
#KEYSOUNDS:;
#ATTACKS:;

//---------------dance-single - ----------------
#NOTES:
     dance-single:
     :
     Challenge:
     14:
     0.713250,0.647296,0.234153,0.370113,1.099009,661.000000,630.000000,31.000000,49.000000,0.000000,0.000000,0.713250,0.647296,0.234153,0.370113,1.099009,661.000000,630.000000,31.000000,49.000000,0.000000,0.000000:
0000
0000
0000
0000
,
0000
0000
0000
0000
,
0000
0000
0100
0000
0010
0000
0000
0100
0000
0000
0010
0000
1000
0000
0000
0000
,
0000
0000
0100
0000
0010
0000
0000
0100
0000
0000
0010
0000
0001
0000
1000
1000
,
0000
1000
0100
0000
1000
0000
0010
0100
0000
0001
0000
0010
0001
0000
0100
0010
,
0000
1000
0010
0000
0100
0000
0001
1000
0000
0100
0000
0001
0100
0000
1000
0010
,
0000
0100
0001
0000
0100
0000
0010
0100
0000
1000
0000
0100
0010
0000
0100
0001
,
0000
0010
0100
0000
0010
0000
1000
0010
0000
0100
0000
0010
0001
0000
0100
0001
,
0000
0100
0001
0100
0010
1000
0100
1000
0100
0010
0100
0010
0001
1000
0001
1000
,
0000
0010
0100
0010
0100
0001
1000
0100
1000
0001
0010
0001
1000
0100
1000
0010
,
0000
0100
0001
0010
0001
1000
0100
1000
0010
1000
0100
1000
0001
0100
0001
1000
,
0000
0100
1000
0010
0100
0001
0100
0010
0000
1000
0100
0010
0001
0100
0001
1000
,
0000
0100
1000
0100
0010
0100
0001
0100
1000
0010
0100
0010
0001
0010
0100
0010
,
0000
0100
0010
1000
0100
1000
0001
0010
0100
1000
0001
0100
0010
0100
1000
0100
,
0000
0010
1000
0100
0010
0100
1000
0001
0010
0100
0001
0100
0010
0001
1000
0001
,
0000
0100
0010
1000
0100
1000
0001
0010
0000
0001
0100
0001
1000
0010
1000
0100
,
0000
0100
1000
0010
0100
0001
0010
0100
1000
0001
0100
0010
1000
0010
0200
0301
,
0020
0031
0100
0001
1000
0010
1000
0100
1000
0001
0100
0010
1000
0100
2000
3010
,
2000
3100
0010
0001
0010
0100
1000
0100
0020
0031
1000
0200
0301
0100
2000
3100
,
0002
1003
0010
0001
0100
0001
0200
0302
2003
3010
0100
2000
3100
0010
0200
0310
,
0002
0013
1000
0100
1000
0001
0010
0100
1000
0001
0200
0301
1000
0010
2000
3100
,
0002
1003
0020
0031
1000
0100
0002
0103
2000
3100
0001
0100
0010
1000
0020
0031
,
2000
3100
0010
0001
1000
0001
0100
0010
2000
3100
1000
0002
0103
0001
2000
3100
,
0020
1030
0010
0100
0002
0103
2000
3001
0000
0100
0002
1003
0100
0001
0200
1300
,
0200
0310
1000
0010
1000
0010
0100
0010
0200
0301
0100
0002
1003
0010
2000
3010
,
0002
0103
0010
0100
0010
0001
0010
0100
2000
3100
0010
2000
3010
0100
0020
1030
,
0002
1003
0010
0100
0001
0100
0020
1030
0200
1300
0001
0200
0301
1000
0200
1300
,
0002
0103
1000
0100
2000
3100
0002
0013
0100
0001
0200
0310
0002
1003
0100
0010
,
0002
0103
0001
0000
0101
0000
0010
1000
0000
1000
0010
0000
1010
0010
0100
0000
,
0001
0010
0100
0000
1001
0000
0100
0001
0000
1000
0010
0000
1100
0100
0010
0000
,
0100
0010
0001
0000
1001
0000
1000
0010
0000
0100
0010
0000
1010
0010
1000
0000
,
0001
0010
0001
0000
0110
0000
1000
0010
0000
0100
0010
0000
1001
0001
0010
0000
,
1000
0100
1000
0000
0110
0000
0100
0010
0000
1000
0000
0100
1100
0000
0001
0100
,
0000
0001
0010
0000
0110
0000
0010
1000
0000
0010
0000
0100
1100
0000
0010
0100
,
0000
0001
0100
0000
1010
0000
1000
0001
0000
0010
0000
0001
0011
0000
0100
0010
,
0000
1000
0010
0000
0110
0000
1000
0010
0000
0100
0000
1000
1100
0000
0001
1000
,
0000
0100
1000
0001
0010
0100
1000
0001
0100
0000
0010
0000
1010
0000
0100
0001
,
0000
1000
0100
0000
0110
0000
0010
0001
0000
0100
0001
0000
1100
0000
1000
0010
,
0000
1000
0001
0000
0101
0000
0010
0100
1000
0000
0010
0000
0110
0000
1000
0000
,
0100
0000
1000
0000
0100
0000
0010
0100
0010
0000
0001
0000
0101
0000
1000
0000
,
1100
0000
0100
0000
0010
0000
0100
0010
0000
0100
0110
0000
0010
0000
1000
0000
,
0100
0010
0001
0000
0101
1000
0001
1000
0000
0100
1000
0010
1000
0010
0100
0001
,
0000
0100
0001
0010
0100
0000
1000
0010
0100
0000
0010
1000
0000
0010
1000
0000
,
1010
0000
0100
0001
0010
0000
0100
0010
0001
0000
0100
0001
1000
0100
1000
0010
,
0000
1000
0010
0100
0001
0000
1000
0100
1000
0000
0100
0010
0000
0010
0100
0000
,
1100
0000
1000
0001
0100
0001
0010
0000
0110
0000
0010
0001
0000
0100
0001
0000
,
1010
0000
1000
0010
0100
0010
1000
0000
1010
0000
1000
0010
0000
0100
0001
0000
,
0101
0000
0010
0001
0010
0000
0100
0010
0000
0100
1000
0000
1000
0010
0100
0010
,
0100
0001
0010
0000
0100
0010
0001
0100
0010
1000
0001
0000
0100
0010
1000
0000
,
0100
1000
0001
0000
0100
0001
0010
0001
0000
1000
0010
1000
0010
0100
0010
0000
,
1000
0001
0010
0000
0100
0010
0001
1000
0001
1000
0010
0000
0100
0010
1000
0000
,
0100
1000
0010
0000
0100
0010
1000
0100
0000
0010
0100
0010
0001
1000
0001
0001
;

//---------------dance-single - ----------------
#NOTES:
     dance-single:
     :
     Hard:
     9:
     0.416512,0.411916,0.045320,0.030213,0.373890,386.000000,380.000000,6.000000,4.000000,0.000000,0.000000,0.416512,0.411916,0.045320,0.030213,0.373890,386.000000,380.000000,6.000000,4.000000,0.000000,0.000000:
0000
0000
0000
0000
,
0000
0000
0000
0000
,
0000
0000
0000
0000
,
0000
0000
0000
0000
,
0000
1000
0010
0000
1000
0000
0001
1000
0000
0001
0000
0100
0001
0000
1000
0001
,
0000
1000
0100
0000
1000
0000
0010
1000
0000
0010
0000
0100
0010
0000
0100
0001
,
0000
0001
0010
0000
0001
0000
0001
1000
0000
0001
0000
0010
0001
0000
0001
1000
,
0000
0001
0100
0000
0001
0000
1000
0001
0000
0010
0000
0001
1000
0000
0001
0100
,
0000
0100
0001
0000
1000
0000
1000
0100
0000
0010
0001
0000
1000
0000
0100
0000
,
0010
0001
1000
0010
0001
0010
1000
0000
,
0000
0000
0100
0000
0010
0000
0000
0100
0000
0000
0100
0000
0010
0000
0001
0000
,
1000
0000
0010
0000
0100
0000
0000
0010
0000
0000
0010
0000
1000
0000
0010
1000
,
0000
0000
0100
0000
0010
0000
0000
0001
0000
0000
1000
0000
0100
0000
1000
0000
,
0010
1000
0100
0010
0001
1000
0010
0100
,
0000
0100
0010
1010
0100
0001
0010
0011
,
0010
0000
0100
0000
1000
0000
0010
1000
0000
1000
0100
0000
0010
0000
0001
0010
,
0000
0010
0001
0000
0010
0000
0100
1000
0000
1000
0010
0000
0100
0000
0010
0000
,
1000
0000
0100
0000
0010
0000
0001
1000
0000
1000
0010
0000
0100
0000
0010
0000
,
0010
0000
0000
0000
0000
0000
1000
0000
0000
0000
0000
0000
0100
0000
0000
0000
0000
0000
0010
0000
0000
0000
0000
0000
0200
0000
0000
0000
0000
0000
0000
0000
0020
0300
0000
0000
0000
0000
0000
0000
0002
0000
0030
0000
0000
0000
0000
0000
,
2003
0000
0000
0000
0000
0000
3010
0100
0001
0000
0000
0100
0000
0000
0010
0000
,
1000
0000
0001
0000
0010
0000
0000
0001
0000
0000
0010
0000
0100
0000
0100
0000
,
1000
0010
0000
0001
0010
1000
0100
0010
,
0010
0000
0001
0000
0100
0000
0000
0010
0100
0000
0100
0000
0010
0000
0010
0000
,
0010
0000
1000
0010
0000
0100
0000
0001
,
0010
0000
0100
0000
1000
0000
0100
0010
0000
0010
0001
0000
0100
0000
0000
0000
,
0001
0000
0100
0000
0010
0000
1000
0010
0000
0010
1000
0000
1000
0000
0000
0000
,
0001
0000
0000
0010
0000
0000
0001
0000
0000
0010
0000
0000
0100
0000
0000
0000
1000
0000
0000
0000
0100
0000
0000
0000
,
0010
0000
0001
0010
0000
1000
0000
0010
,
0001
0100
0001
0000
1000
0000
0001
0100
0000
0001
1000
0000
0010
0000
0100
0000
,
0001
1000
0001
0000
0010
0000
0100
0010
0000
0001
0010
0000
0001
0000
0001
0000
,
1000
0100
1000
0000
0010
0000
1000
0010
0000
0100
0010
0000
0100
0000
0001
0000
,
0001
0010
0100
0000
1000
0000
0010
1000
0000
1000
0100
0000
0010
0000
0100
0010
,
0000
0010
0001
0000
0001
0000
0010
0100
0000
1000
0000
0010
0100
0000
0010
1000
,
0000
0100
0010
0000
0001
0000
0100
0001
0000
0010
0000
0100
1000
0000
0010
1000
,
0000
0100
1000
0000
0001
0000
0001
0100
0000
0100
0000
0010
1000
0000
0100
1000
,
0000
0100
0010
0000
0100
0000
0010
0001
0000
0010
0000
0001
1000
0000
0001
1000
,
0000
0010
1000
0000
0010
0000
1000
0000
0100
0000
0010
0000
0001
0000
0100
0001
,
0000
0000
0010
0000
0100
0000
1000
0010
0000
0000
1000
0000
0010
0000
0100
0010
,
0000
0100
0001
0000
0001
0010
1100
0100
,
0010
0000
0100
0000
0010
0000
0100
0010
0001
0000
0000
0000
0001
0000
0100
0000
,
1001
0000
1000
0000
0001
0000
0000
1000
0000
0000
1010
0000
0010
0000
0100
0000
,
0001
0000
1000
0000
0001
0000
0000
1000
0000
0000
0100
0000
0100
0000
0010
0000
,
0010
0000
0000
0001
0000
0000
1000
0000
0000
0000
0000
0000
0010
0000
0000
0000
0100
0000
0000
0000
0001
0000
0000
0000
,
0001
0000
1000
0001
0000
0010
0100
1000
,
0010
0000
1000
0000
0010
0000
0000
1000
0010
0000
0010
0000
1000
0000
0100
0000
,
0010
0000
0001
0000
1000
0000
0010
0000
1000
0000
0000
0010
0000
0000
0010
0000
,
1000
0000
0000
0100
0000
0000
0010
0000
0000
0001
0000
0000
0100
0000
0000
0000
0001
0000
0000
0000
0010
0000
0000
0000
,
0100
1000
0010
1000
0000
1010
0000
0001
,
1000
0000
0000
0100
0000
0000
0010
0000
0000
0000
0000
0000
0001
0000
0000
0000
0010
0000
0000
0000
0100
0000
0000
0000
,
1000
0000
0010
0000
1000
0000
0010
0000
0100
0000
0000
0001
0000
0000
0010
0000
,
0100
0000
0000
1000
0000
0000
0010
0000
0000
1000
0000
0000
0001
0000
0000
0000
0010
0000
0000
0000
0100
0000
0000
0000
,
1000
0000
0000
0000
0010
0000
1000
0000
0000
0000
0001
0000
1000
0000
0001
0001
;

//---------------dance-single - ----------------
#NOTES:
     dance-single:
     :
     Medium:
     7:
     0.250339,0.274280,0.015107,0.098193,0.158620,232.000000,230.000000,2.000000,13.000000,0.000000,0.000000,0.250339,0.274280,0.015107,0.098193,0.158620,232.000000,230.000000,2.000000,13.000000,0.000000,0.000000:
0000
0000
0000
0000
,
0000
0000
0000
0000
,
0000
0000
0000
0000
,
0000
0000
0000
0000
,
0000
0000
1000
0000
0001
0000
0000
0010
0000
0000
0100
0000
0010
0000
0000
0000
,
0000
0000
0100
0000
0010
0000
0000
0001
0000
0000
1000
0000
0001
0000
0000
0000
,
0000
0000
1000
0000
0010
0000
0000
1000
0000
0000
0001
0000
0100
0000
0000
0000
,
0000
0000
0001
0000
0100
0000
0000
0010
0000
0000
1000
0000
0001
0000
0010
0000
,
0000
0000
0100
0000
0010
0000
0000
0100
0000
0000
1000
0000
0010
0000
0100
0000
,
0001
0000
1000
0000
0001
0000
0000
1000
0000
0000
0001
0000
0100
0000
0000
0000
,
0000
0000
0001
0000
0010
0000
0000
0001
0000
0000
0010
0000
0001
0000
0010
0000
,
0100
0000
1000
0000
0010
0000
0000
0100
0000
0000
0010
0000
1000
0000
0001
0000
,
0000
0000
0010
0000
0100
0000
0000
0010
0000
0000
0001
0000
1000
0000
0100
0000
,
0100
0000
0010
0000
0100
0000
0000
0010
0000
0000
0001
0000
0010
0000
0000
0000
,
0000
0100
1000
0001
0010
0100
0010
0001
,
0000
0000
0001
0000
1000
0000
0000
0010
0000
0000
1000
0000
0010
0000
0100
0000
,
0000
0000
0001
0000
0010
0000
0000
0100
0000
0000
1000
0000
0001
0000
0100
0000
,
0020
0000
0000
0000
0000
0000
0000
1030
,
2000
0000
0000
0000
0000
0000
3100
0000
0010
0000
0001
0000
,
2000
0000
0000
0000
0000
0000
3010
0000
1000
0000
0000
0001
0000
0000
0010
0000
,
0200
0000
0000
0000
0000
1300
0000
0001
,
0010
1000
0000
1000
0020
0000
0000
0031
,
0002
0000
0000
0000
0000
0000
1003
0000
0100
0000
0010
0000
,
0001
0000
1000
0010
0000
0100
0000
0010
,
2000
0000
0000
0000
0000
0000
3001
0000
0010
0000
0100
0000
,
1000
0000
0000
0000
0000
0000
0000
0000
0000
1000
0000
0000
0010
0000
0000
0000
0100
0000
0000
0000
0001
0000
0000
0000
,
1000
0000
0000
0000
0000
0000
0000
0000
0000
0010
0000
0000
0100
0000
0000
0000
0001
0000
0000
0000
0010
0000
0000
0000
,
0100
0000
1000
0010
0000
1000
0000
0001
,
0220
0000
0000
0000
0000
0000
0000
0330
,
2000
0000
0000
0000
,
3020
0000
0000
0000
,
0230
0000
0000
0000
,
1300
0000
0010
0000
1000
0000
0000
0001
0000
0000
1000
0000
0010
0000
0100
0000
,
0000
0000
1000
0000
0010
0000
0000
1000
0000
0000
0001
0000
0010
0000
0100
0000
,
0000
0000
0010
0000
0100
0000
0000
1000
0000
0000
0010
0000
1000
0000
0001
0000
,
0000
0000
0100
0000
0001
0000
0000
1000
0000
0000
0100
0000
1000
0000
0000
0000
,
0000
0000
0010
0000
0100
0000
0000
0000
0001
0000
0010
0000
0100
0000
0000
0010
,
0000
0000
0100
0000
1000
0000
0000
0100
0000
0000
0010
0000
0100
0000
0000
0010
,
0000
0001
1000
0000
0010
1000
0010
0100
,
0010
0000
0000
1000
0100
0000
1000
0001
,
0100
0000
0000
0000
0000
0001
0000
0010
,
0100
0000
0000
0000
0000
1000
1000
0100
,
0100
0000
0000
0000
0000
0000
0010
0000
0010
0000
0001
0000
,
0001
0000
0010
0100
0000
0010
0100
1000
,
0000
0000
0000
0000
0000
0000
0010
0000
1000
0000
0001
0000
,
0010
0000
0000
0000
0000
0000
0001
0000
1000
0000
0000
0010
0000
0000
0100
0000
,
0010
0000
0000
0000
0000
0000
0000
0000
0000
1000
0000
0000
0100
0000
0000
0000
0010
0000
0000
0000
0001
0000
0000
0000
,
1000
0000
0001
0100
0000
0010
0000
1000
,
0002
0000
0000
0000
0000
0000
0013
0000
0100
0000
1000
0000
,
0001
0000
0000
0000
0000
0000
1000
0000
0010
0000
0000
0100
0000
0000
0010
0000
,
1000
0000
0000
0000
0000
0000
0000
0000
0000
0001
0000
0000
0010
0000
0000
0000
0100
0000
0000
0000
0010
0000
0000
0000
,
0001
0000
1000
0001
0000
1000
0001
1001
;

//---------------dance-single - ----------------
#NOTES:
     dance-single:
     :
     Easy:
     5:
     0.200703,0.235097,0.022660,0.083087,0.030213,186.000000,183.000000,3.000000,11.000000,0.000000,0.000000,0.200703,0.235097,0.022660,0.083087,0.030213,186.000000,183.000000,3.000000,11.000000,0.000000,0.000000:
0000
0000
0000
0000
,
0000
0000
0000
0000
,
0000
0000
0000
0000
,
0000
0000
0000
0000
,
1000
0100
0001
0100
,
1000
0010
0100
0001
,
1000
0100
0010
0001
,
1000
0010
0001
0010
,
1010
0000
0000
0000
0000
0100
0100
0010
,
0010
1000
1000
0001
,
0001
0000
0000
0000
0000
0001
0010
0100
,
0100
0100
1000
0000
,
0010
0000
0100
0000
0001
0010
0100
1000
,
1000
0001
0100
0010
,
0000
0000
0000
0100
0010
1000
0010
0100
,
0000
0100
0100
0001
,
0010
0000
0100
0000
1000
0000
0010
0100
,
0010
0000
0100
0000
0001
0000
0010
0100
,
0200
0000
0000
0000
0000
0000
1300
0000
1000
0000
0010
0000
,
0020
0000
0000
0000
0000
0000
0000
0000
0030
0100
0000
0000
0010
0000
0000
0000
0000
0000
0100
0000
0000
0000
0000
0000
,
0010
0000
1000
0000
0100
0010
0000
0000
,
0010
0100
0000
0000
1000
0000
0100
0000
,
0100
0000
0000
0010
0000
0000
0001
0000
0001
0000
0010
0000
,
0010
0100
0010
0001
,
0100
1000
0100
0001
,
0001
0000
1000
0010
,
0100
0000
0010
1000
,
0100
0010
0001
1000
,
2002
0000
0000
0000
,
0000
0000
0000
0000
0000
0000
0000
3003
,
0220
0000
0000
0000
,
0000
0000
0000
0330
,
0010
0000
0100
0000
0001
0000
0010
0100
,
1000
0000
0010
0000
1000
0000
0001
1000
,
0001
0000
1000
0000
0010
0000
0100
0010
,
0100
0000
0010
0000
1000
0000
0100
0010
,
0100
0010
0001
0010
,
0100
1000
0010
1000
,
0001
0000
0010
0000
0100
1000
0100
0010
,
0001
0000
0000
0010
0001
0000
0010
0100
,
0010
0000
0000
0000
0000
0001
0000
1000
,
0010
0000
0000
0000
0000
1000
1000
0001
,
0001
0000
0000
0000
0000
0000
0001
0000
0010
0000
0010
0000
,
0001
0000
1000
0001
0000
0001
1000
0100
,
0000
0000
0100
1000
,
0100
0010
0010
0100
,
0010
0001
1000
0100
,
0010
0100
1000
0100
,
2000
0000
3200
0000
,
0302
0000
0203
0000
,
2300
0000
0000
0000
0000
0000
3001
0000
1000
0000
1000
0000
,
0001
0000
0100
0000
0001
0000
0001
1000
;

//---------------dance-single - ----------------
#NOTES:
     dance-single:
     :
     Beginner:
     3:
     0.128407,0.157109,0.067980,0.030213,0.000000,119.000000,110.000000,9.000000,4.000000,0.000000,0.000000,0.128407,0.157109,0.067980,0.030213,0.000000,119.000000,110.000000,9.000000,4.000000,0.000000,0.000000:
// measure 0
0000
0000
0000
0000
,  // measure 1
0000
0000
0000
0000
,  // measure 2
0000
0000
0000
0000
,  // measure 3
0000
0000
0000
0000
,  // measure 4
1000
0001
1000
0000
,  // measure 5
0001
1000
0001
0000
,  // measure 6
0100
0010
0100
0000
,  // measure 7
0010
1000
0010
0000
,  // measure 8
1000
0001
1000
0000
,  // measure 9
0001
0010
0001
0000
,  // measure 10
1000
0100
1000
0000
,  // measure 11
0010
0000
1000
0000
,  // measure 12
0001
1000
0001
0000
,  // measure 13
0100
0001
0100
0000
,  // measure 14
0001
0010
0001
0000
,  // measure 15
1000
0000
0010
0000
,  // measure 16
0100
0001
0100
0000
,  // measure 17
0010
1000
0001
0000
,  // measure 18
1000
0000
0001
0000
,  // measure 19
0010
0000
0100
1000
,  // measure 20
1001
0000
0000
0000
,  // measure 21
0110
0000
0000
0000
,  // measure 22
1000
0000
1000
0010
,  // measure 23
0010
0100
0100
0001
,  // measure 24
0001
0000
1000
0000
,  // measure 25
0001
0000
0010
0000
,  // measure 26
0001
0000
0100
0000
,  // measure 27
0001
0000
1000
0000
,  // measure 28
2002
0000
0000
0000
,  // measure 29
0000
0000
0000
3003
,  // measure 30
0220
0000
0000
0000
,  // measure 31
0000
0000
0000
0330
,  // measure 32
1000
0001
1000
0000
,  // measure 33
0010
1000
0010
0000
,  // measure 34
0100
0010
0100
0000
,  // measure 35
0001
1000
0001
0000
,  // measure 36
0010
0000
0001
0000
,  // measure 37
1000
0000
0010
0000
,  // measure 38
1000
0000
0100
1000
,  // measure 39
0100
0000
0010
0000
,  // measure 40
1001
0000
0000
0000
,  // measure 41
0110
0000
0000
0100
,  // measure 42
0100
0000
1000
0001
,  // measure 43
1000
0000
0010
0000
,  // measure 44
0100
0000
0001
1000
,  // measure 45
0010
0000
1000
0000
,  // measure 46
0001
0000
0010
0001
,  // measure 47
0010
0000
0100
0000
,  // measure 48
1000
0000
0010
0000
,  // measure 49
0100
0000
0001
0000
,  // measure 50
1001
0000
0000
0000
,  // measure 51
0110
0000
0000
0000
,  // measure 52
1001
0000
0000
0000
;
