#TITLE:灼熱Beach Side Bunny;
#SUBTITLE:;
#ARTIST:DJ Mass MAD Izm*;
#TITLETRANSLIT:Shakunetsu Beach Side Bunny;
#SUBTITLETRANSLIT:;
#ARTISTTRANSLIT:;
#GENRE:;
#CREDIT:;
#BANNER:Shakunetsu Beach Side Bunny.png;
#BACKGROUND:Shakunetsu Beach Side Bunny-bg.png;
#LYRICSPATH:;
#CDTITLE:;
#MUSIC:Shakunetsu Beach Side Bunny.ogg;
#OFFSET:0.000000;
#SAMPLESTART:83.116997;
#SAMPLELENGTH:15.000000;
#SELECTABLE:YES;
#BPMS:0.000000=153.000000
;
#STOPS:
;
#BGCHANGES:0.000=Shakunetsu Beach Side Bunny.avi=1.000=0=0=0=StretchNoLoop====,
99999=-nosongbg-=1.000=0=0=0 // don't automatically add -songbackground-
;
#KEYSOUNDS:;
#ATTACKS:;

//---------------dance-single - ----------------
#NOTES:
     dance-single:
     :
     Challenge:
     17:
     0.791971,1.030914,0.170954,0.000000,1.021654,681.000000,660.000000,21.000000,0.000000,0.000000,0.000000,0.791971,1.030914,0.170954,0.000000,1.021654,681.000000,660.000000,21.000000,0.000000,0.000000,0.000000:
// measure 0
0000
0000
0000
0000
,  // measure 1
0000
0000
0000
0000
,  // measure 2
0000
0000
0000
0000
,  // measure 3
0000
0000
0000
0000
,  // measure 4
0000
0000
0000
0000
,  // measure 5
0000
0000
1000
0000
0000
1000
0000
0000
1000
0000
0000
1000
0000
0000
0000
0000
,  // measure 6
0000
0000
0000
0000
,  // measure 7
0000
0000
0001
0000
0000
0001
0000
0000
0001
0000
0000
0001
0000
0000
0000
0000
,  // measure 8
0000
0000
0000
0000
,  // measure 9
0000
0000
0010
0000
0000
0000
0010
0000
0010
0000
0000
0010
0000
0000
0000
0000
,  // measure 10
0000
0000
0000
0000
0000
0000
0000
0000
0000
0000
0000
0000
0000
0000
0100
0010
,  // measure 11
1000
0100
0001
1000
0000
0000
0010
0001
0100
0010
0000
0000
,  // measure 12
1001
1000
0001
1001
1000
0001
1001
1000
0001
1001
0000
0000
,  // measure 13
0110
0000
0000
0000
1010
0000
1000
0000
0010
0000
0100
0001
0000
0000
0100
0000
,  // measure 14
0010
0000
0000
0000
1000
0000
0001
0000
1000
0000
0000
0010
0000
0000
0001
0000
,  // measure 15
0010
0000
0100
0000
0001
0000
0010
0000
0100
0000
1000
0100
0000
0000
0001
0000
,  // measure 16
0100
0000
1000
0000
0010
0000
0100
0000
0001
0000
0000
0010
0100
1000
0001
0000
,  // measure 17
1001
0000
0000
0000
0000
0000
0100
0000
0000
0010
0000
0000
1000
0000
0010
0000
1000
0000
0010
0000
0000
0100
0000
0000
0010
0000
0000
0100
0000
0000
0000
0000
0000
0001
0000
0000
0010
0000
0000
0100
0000
0000
1000
0000
0000
0000
0000
0000
,  // measure 18
0010
0000
0001
0000
0010
0000
1000
0000
0100
0000
1000
0010
0100
0000
0001
0000
,  // measure 19
1000
0000
0010
0000
0100
0000
1000
0100
0000
0010
0000
1000
0001
0010
0100
0001
,  // measure 20
0100
0000
1000
0000
0001
0000
0100
0000
0010
0000
1000
0001
1000
0000
0010
0100
,  // measure 21
0001
0000
1000
0000
0000
0100
0000
0000
0001
0000
0000
0100
0000
0000
1000
0000
,  // measure 22
0010
1000
0001
0000
0000
0010
0000
0000
0001
0000
0000
1000
0000
0000
0010
0100
,  // measure 23
0000
0000
0001
0000
0000
0001
0000
0000
0001
0000
0000
0001
0000
0000
0001
0000
,  // measure 24
1000
0100
1000
0000
0001
0100
0000
0001
0010
0001
1000
0000
0001
0000
0100
0000
,  // measure 25
0000
0000
0001
0000
0000
0001
0000
0000
0001
0000
0000
0001
0000
0000
0001
0000
,  // measure 26
1000
0010
1000
0000
0000
0100
0000
0000
0010
0000
1000
0000
0010
0000
0100
0000
,  // measure 27
0000
0000
0010
0000
0000
0001
0000
0001
0010
0100
1000
0000
0000
0000
1000
0000
,  // measure 28
1001
0000
0001
0000
1000
0010
0000
0010
1000
0100
0010
0000
0011
0000
0000
0000
,  // measure 29
1000
0100
1000
0001
1000
0001
0100
0001
1000
0010
1000
0000
1001
0000
0000
0000
,  // measure 30
0110
0000
0001
0000
0010
0100
1000
0010
0100
0000
0010
0000
0001
0000
0000
0000
,  // measure 31
0010
1000
0100
0010
0100
0001
0100
0000
1000
0000
0010
0000
0100
0000
0000
0000
,  // measure 32
0001
0000
0100
0000
0001
0000
0100
0000
0000
0010
0000
0000
1000
0000
0000
0000
0000
0000
0100
0000
0000
0000
0000
0000
0010
0000
0000
0000
0000
0000
1000
0000
0000
0000
0000
0000
0010
0000
0000
0000
0000
0000
0000
0000
0000
0000
0000
0000
,  // measure 33
1001
0000
0000
0000
0000
0000
0010
0000
0100
0000
0010
0000
0100
0000
0000
0001
0000
0000
1000
0000
0000
0000
0000
0000
0100
0000
0000
0000
0000
0000
0001
0000
0000
0000
0000
0000
0100
0000
0000
0000
0000
0000
0000
0000
0000
0000
0000
0000
,  // measure 34
1000
0000
0001
0000
1000
0000
0001
0000
0000
0100
0000
0000
0010
0000
0000
0000
0000
0000
1000
0000
0000
0100
0000
0000
0010
0000
0000
0001
0000
1000
0000
0001
0000
1000
0000
0000
0010
0000
0000
0000
0000
0000
0000
0000
0000
0000
0000
0000
,  // measure 35
0100
0010
0100
0001
0100
0010
0100
0000
0001
0000
0010
0000
0100
0000
0000
0000
,  // measure 36
1000
0001
1000
0001
0010
0001
0100
0010
0100
1000
0100
0000
1001
0000
0000
0000
,  // measure 37
1000
0000
0100
0000
0001
0000
1000
0010
0000
0001
0000
0010
1000
0000
0001
0000
,  // measure 38
0100
0000
0010
0000
0001
0000
1000
0010
0000
0100
0010
1000
0100
0010
0100
0000
,  // measure 39
1000
0000
0000
0000
0000
0000
0001
0000
0010
0000
0001
0000
0010
0000
0000
0100
0000
0000
0010
0000
0000
0100
0000
0000
0000
0000
0000
0010
0000
0000
0000
0000
0000
1000
0000
0000
0010
0000
0000
0000
0000
0000
0001
0000
0000
0000
0000
0000
,  // measure 40
1000
0000
0001
0000
0100
0000
0010
0000
1000
0000
0000
1000
0001
0000
0010
0000
,  // measure 41
0001
0000
0000
0100
0000
0000
0001
0000
0100
0000
0001
0000
0100
0000
0000
0010
0000
0000
0100
0000
0000
0000
0000
0000
0001
0000
0000
0010
0000
0000
0100
0000
0000
1000
0000
0000
0001
0000
0000
0000
0000
0000
1000
0000
0000
0000
0000
0000
,  // measure 42
0100
0000
0001
0000
0100
0000
1000
0010
0100
0010
0001
0010
0100
0000
0001
0000
,  // measure 43
1000
0000
1000
0001
0000
0000
0010
0000
0000
0001
0010
0100
1000
0000
0001
0000
,  // measure 44
0100
0000
0001
0000
0100
0000
0001
0000
1000
0100
0010
0001
1000
0100
0010
0001
,  // measure 45
1000
0000
0001
0010
0001
0100
0001
1000
0001
0000
1000
0000
0100
0000
0000
0010
,  // measure 46
0001
0100
0010
1000
0100
0000
1000
0001
0010
0100
0010
0000
0110
0000
0000
0000
,  // measure 47
1000
0010
0100
0001
0010
0000
0001
0000
0100
0000
0010
0000
1000
0000
0001
0000
,  // measure 48
1000
0000
0000
0000
0000
0000
0001
0000
0000
1000
0000
0000
0010
0000
0000
1000
0000
0000
0100
0000
0000
0000
0000
0000
0001
0000
0000
0000
0000
0000
0100
0000
0000
0000
0000
0000
1000
0000
0000
0000
0000
0000
0010
0000
0100
0000
0010
0000
,  // measure 49
0100
0001
1000
0100
0010
0000
0100
0001
0100
0010
0100
0000
1000
0000
0010
0000
,  // measure 50
0100
0000
0001
0000
0100
0000
0001
0000
0000
1000
0000
0000
0001
0000
0000
0000
0000
0000
0010
0000
0000
0000
0000
0000
1000
0000
0000
0000
0000
0000
0010
0000
0000
0000
0000
0000
0100
0000
0000
0000
0000
0000
1000
0000
0000
0000
0000
0000
,  // measure 51
0001
0000
1000
0100
1000
0100
0001
0000
1000
0000
0010
0000
0100
0000
0000
1000
,  // measure 52
0010
0000
0100
0001
1000
0000
0010
0000
1000
0001
0010
0000
0011
0000
0000
0000
,  // measure 53
0000
0000
1000
0000
0000
1000
0000
0000
1000
0000
0000
1000
0000
0000
1000
0000
,  // measure 54
0100
0010
0001
0000
0000
0001
0000
0000
0001
0000
0000
0001
0000
0000
0001
0100
,  // measure 55
0000
0000
0100
0000
0000
0100
0000
0000
0100
0000
0000
0100
0000
0000
0100
0000
,  // measure 56
0100
1000
0100
0000
0001
0010
0000
0100
0010
0001
1000
0000
0001
0000
1000
0000
,  // measure 57
0000
0000
0010
0000
0000
0010
0000
0000
0010
0100
0000
0010
0000
0000
0000
0000
,  // measure 58
0000
0000
0010
0000
0000
0010
0000
0000
0010
0000
0000
0010
0000
0010
1000
0000
,  // measure 59
0001
0000
1000
0000
0000
1000
0000
0000
1000
0000
0000
1000
0000
1000
0100
0001
,  // measure 60
0100
1000
0001
0000
0000
0001
0000
0000
0001
0000
0000
0001
0000
0000
0000
0000
,  // measure 61
0001
0000
0100
0000
0010
0000
1000
0100
0000
0001
0000
0100
1000
0000
0010
0000
,  // measure 62
0001
0000
0010
0000
1000
0000
0100
0010
0000
0001
0010
0100
0010
1000
0010
0000
,  // measure 63
0001
0000
0000
0000
0000
0000
1000
0000
0000
0001
0000
0000
0010
0000
0001
0000
0010
0000
0001
0000
0000
1000
0000
0000
0000
0000
0000
1000
0000
0000
0000
0000
0000
0001
0000
0000
0100
0000
0000
0000
0000
0000
0010
0000
0000
0000
0000
0000
,  // measure 64
0100
0000
0001
1000
0010
0000
1000
0000
0001
0100
1000
0100
0001
0100
1000
0000
,  // measure 65
0100
0001
0000
0001
0010
0000
0010
0100
0000
0100
1000
0001
1000
0100
1000
0001
,  // measure 66
1000
0000
0010
0000
1000
0000
0010
0000
0000
0000
0000
0000
1000
0000
0000
0001
0000
0000
0100
0000
0000
0001
0000
0000
0000
0000
0000
0100
0000
0000
0000
0000
0000
0010
0000
0000
0100
0000
0000
0000
0000
0000
0001
0000
0000
0000
0000
0000
,  // measure 67
1000
0000
0100
0001
0000
0000
0001
0100
0000
1000
0000
0001
1000
0000
0100
0000
,  // measure 68
0001
1000
0000
0010
0001
0000
1000
0001
0000
0001
0010
0100
0010
0100
1000
0000
,  // measure 69
1001
0000
0001
0000
1001
0000
0001
0100
0000
1000
0000
0100
0001
0000
0010
0000
,  // measure 70
0100
0000
1000
0000
0100
0000
0001
0100
0000
1000
0001
0010
0100
1000
0010
0000
,  // measure 71
1000
0000
0000
0001
0000
0000
0100
0000
0001
0000
0100
0000
0001
0000
0000
1000
0000
0000
0010
0000
0000
1000
0000
0000
0000
0000
0000
0001
0000
0000
0000
0000
0000
0100
0000
0000
0001
0000
0000
0000
0000
0000
1000
0000
0000
0000
0000
0000
,  // measure 72
0001
0000
0000
1000
0000
0000
0001
0000
0000
0100
0000
0000
0001
0000
0000
0000
0000
0000
0010
0000
0000
0000
0000
0000
0100
0000
0010
0000
0100
0000
0010
0000
0100
0000
0010
0000
0100
0000
0000
0000
0000
0000
1000
0000
0000
0000
0000
0000
,  // measure 73
1000
0000
0000
0001
0000
0000
0100
0000
0001
0000
0100
0000
0001
0000
0100
0000
0001
0000
0100
0000
0000
0000
0000
0000
0010
0000
0000
1000
0000
0000
0001
0000
0000
1000
0000
0000
0010
0000
0000
0000
0000
0000
0010
0000
0000
0000
0000
0000
,  // measure 74
1000
0000
0100
0000
1000
0000
0100
0000
1000
0000
0100
0000
1000
0000
0000
0000
0000
0000
0001
0000
0000
0010
0000
0000
0100
0000
0000
0010
0000
0000
1000
0000
0000
0010
0000
0000
0100
0000
0000
0010
0000
0000
0001
0000
0000
1000
0000
0000
,  // measure 75
0000
0000
1000
0001
0000
0000
0001
1000
0000
0100
0000
0100
0010
0000
0000
0000
,  // measure 76
0011
0010
1010
0010
0011
0000
1001
0000
;
