#TITLE:SOLID STATE SQUAD;
#SUBTITLE:;
#ARTIST:kors k Vs. L.E.D.;
#TITLETRANSLIT:;
#SUBTITLETRANSLIT:;
#ARTISTTRANSLIT:;
#GENRE:;
#CREDIT:;
#BANNER:bn.png;
#BACKGROUND:bg.png;
#LYRICSPATH:;
#CDTITLE:;
#MUSIC:Solid State Squad.mp3;
#OFFSET:-12.580000;
#SAMPLESTART:102.279999;
#SAMPLELENGTH:24.780001;
#SELECTABLE:YES;
#BPMS:0.000000=155.000000
,98.000000=77.500000
,114.000000=155.000000
,174.000000=310.000000
,239.000000=155.000000
,288.000000=310.000000
;
#STOPS:64.000000=1.161000,
97.000000=1.161000,
174.000000=1.355000,
239.000000=1.161000
;
#BGCHANGES:;
#KEYSOUNDS:;
#ATTACKS:;

//---------------dance-single - ----------------
#NOTES:
     dance-single:
     :
     Hard:
     13:
     0.562834,0.721799,0.393227,0.196614,0.132336,521.000000,469.000000,52.000000,26.000000,0.000000,0.000000,0.562834,0.721799,0.393227,0.196614,0.132336,521.000000,469.000000,52.000000,26.000000,0.000000,0.000000:
0000
0000
0000
0000
,
1000
0001
1000
0001
1000
0001
1000
0001
,
1000
0001
1000
0001
1000
0001
1001
0000
,
0110
0010
0100
0010
0100
0010
0100
0010
,
0100
0010
0100
0010
0100
0010
0100
0000
,
1001
0001
1000
0010
1000
0100
0000
0110
,
0000
0011
0000
0101
0000
1001
0000
1000
,
0010
0001
0010
0100
0001
0010
0000
0011
,
0000
0110
0000
1100
0000
1010
0000
1000
,
0010
0100
0001
0010
1000
0010
0000
0011
,
0000
0110
0000
0101
0000
0011
0000
0010
,
0100
1000
0001
0010
0001
1000
0000
1001
,
0000
1100
0000
0110
0000
0011
0000
0001
,
0100
1000
0100
0001
1000
0001
0000
1010
,
0000
0110
0000
1010
0000
0101
0000
1000
,
0001
0001
0001
0001
0001
0001
0001
0001
,
2002
0000
3003
0000
0110
0000
1000
0100
0000
0100
1000
0000
0010
0000
0000
0000
,
0000
0000
0000
0000
1001
0000
0001
0100
0000
0100
0001
0000
0010
0000
0100
0000
,
1000
0000
0000
0000
0011
0000
1000
0100
0000
0100
1000
0000
1010
0000
0001
1000
,
0000
1000
0001
0000
0101
0000
0000
0000
0010
0000
0100
0000
1100
0000
0000
0000
,
0100
0000
0110
0000
0010
0001
0010
0000
,
0101
1100
0011
1010
,
0011
0000
1000
1000
0100
0100
0010
0010
,
0001
0000
0001
0000
0010
0001
0010
0000
0100
0010
0100
0000
1000
0100
1000
0000
,
0001
1000
0001
0000
2002
0000
3003
0000
1001
0000
1000
0002
0000
0000
0000
0000
,
0000
0000
0000
0013
0100
1000
0010
0200
0000
0000
0000
0000
0000
0000
0301
0020
,
0000
2030
0000
0000
0000
0000
0000
0000
0000
0000
3010
0001
0100
1000
0100
0002
,
0000
0000
0000
0000
0000
0000
0000
0000
0000
0000
0013
0000
0001
0000
1000
0000
0020
0000
0000
0230
0000
0000
0000
0000
0000
0000
0000
0000
0301
0000
0020
0000
,
0000
0230
0000
2300
0000
3002
0000
1003
1001
0000
0000
0000
1000
0000
0200
0000
,
0001
0001
0001
0001
,
0310
0000
0001
0000
0010
0000
0000
0000
0001
0000
0010
0001
0010
0000
0100
0000
,
1000
0000
0000
0000
0010
0000
1000
0000
0010
0000
0000
0010
0000
0000
0010
0000
,
1000
0001
1000
0100
0010
0000
0100
0000
0000
0000
0012
0000
0010
0000
0000
0000
,
0010
0000
0010
0000
2003
0000
0010
3020
,
0000
1000
2030
0000
0001
0000
0010
0000
,
0001
0000
0000
0000
3100
0000
0010
0000
0000
0000
0010
0000
0010
0000
0010
0001
,
0010
0010
0010
0010
0011
0001
0000
0010
,
0000
1000
0000
0010
0000
0001
0000
0010
,
0000
1000
0000
0110
0000
1001
0000
1000
,
0000
0100
0000
0001
0000
0100
0000
1000
,
0000
0100
0000
0001
0000
0100
1010
0010
,
0000
0001
0000
0010
0000
1000
0000
0001
,
0000
0010
0000
0011
0000
1100
0000
1000
,
0000
0010
0000
0100
0220
0330
1000
0000
,
1000
0100
0100
0010
,
0010
0001
0001
1000
,
1000
0010
0010
0100
,
0100
0000
0001
0000
0001
0010
0100
0000
,
0100
0010
0010
0100
,
0100
1000
1000
0010
,
0010
0100
0100
0001
,
0001
0000
1000
0000
1000
0100
1000
0000
,
0100
0010
0100
0010
,
0001
0000
0010
0000
0001
0010
0001
0000
,
1000
0001
1000
0010
,
1000
0000
0010
0000
0100
0010
0100
0000
,
0001
0100
0001
0000
1000
0001
1000
0000
,
0001
0100
0001
0000
1000
0010
1000
0000
,
0000
1100
0000
0101
,
0000
0000
0011
0000
0000
0000
2002
3003
,
1000
0001
0100
0001
0010
0001
0100
0001
,
1000
0010
1000
0100
1000
0001
1000
0100
,
0010
0001
1000
0100
0010
0001
0100
0010
,
1000
0010
0100
0001
0010
0100
1000
0010
,
0100
0010
1000
0001
0010
0100
0010
1000
,
0010
0001
1000
0010
0100
0010
0001
0010
,
0100
0010
1000
0001
0100
0001
1000
0100
,
1000
0001
1000
0010
1000
0100
1000
0010
,
0100
0001
0010
0001
0100
0001
0010
0100
,
1000
0010
1000
0100
1000
0001
0100
0001
,
0010
0000
0100
1000
0100
0000
0001
0000
0100
0000
1000
0000
0001
0000
0100
0000
,
0010
1000
0100
0010
0001
0100
0001
1000
,
0001
0001
0010
0010
,
0100
0100
0010
0010
,
0001
0001
1000
1000
,
0010
0010
0100
0100
,
0001
0100
0001
0000
0100
0010
0100
0000
,
0010
1000
0010
0000
1000
0100
1000
0000
,
0100
0010
0001
0000
0010
0001
1000
0000
,
0001
0010
0100
1000
0001
0010
0100
0000
,
0220
0000
0000
0000
,
0000
0000
0000
0000
,
0000
0000
0000
0000
,
0330
0000
0000
0000
;

//---------------dance-single - ----------------
#NOTES:
     dance-single:
     :
     Medium:
     10:
     0.388906,0.514220,0.234424,0.098307,0.052934,360.000000,329.000000,31.000000,13.000000,0.000000,0.000000,0.388906,0.514220,0.234424,0.098307,0.052934,360.000000,329.000000,31.000000,13.000000,0.000000,0.000000:
0000
0000
0000
0000
,
1000
0001
1000
0010
,
1000
0000
0001
0000
0010
0000
0001
0100
,
0001
0100
0001
1000
,
0001
0000
0010
0000
0001
0100
0010
1000
,
0100
0000
1000
0000
0100
0010
0000
0001
,
0000
1000
0000
0010
0000
0100
0000
0100
,
0001
0000
0010
0000
0100
1000
0000
1010
,
0000
0010
0000
0101
0000
0001
0000
0000
,
0010
0001
0010
0000
0100
1000
0000
1010
,
0000
0010
0000
1001
0000
1000
0000
0000
,
1000
0010
0100
0000
0001
0010
0000
0110
,
0000
1000
0000
1001
0000
0001
0000
0000
,
0100
0001
0010
0000
0100
1000
0000
1010
,
0000
1000
0000
0101
0000
0001
0000
0000
,
1000
0001
1000
0001
1000
0001
1000
0001
,
1000
1100
0000
0100
,
0000
0110
0000
0001
,
0000
0101
0100
1010
,
0100
1001
1000
0011
,
0000
0000
0101
0000
0100
0001
0010
0000
,
0001
0010
0100
1100
,
1001
0000
0001
1000
0001
1000
0001
1000
,
0001
0000
0010
0100
0010
0100
0010
0100
,
0010
0000
0100
0000
0110
0000
0000
0000
0110
0000
0100
2000
0000
0000
0000
0000
,
0000
0000
3000
0000
1000
0010
0100
0002
0000
0000
0000
0000
0000
0000
1003
0200
,
0000
0320
0000
0000
0000
0000
0000
0000
0000
0000
1030
0000
0010
0001
0000
0020
,
0000
0000
0000
0000
0000
1030
0000
0010
0001
0000
0000
0000
0000
0000
0000
0001
,
0000
0100
0000
1000
0000
0100
0000
0001
1000
0000
0000
0000
1000
0000
0100
0000
,
0000
0010
0100
0010
,
0001
1000
0001
0000
1000
0001
0010
0000
,
0100
0000
0010
0200
0000
0000
0000
0000
,
1300
0010
0100
0010
0000
2000
0000
0000
,
0000
0000
3000
0000
1001
0000
0000
0011
,
0000
0102
0000
0000
,
0000
0003
0100
0001
0000
0001
0001
0001
,
1000
1000
1000
1000
0000
1000
0000
0001
,
0000
1000
0000
0100
0000
0010
0000
0100
,
0000
1000
0000
0110
0000
1001
0000
0100
,
0000
0010
0000
1000
0000
0010
0000
0001
,
0000
0010
0000
1000
0000
0100
0010
0001
,
0000
1000
0000
0001
0000
0100
0000
0001
,
0000
1000
0000
1100
0000
0011
0000
1000
,
0000
0001
0000
1000
0001
0000
1000
0000
,
0100
1000
0000
0100
,
0010
0100
0000
0010
,
0001
0010
0000
0001
,
1000
0001
0000
1000
,
0010
0100
0000
0001
,
0100
0010
0000
1000
,
0010
0100
0000
0001
,
0010
0100
0000
1000
,
0100
1000
0000
0100
,
0010
0100
0000
0010
,
0001
0010
0000
0001
,
1000
0001
0000
1000
,
0010
1000
0010
0100
,
0001
0100
0001
0010
,
0000
0110
0000
0110
,
0000
1001
0000
1001
,
1000
0000
0001
0200
0001
0000
0001
0000
,
0001
0000
0001
0000
0301
0010
0100
2000
,
0100
0000
0100
0000
0100
0000
3100
1000
,
0000
0002
0010
0000
0010
0000
0010
0000
,
0013
0000
0001
0000
0010
1000
0000
0020
,
0001
0000
0001
0000
0031
1000
0000
0100
,
0010
0000
0100
0000
0010
0000
0010
0001
,
0000
1000
0000
0001
0000
0100
0000
0001
,
0010
0000
0100
0020
0001
0000
0001
0000
,
0001
0000
0031
0000
0100
0010
1000
0000
,
0010
1000
0001
0010
0001
0000
0010
0001
,
0010
0010
0100
0010
,
0001
0100
0001
0000
,
1000
0010
1000
0000
,
0001
1000
0001
0000
,
0010
0100
0010
0000
,
0010
0001
0010
0001
,
1000
0100
1000
0100
,
1000
0010
0100
0001
,
1000
0010
0100
0000
,
1001
0000
0000
0000
;

//---------------dance-single - ----------------
#NOTES:
     dance-single:
     :
     Easy:
     6:
     0.284118,0.376591,0.294921,0.030248,0.000000,263.000000,224.000000,39.000000,4.000000,0.000000,0.000000,0.284118,0.376591,0.294921,0.030248,0.000000,263.000000,224.000000,39.000000,4.000000,0.000000,0.000000:
0000
0000
0000
0000
,
1000
0001
1000
0001
,
1000
0001
1000
1001
,
0110
0100
0010
0100
,
0010
0100
0010
0110
,
1001
1000
0100
1000
,
0100
0010
0100
0010
,
0001
1000
0001
0100
,
0001
1000
0010
1000
,
1001
1000
0001
0010
,
0001
0100
0010
1000
,
0100
0010
0100
1000
,
0010
0100
0001
0010
,
0110
0010
0100
1000
,
0010
0100
0001
1000
,
0001
1000
0001
1000
,
1001
1010
0000
0100
,
0000
0110
0000
0010
,
0000
0011
0000
1001
,
0000
1010
0000
0110
,
0000
0101
1000
0001
,
0010
0100
1000
0010
,
0100
0110
0100
0001
,
1000
1000
0001
1000
,
0001
1001
2002
0000
,
0000
0000
0000
0000
,
0000
0000
0000
0000
,
0000
0000
0000
0000
,
0000
3003
1001
0001
,
0010
0010
0100
0100
,
1000
1000
0001
0001
,
0010
0010
0100
0100
,
0010
0010
0001
0001
,
1000
1000
0010
0010
,
0100
0100
0001
0001
,
1000
1000
0001
0001
,
0010
0010
0110
0000
,
0000
0000
0000
0000
,
0000
0000
0000
1010
0000
0101
0000
0000
,
0000
0000
0000
0000
,
0000
0000
0000
1001
,
0000
0000
0000
0000
,
0000
0000
0000
0011
0000
1100
0000
0000
,
0000
0000
1001
1001
,
0000
1000
0000
1000
,
0000
0100
0000
0110
,
0000
0010
0000
0010
,
0000
0010
0000
0011
,
0000
0001
0000
0001
,
0000
0001
0000
1001
,
0000
1000
0000
1000
,
0000
0010
0000
1010
,
0000
1000
0000
1010
,
0000
0010
0000
0110
,
0000
0010
0000
1010
,
0000
0001
0000
1001
,
0000
1010
0000
0110
,
0000
1001
0000
1000
,
0000
1000
0000
0001
,
0000
0001
0000
1001
,
1000
0100
0010
0100
,
1000
0010
0100
0001
,
0010
1000
0010
0001
,
1000
0010
0100
0010
,
1000
0100
0001
0100
,
1000
0010
0100
0001
,
0010
0100
0010
0001
,
1000
0010
0100
0010
,
0001
0010
1000
0100
,
0010
1000
0010
0100
,
0010
0001
1000
0010
,
0100
0001
0010
0100
,
1000
0000
1000
0000
,
0010
0000
0010
0000
,
1000
0000
1000
0000
,
0100
0000
0100
0000
,
0010
0000
0010
0000
,
0001
0000
0001
0000
,
1000
0000
0010
0000
,
0001
0000
0010
0000
,
2002
0000
0000
0000
,
0000
0000
0000
0000
,
0000
0000
0000
0000
,
3003
0000
0000
0000
;

//---------------dance-single - ----------------
#NOTES:
     dance-single:
     :
     Beginner:
     4:
     0.178249,0.332731,0.204176,0.000000,0.000000,165.000000,138.000000,27.000000,0.000000,0.000000,0.000000,0.178249,0.332731,0.204176,0.000000,0.000000,165.000000,138.000000,27.000000,0.000000,0.000000,0.000000:
0000
0000
0000
0000
,
1000
0000
0001
0000
,
1000
0000
0001
0000
,
0010
0000
0100
0000
,
0010
0000
0100
0000
,
1000
0000
0001
0000
,
0010
0000
0100
0000
,
0010
0000
0001
0000
,
1000
0000
0010
0000
,
0110
0000
0010
0000
,
1000
0000
0100
0000
,
0010
0000
0001
0000
,
1000
0000
0010
0000
,
1000
0000
0001
0000
,
0100
0000
0001
0000
,
1000
0000
1000
0000
,
1001
1000
0000
0100
,
0000
0010
0000
0001
,
0000
0010
0000
0100
,
0000
1000
0000
0001
,
0000
1000
1000
1000
,
0000
0001
0001
0001
,
0000
0100
0010
0100
,
0010
0100
0010
0100
,
0010
0110
1001
0000
,
0000
0000
0000
0000
,
0000
0000
0000
0000
,
0000
0000
0000
0000
,
0000
0000
0110
0000
,
0001
0000
0010
0000
,
0100
0000
1000
0001
,
1000
0000
0100
0000
,
0100
0000
0010
0000
,
0010
0000
0001
0000
,
0010
0000
0100
0000
,
1000
0000
0001
0000
,
1000
0000
1001
0000
,
0000
0000
0000
0000
,
0000
0000
0000
0110
0000
1001
0000
0000
,
0000
0000
0000
0000
,
0000
0000
0000
0110
,
0000
0000
0000
0000
,
0000
0000
0000
1001
0000
0110
0000
0000
,
0000
0000
1001
1001
,
0000
0000
0000
0100
,
0000
0000
0000
0110
,
0000
0000
0000
0001
,
0000
0000
0000
1001
,
0000
0000
0000
1000
,
0000
0000
0000
0110
,
0000
0000
0000
0001
,
0000
0000
0000
0110
,
0000
0000
0000
1001
,
0000
0000
0000
0110
,
0000
0000
0000
1001
,
0000
0000
0000
0110
,
0000
0110
0000
0110
,
0000
0110
0000
0000
,
0000
1000
0000
0000
,
0000
1000
0000
1001
,
0001
0000
0010
0000
,
0100
0000
0010
0000
,
0001
0000
1000
0000
,
0010
0000
0100
0000
,
0010
0000
1000
0000
,
0001
0000
0010
0000
,
0100
0000
0010
0000
,
0001
0000
1000
0000
,
1001
0000
0100
0000
,
0001
0000
1000
0000
,
0001
1000
0001
0000
,
1000
0000
0100
0000
,
1000
0000
0001
0000
,
1000
0000
0000
0000
,
0001
0000
0100
0000
,
0001
0000
0000
0000
,
1000
0000
0010
0000
,
1000
0000
0010
0000
,
0100
0000
0001
0000
,
0100
0000
0001
0000
,
1001
0000
0000
0000
;

//---------------dance-single - ----------------
#NOTES:
     dance-single:
     :
     Challenge:
     16:
     0.795097,0.941477,0.204176,0.264672,0.794017,736.000000,709.000000,27.000000,35.000000,0.000000,0.000000,0.795097,0.941477,0.204176,0.264672,0.794017,736.000000,709.000000,27.000000,35.000000,0.000000,0.000000:
// measure 0
0000
0000
0000
0000
,  // measure 1
1000
0001
1000
0010
1000
0100
1000
0001
,  // measure 2
0100
0000
0001
0000
0010
0000
0001
0000
0100
0000
0010
0000
1000
0000
0100
0010
,  // measure 3
0100
0010
0001
0100
0010
1000
0100
0001
,  // measure 4
0100
0000
1000
0000
0001
0000
0010
0000
0100
0000
1000
0001
0100
0010
1000
0000
,  // measure 5
0100
0010
0001
1000
0010
1000
0001
0010
,  // measure 6
0001
0000
0100
0000
0001
0000
1000
0000
0001
0000
0010
0000
0100
0000
1000
0010
,  // measure 7
1000
0010
0100
0001
0010
0100
1000
0001
,  // measure 8
1000
0000
0010
0000
1000
0000
0100
0000
1000
0000
0001
0100
0010
1000
0100
0000
,  // measure 9
0010
0001
0010
0100
1000
0001
0100
0010
,  // measure 10
0100
0000
1000
0000
0100
0000
0010
0000
0100
0000
0001
0000
1000
0000
0001
0010
,  // measure 11
0100
1000
0001
0100
0010
1000
0010
0001
,  // measure 12
0010
0000
1000
0000
0001
0000
1000
0000
0100
0000
0010
0001
0100
0010
1000
0000
,  // measure 13
0100
0010
0001
1000
0100
1000
0010
0100
,  // measure 14
0010
0000
0001
0000
0010
0000
0100
0000
0010
0000
1000
0000
0010
0000
1000
0001
,  // measure 15
1000
0001
0001
0001
0001
0001
0001
0001
,  // measure 16
2002
0000
3003
0000
1100
0000
0001
1000
0000
1000
0001
0000
0011
0000
0000
0000
,  // measure 17
0000
0000
0000
0000
1010
0000
0100
0001
0000
0001
0010
0100
1000
0001
0010
0100
,  // measure 18
1000
0000
0000
0000
0011
0000
0100
0010
0100
0010
1000
0100
1000
0000
0001
0100
,  // measure 19
0001
0100
0001
1000
0100
0010
0001
1000
0001
0000
0100
0010
0100
0000
0001
0000
,  // measure 20
0011
0000
0110
0000
1001
1000
0110
0000
,  // measure 21
1010
1100
0011
0101
,  // measure 22
1010
0000
0000
0000
1001
0000
0001
0100
0000
0100
0010
1000
0001
0000
0010
0000
,  // measure 23
1000
0000
0001
0000
0100
0010
0100
0010
0001
0010
0001
0010
0100
1000
0100
1000
,  // measure 24
0001
1000
0001
1000
2002
0000
3003
0000
1001
0000
2000
0002
0000
0000
0000
0000
,  // measure 25
0000
0000
3000
0203
0302
0023
0230
2000
0000
0000
0000
0000
0000
0300
3020
0002
,  // measure 26
0030
2000
0000
0000
0000
0000
0000
0000
0000
0003
3200
0320
0032
0023
2030
0002
,  // measure 27
0000
0000
0000
0000
0000
0000
0000
0000
3000
0000
0023
0000
2030
0000
3002
0000
0203
0000
0000
2000
0000
0000
0000
0000
0000
0000
0300
0000
3002
0000
0200
0000
,  // measure 28
0003
2000
0300
0002
3000
0020
0003
1030
1010
0000
1000
0000
1000
0000
0001
0010
,  // measure 29
0100
1000
0001
0000
0100
0000
0010
0000
1000
0000
0100
0000
1000
0000
0001
0010
,  // measure 30
0100
1000
0001
0000
0100
0000
0010
0000
1000
0000
0100
0010
0100
0000
0010
0001
,  // measure 31
0010
0100
1000
0000
0010
0000
0100
0000
0001
0000
1000
0010
0000
1000
0010
0000
,  // measure 32
1000
0100
1000
0001
0010
0000
0100
0000
0010
0000
1000
0000
0001
0000
0100
0010
,  // measure 33
0001
1000
0100
0000
1000
0000
0100
0000
0010
0000
0001
0000
0100
0000
0010
1000
,  // measure 34
0001
0010
0100
0000
1000
0000
0001
0000
0100
0000
0010
0000
1000
0000
0100
0010
,  // measure 35
0001
1000
0010
0000
1000
0000
0001
0000
0010
0000
0010
0000
0010
0000
0010
0001
,  // measure 36
0100
0000
0010
0000
0010
0000
0010
0000
1010
0000
1000
0000
0100
0010
0000
0001
,  // measure 37
0100
0000
0001
1000
0000
0010
1000
0100
1000
0000
0001
0000
0010
0100
0000
1000
,  // measure 38
0010
0000
0100
0001
0000
0010
0100
1000
0001
0000
0010
0000
0001
0100
0000
0010
,  // measure 39
0100
0000
0010
1000
0000
1000
0001
1000
0100
0010
0001
1000
0100
0010
0001
1000
,  // measure 40
0001
0010
0100
1000
0001
0010
0100
1000
0001
1000
0001
0000
0100
0010
0000
0010
,  // measure 41
1000
0000
1000
0001
0000
0001
1000
0001
0010
0000
0100
0000
0010
1000
0000
1000
,  // measure 42
0010
0000
0010
0100
0000
0100
1000
0010
0100
0000
0010
0000
0100
1000
0000
0100
,  // measure 43
0001
0000
0100
0010
0000
1000
0001
0010
0200
0000
0300
0000
1100
0000
0000
0000
,  // measure 44
1000
0001
0001
0010
,  // measure 45
0010
0100
0100
0011
,  // measure 46
0001
1000
1000
0010
,  // measure 47
0010
0000
0000
0100
0000
0000
0001
0010
0001
0010
0000
0000
,  // measure 48
0001
0001
1000
1000
,  // measure 49
0100
0100
0001
0101
,  // measure 50
0100
1000
1000
0100
,  // measure 51
0100
0000
0000
0000
0000
0000
0010
0000
0000
0000
0000
0000
0001
0000
0100
0000
0001
0000
0100
0000
0000
0010
0000
0000
,  // measure 52
1000
0010
1000
0010
1000
0010
1000
0001
,  // measure 53
0100
0000
0000
0001
0000
0000
1000
0000
0000
0000
0000
0000
0100
0000
0010
0000
0100
0000
0010
0000
0000
0001
0000
0000
,  // measure 54
1000
0001
1000
0001
1000
0001
0100
0010
,  // measure 55
1000
0000
0000
0010
0000
0000
0100
0000
0000
0000
0000
0000
0010
0000
0001
0000
0010
0000
0001
0000
0000
1000
0000
0000
,  // measure 56
0010
0000
0100
0000
0010
0000
0100
0000
0000
0001
0000
0000
1000
0000
0100
0000
1000
0000
0100
0000
0000
0010
0000
0000
,  // measure 57
0001
0000
1000
0000
0001
0000
1000
0000
0000
0100
0000
0000
0010
0000
0001
0000
0010
0000
0001
0000
0000
0000
0000
0000
,  // measure 58
0100
1010
0100
0011
,  // measure 59
0100
0000
1010
0000
0100
0000
0220
0330
,  // measure 60
1000
0001
1000
0000
0100
0010
0000
0010
0100
0000
0100
0001
0000
0001
0100
1000
,  // measure 61
0001
0010
0100
1000
0001
0100
0010
1000
0001
0100
0010
0000
1000
0000
0100
0010
,  // measure 62
0001
1000
0010
0100
0001
1000
0010
1000
0100
1000
0001
0000
0010
0000
0100
1000
,  // measure 63
0001
1000
0010
0000
1000
0100
1000
0001
0010
0000
0100
1000
0000
0001
0100
0010
,  // measure 64
1000
0100
1000
0000
1000
0010
0000
0100
0001
0000
0001
0100
0000
0010
1000
0100
,  // measure 65
1000
0001
0010
0000
0100
1000
0000
0100
0010
0000
0100
1000
0000
0100
1000
0010
,  // measure 66
1000
0001
0100
0010
1000
0100
1000
0001
0010
0100
1000
0001
0100
0010
1000
0001
,  // measure 67
0010
0100
1000
0000
0100
1000
0000
0001
0010
0000
0100
1000
0000
0100
0010
0001
,  // measure 68
1000
0100
1000
0000
0001
0010
0000
0010
0100
0000
1000
0010
0000
0010
0100
0001
,  // measure 69
0100
0001
0010
0000
0010
0001
0000
0010
0100
0000
1000
0001
0000
0010
0001
1000
,  // measure 70
0010
0100
0001
0010
0001
0000
1000
0100
0010
0001
1000
0000
0010
0000
0100
0001
,  // measure 71
0010
0001
1000
0100
0010
0001
1000
0010
0100
0001
1000
0010
0100
0001
0010
0001
,  // measure 72
1000
0100
0010
0100
,  // measure 73
0010
0100
1000
0100
,  // measure 74
0010
0001
0010
0100
,  // measure 75
0010
0001
0010
0100
,  // measure 76
1000
0000
0000
0100
0000
0000
0010
0000
0100
0000
0010
0000
0100
0000
0000
1000
0000
0000
0001
0000
0100
0000
0001
0000
,  // measure 77
0100
0000
0000
0001
0000
0000
1000
0000
0010
0000
1000
0000
0010
0000
0000
0100
0000
0000
0001
0000
1000
0000
0001
0000
,  // measure 78
1000
0100
0010
0001
1000
0100
0010
0001
,  // measure 79
1000
0001
0010
0100
1000
0001
0010
0100
,  // measure 80
2002
0000
0000
0000
,  // measure 81
0000
0000
0000
0000
,  // measure 82
0000
0000
0000
0000
,  // measure 83
3003
0000
0000
0000
;
