#TITLE:Rockface Rumble;
#SUBTITLE:Donkey Kong Country 3;
#ARTIST:Novakovic;
#TITLETRANSLIT:;
#SUBTITLETRANSLIT:;
#ARTISTTRANSLIT:;
#GENRE:;
#CREDIT:;
#BANNER:bn.png;
#BACKGROUND:bg.png;
#LYRICSPATH:;
#CDTITLE:;
#MUSIC:Rockface Rumble.ogg;
#OFFSET:-0.072000;
#SAMPLESTART:7.002000;
#SAMPLELENGTH:30.000000;
#SELECTABLE:YES;
#BPMS:0.000000=200.000000
;
#STOPS:
;
#BGCHANGES:;
#KEYSOUNDS:;
#ATTACKS:;

//---------------dance-single - ----------------
#NOTES:
     dance-single:
     :
     Challenge:
     15:
     0.704788,0.884940,0.654446,0.266093,0.273285,686.000000,595.000000,91.000000,37.000000,0.000000,0.000000,0.704788,0.884940,0.654446,0.266093,0.273285,686.000000,595.000000,91.000000,37.000000,0.000000,0.000000:
0000
0000
0000
0000
,
0000
0000
0000
0000
,
0000
0000
0000
0000
,
0000
0000
0000
0000
,
0000
0000
0000
0000
,
0000
0000
0000
0001
,
1001
0000
0000
0000
0000
0000
1000
0000
0010
0000
1000
0000
0001
0100
0001
0100
,
0010
1000
0001
1000
0010
0000
0100
0000
,
0010
0000
0000
0000
1000
0000
0100
0000
1000
0000
0010
0000
1000
0001
1000
0001
,
1000
0010
0001
0000
0001
0010
1000
0000
,
1010
0000
0000
0000
0100
0000
1000
0000
0100
0000
0010
0000
1000
0010
1000
0010
,
1000
0010
0100
1000
0001
0000
0001
0000
,
0010
0000
0000
0000
0100
0000
0010
0000
0001
0000
0100
0000
0001
1000
0001
1000
,
0001
0100
1000
0000
0100
0010
1000
0000
,
0110
0000
0000
0000
0000
0000
0010
0000
1000
0000
0001
0000
0100
0001
0100
0001
,
0100
0010
0000
1000
0100
0000
0100
0000
,
0010
0000
0000
0000
0000
0000
0001
0000
0100
0000
0010
0000
1000
0010
1000
0010
,
1000
0100
0010
0000
0000
0001
0010
0000
,
0011
0000
0000
0000
0000
0000
0100
0000
0001
0000
0010
0000
0100
0010
0100
0010
,
0100
1000
0100
0001
0100
0000
1000
0000
,
0100
0000
0000
0000
0000
0000
0010
0000
0100
0000
1000
0000
0001
0010
0001
0010
,
0001
1000
0001
0000
0000
0001
0010
0000
,
0100
0000
0010
1000
0010
0001
0100
0000
,
1000
0100
0010
1000
0100
0000
0010
0000
,
0011
0000
0100
0001
1000
0010
1000
0000
,
0100
1000
0001
0000
0100
0001
1000
0000
,
1100
0000
1001
0000
0110
0000
0010
0011
,
0000
0101
0000
1001
0000
1100
0000
0010
,
1010
0000
0110
0000
1001
0000
0100
1100
,
0000
0110
0000
0011
0000
0110
1100
0000
,
1001
0000
0000
0000
0100
0000
0001
0000
0010
0000
0100
0000
1000
0001
1000
0001
,
1000
0100
0010
0001
0000
0000
1010
0000
,
0101
0000
0000
0000
0100
0000
0001
0000
0010
0000
0100
0000
0010
0001
0010
0001
,
0010
0001
0011
0000
0000
1000
1010
0000
,
0110
0000
0101
0000
1010
0000
0100
1100
,
0000
0011
0000
0110
0000
1001
0000
0100
,
0110
0000
1010
0000
1001
0000
0100
1001
,
0000
1100
0000
1001
0000
0101
1100
0000
,
0110
2002
0000
0000
,
0000
0000
0000
0000
,
0000
0000
0000
0000
,
0000
0000
0000
0000
3003
0001
0100
0010
,
2000
0000
0010
0000
0010
0000
3020
0100
,
0230
0001
0000
0001
0302
0010
0023
0100
,
0100
0000
0100
0000
0100
0000
1000
0100
,
0000
0100
0000
0100
0030
0100
1000
0010
,
0100
0000
0000
0000
0000
0010
0000
0000
0000
0000
0001
0000
0000
0000
0000
0020
0000
0000
0000
0000
0000
0000
0000
0000
0000
0000
0000
0000
0000
0000
0000
0000
0000
0000
0000
0000
0032
0000
0000
0000
0000
0000
0000
0000
0000
0000
0000
0000
,
0023
0000
0000
0000
1000
0030
0100
0010
,
0100
0000
0000
0000
0000
0001
0000
0000
0000
0000
0100
0000
0000
0000
0000
0020
0000
0000
0000
0000
0000
0000
0000
0000
0000
0000
0000
0000
0000
0000
0000
0000
0000
0000
0000
0000
0032
0000
0000
0000
0000
0000
0000
0000
0000
0000
0000
0000
,
0023
0000
0000
0230
0000
0000
1300
0000
0000
0001
0100
0010
,
1000
0100
0010
0002
0000
0000
0000
0000
0000
0203
0000
0000
,
0320
0000
2000
0000
0000
0000
3000
0030
,
2020
0000
0000
0000
,
0000
0000
0000
3030
,
1000
0100
0010
0100
1000
0100
0010
0001
0010
0000
0001
0000
0010
0000
0100
0000
,
0010
0000
0001
0000
1000
0010
0100
0001
1000
0000
0010
0000
0100
0000
0001
0000
,
1000
0100
1000
0010
0100
1000
0100
0010
,
1000
0000
0001
0000
0010
0001
1000
0001
0010
0000
0001
0000
0010
0000
0100
0000
,
1000
0010
1000
0000
1010
0000
1000
0010
,
0100
0000
0001
0000
0010
0100
1000
0001
0100
0000
0010
0000
1000
0000
0001
0000
,
0010
0000
0100
0000
1100
0000
1000
0010
,
1000
0000
0100
0000
0010
0100
1000
0010
0100
0000
0001
0000
0100
0000
0000
0000
,
1000
0100
0001
0000
0101
0000
0100
0010
,
1000
0000
0001
0000
0010
0001
0100
0010
1000
0000
0010
0000
0001
0000
0010
0000
,
1000
0000
0010
0000
1100
0000
1000
0010
,
0100
0000
1000
0000
0100
0001
1000
0100
0010
0000
0001
0000
0010
0000
0000
0000
,
1000
0010
0001
0000
1001
0000
0000
0001
,
0010
0000
0100
0000
1000
0010
0100
0001
0010
0000
0001
0000
0000
0000
1000
0000
,
0000
0000
0010
0000
0001
0000
0000
0010
,
0100
0000
0001
0000
0100
0001
1000
0100
0010
0000
0001
0000
0100
0000
0000
0000
,
0001
0100
1000
0000
0100
0000
0000
0001
,
1000
0000
0100
0000
0010
0100
1000
0001
0010
0000
0100
0000
0010
0000
0001
0000
,
1000
0000
0100
0000
0010
0000
0000
0010
,
0001
0000
0010
0000
0100
1000
0010
0100
0001
0000
0010
0000
0100
0000
0000
0000
,
0100
1000
0001
0000
0100
0000
1001
0001
,
1000
0100
0110
0000
0010
0001
0101
0100
,
0001
0000
1010
0000
1000
0000
1010
1000
,
0010
0100
0101
0000
0001
0010
0110
0000
,
1000
0001
0101
0000
0011
0000
0110
0000
,
0011
0000
0010
0110
0000
0110
0000
0110
,
0000
0110
0000
1000
1100
0000
1100
0000
,
1100
0000
0001
0101
0000
1001
0000
1100
,
0000
1100
1001
0000
0101
0000
0010
0100
,
0010
0000
0001
0000
0100
0010
1000
0010
0100
0000
0001
0000
0010
0000
0100
0000
,
0000
0000
0110
0000
1010
0000
1000
0001
,
0010
0000
1000
0000
0010
0001
1000
0100
0010
0000
0100
0000
1000
0000
0000
0000
,
0000
0010
0011
0000
0101
0000
0101
0000
,
0101
0000
1000
1010
0000
1010
0000
1010
,
0000
1010
0000
0100
0110
0000
0011
0000
,
0011
0000
0100
1001
0000
1100
0000
1001
,
0000
1010
0101
0000
1010
0000
1000
0100
,
0010
0000
0001
0000
0010
0100
1000
0100
0010
0000
0100
0000
1000
0000
0010
0000
,
0100
0001
0010
0100
1000
0001
0100
1000
,
0100
0000
0001
0000
0010
0100
1000
0100
0010
0000
0100
0000
1000
0000
0010
0000
,
1000
0100
0010
0100
2000
0000
0100
0000
,
0100
0000
3200
0010
0320
0001
0000
0001
,
0032
0100
0203
0010
0010
0000
0010
0000
,
0010
0000
0001
0010
0000
0010
0000
0010
,
0300
0000
0000
0000
0000
0000
0010
0000
0000
0000
0000
0000
1000
0000
0000
0000
0000
0000
0100
0000
0000
0000
0000
0000
0010
0000
0000
0000
0000
0100
0000
0000
0000
0000
1000
0000
0000
0000
0000
0200
0000
0000
0000
0000
0000
0000
0000
0000
,
0000
2300
3200
0000
,
0001
0000
0000
0000
0000
0000
0300
0000
0000
0000
0000
0000
0100
0000
0000
0000
0000
0000
0010
0000
0000
0000
0000
0000
0100
0000
0000
0000
0000
1000
0000
0000
0000
0000
0010
0000
0000
0000
0000
0200
0000
0000
0000
0000
0000
0000
0000
0000
,
0000
2300
3200
0302
,
0013
0000
0000
1000
0010
0001
0010
1000
0010
0002
0000
0000
,
0000
0203
2300
3002
,
0000
0000
0023
0000
,
0000
0000
0000
0000
,
0000
0000
0000
0000
0030
0000
0000
0000
1000
0010
0100
0001
1000
0001
0100
0010
,
1000
0000
0000
0000
;

//---------------dance-single - ----------------
#NOTES:
     dance-single:
     :
     Hard:
     12:
     0.498283,0.654086,0.373969,0.323627,0.014383,485.000000,433.000000,52.000000,45.000000,0.000000,0.000000,0.498283,0.654086,0.373969,0.323627,0.014383,485.000000,433.000000,52.000000,45.000000,0.000000,0.000000:
// measure 0
0000
0000
0000
0000
,  // measure 1
0000
0000
0000
0000
,  // measure 2
0000
0000
0000
0000
,  // measure 3
0000
0000
0000
0000
,  // measure 4
0000
0000
0000
0000
,  // measure 5
0000
0000
0000
0000
,  // measure 6
1001
0000
0000
1000
0001
0010
0100
0000
,  // measure 7
0100
1000
0010
1000
0010
0000
0100
0000
,  // measure 8
0101
0000
0000
0010
0001
0100
0001
0000
,  // measure 9
1000
0010
1000
0000
0000
0100
1000
0000
,  // measure 10
0101
0000
0000
0100
0001
0010
0100
0000
,  // measure 11
1000
0010
0100
0001
1000
0000
0100
0000
,  // measure 12
1001
0000
0000
1000
0100
0001
0100
0000
,  // measure 13
1000
0010
0001
0000
0000
0010
1000
0000
,  // measure 14
1100
0000
0000
1000
0001
0100
0001
0000
,  // measure 15
0010
0001
0010
0100
1000
0000
0100
0000
,  // measure 16
1001
0000
0000
0100
0001
1000
0100
0000
,  // measure 17
1000
0010
0100
0000
0000
0010
1000
0000
,  // measure 18
0110
0000
0000
1000
0001
0100
0001
0000
,  // measure 19
1000
0100
1000
0001
0100
0000
0001
0000
,  // measure 20
0011
0000
0000
1000
0010
1000
0100
0000
,  // measure 21
1000
0001
0010
0000
0001
0100
0010
0000
,  // measure 22
0100
0000
1001
1000
0001
0100
0001
0000
,  // measure 23
1000
0100
1000
0010
1000
0000
0010
0000
,  // measure 24
0110
0000
0100
0010
1000
0010
0100
0000
,  // measure 25
0001
0100
0001
0000
0000
1000
0010
0000
,  // measure 26
1010
0000
1000
0000
1100
0000
1000
0001
,  // measure 27
0000
0011
0000
0100
0000
0110
0000
1000
,  // measure 28
0100
0000
1000
0000
0101
0000
0100
0001
,  // measure 29
0000
0110
0000
0100
0000
0010
1010
0000
,  // measure 30
0010
0000
1000
0100
0010
0001
1000
0000
,  // measure 31
0001
0100
0001
1000
0000
0000
1100
0000
,  // measure 32
1000
0000
0001
0100
0010
1000
0100
0000
,  // measure 33
0010
0001
0011
0000
0000
0010
0100
0000
,  // measure 34
1100
0000
1000
0000
0010
0000
0100
0001
,  // measure 35
0000
0110
0000
0010
0000
0100
0000
1000
,  // measure 36
0001
0000
0101
0000
1000
0000
0100
1000
,  // measure 37
0000
1010
0000
1000
0000
0100
0110
0000
,  // measure 38
0010
2002
0000
0000
,  // measure 39
0000
0000
0000
0000
,  // measure 40
0000
0000
0000
0000
,  // measure 41
0000
0000
0000
0000
3003
0001
0010
0100
,  // measure 42
2000
0000
0000
3020
,  // measure 43
0230
0000
0302
0023
,  // measure 44
0000
0000
0000
0000
,  // measure 45
0000
0000
0000
0000
0000
0031
1000
0010
,  // measure 46
0200
0000
0000
0302
,  // measure 47
0020
0003
0000
0000
0230
0000
1300
0001
,  // measure 48
0200
0000
0000
0320
,  // measure 49
2030
0000
0000
3200
0000
0000
0302
0000
0000
0103
1000
0010
,  // measure 50
2000
0000
0000
3020
,  // measure 51
0032
0023
0000
0030
,  // measure 52
2002
0000
0000
0000
,  // measure 53
0000
0000
0000
0000
0000
0000
0000
3003
,  // measure 54
0220
0000
0000
0330
1000
0100
0010
0001
,  // measure 55
1000
0010
0100
0001
1000
0001
0100
0010
,  // measure 56
1000
0100
0001
0100
0010
0100
0001
0100
,  // measure 57
1000
0010
0100
0010
0001
0010
0100
0010
,  // measure 58
0001
0010
1000
0000
1010
0000
0000
1000
,  // measure 59
0100
0010
0001
0000
0100
0001
1000
0100
,  // measure 60
1000
0000
0100
0000
1010
0000
0000
0100
,  // measure 61
0001
1000
0100
0000
1000
0001
0100
0000
,  // measure 62
0001
0010
0001
0000
0101
0000
0010
0100
,  // measure 63
1000
0010
0100
0000
0010
1000
0100
0010
,  // measure 64
0001
0000
0100
0000
1001
0000
0000
0100
,  // measure 65
0001
1000
0100
0000
1000
0001
0100
0000
,  // measure 66
0001
1000
0010
0000
1001
0000
0000
1000
,  // measure 67
0001
0010
0001
0000
0100
0001
1000
0100
,  // measure 68
1000
0000
0010
0000
1010
0000
0000
1000
,  // measure 69
0001
0100
0001
0000
0010
0001
0100
0000
,  // measure 70
0001
1000
0100
0000
1001
0000
0000
1000
,  // measure 71
0100
1000
0100
0000
0001
0100
0001
0100
,  // measure 72
1000
0000
0001
0000
1010
0000
0000
1000
,  // measure 73
0010
1000
0010
0000
0001
0010
1000
0000
,  // measure 74
0001
1000
0010
0000
0100
0000
0110
0010
,  // measure 75
0100
1000
0100
0000
1000
0100
0010
1000
,  // measure 76
0100
0000
0100
0000
0110
0000
0010
0001
,  // measure 77
1000
0001
0100
0000
0010
1000
0100
0000
,  // measure 78
1000
0100
0010
0000
0110
0000
0010
0000
,  // measure 79
0101
0000
0100
0001
0000
1000
0000
1100
,  // measure 80
0000
1000
0000
0010
0110
0000
0100
0000
,  // measure 81
0001
0000
0010
0100
0000
1100
0000
1000
,  // measure 82
0000
0001
0101
0000
0100
0000
0001
0010
,  // measure 83
0100
1000
0001
0000
0100
0001
1000
0100
,  // measure 84
0000
0000
1100
0000
1000
0000
0001
0100
,  // measure 85
1000
0100
0001
0000
0010
1000
0010
0000
,  // measure 86
0000
0001
0100
0000
1001
0000
1000
0000
,  // measure 87
1010
0000
1000
0010
0000
0110
0000
0100
,  // measure 88
0000
0001
0000
0010
0011
0000
0010
0000
,  // measure 89
0100
0000
1000
0010
0000
1010
0000
1000
,  // measure 90
0000
0010
0110
0000
0100
0000
2002
0000
,  // measure 91
0000
0000
0000
0000
,  // measure 92
0000
0000
0000
0000
,  // measure 93
0000
0000
0000
0000
,  // measure 94
3003
1000
0010
0100
0002
0000
0000
0000
,  // measure 95
0000
2003
3020
0000
,  // measure 96
0032
0023
0000
0000
,  // measure 97
0000
0000
0000
0000
,  // measure 98
0030
1000
0100
0001
2000
0000
0000
0000
,  // measure 99
0000
3020
0032
0000
,  // measure 100
0203
0000
1300
0100
0020
0000
0000
0000
,  // measure 101
0000
0032
0023
2030
,  // measure 102
3100
0000
0000
0010
0001
0010
0200
0000
0000
0000
0000
0000
,  // measure 103
0000
0320
0032
0203
,  // measure 104
0000
0000
0000
0300
2002
0000
0000
0000
,  // measure 105
0000
0000
0000
0000
,  // measure 106
0000
0000
0000
0000
,  // measure 107
3003
0000
0000
0000
;

//---------------dance-single - ----------------
#NOTES:
     dance-single:
     :
     Medium:
     9:
     0.384243,0.461708,0.093492,0.316435,0.000000,374.000000,361.000000,13.000000,44.000000,0.000000,0.000000,0.384243,0.461708,0.093492,0.316435,0.000000,374.000000,361.000000,13.000000,44.000000,0.000000,0.000000:
0000
0000
0000
0000
,
0000
0000
0000
0000
,
0000
0000
0000
0000
,
0000
0000
0000
0000
,
0000
0000
0000
0000
,
0000
0000
0000
0000
,
0110
0000
1000
0100
,
0010
0001
0000
0000
0000
0000
0010
0000
,
0001
0000
0010
0100
,
1000
0010
0000
0000
0000
0000
1000
0000
,
0010
0000
0000
0100
0001
0000
0010
0000
,
0001
0100
0000
0010
0000
0000
1000
0000
,
0010
0000
0000
1000
0001
0000
0100
0000
,
0010
1000
0000
0000
0000
0100
0010
0000
,
0011
0000
0000
1000
0100
0000
1000
0000
,
0001
0100
0000
0001
0000
0000
1000
0000
,
0010
0000
0000
1000
0100
0000
1000
0000
,
0001
0100
0000
0000
0000
0001
0010
0000
,
0110
0000
0000
1000
0010
0000
0100
0000
,
0001
0010
0000
0100
0000
0000
1000
0000
,
0001
0000
0000
0100
0010
0000
1000
0000
,
0100
0010
0001
0000
0000
0100
0001
0000
,
1001
0000
0000
0100
1000
0000
0010
0000
,
0100
0001
1000
0000
0100
0000
1000
0000
,
0010
0000
0000
1000
0001
0100
0001
0000
,
1000
0100
1000
0000
0000
0010
1000
0000
,
0011
0000
0010
0000
0001
0000
0100
0001
,
0000
1000
0000
0100
0000
1000
0000
0010
,
1000
0000
0010
0000
0100
0000
0001
0010
,
0000
0100
0000
1000
0000
0001
1000
0000
,
1000
0010
0100
0010
,
1000
0100
1000
0100
0000
0000
1000
0000
,
1000
0000
0001
0100
0001
0000
1000
0000
,
0010
1000
0010
0000
0000
0010
0100
0000
,
0110
0000
0100
0000
0001
0000
0010
0100
,
0000
1000
0000
0100
0000
1000
0000
0001
,
0100
0000
0001
0000
1000
0000
0100
1000
,
0000
1000
0000
1000
0000
1000
0001
0000
,
0010
2002
0000
0000
,
0000
0000
0000
0000
,
0000
0000
0000
0000
,
0000
0000
0000
0000
3003
1000
0100
0010
,
0002
0000
0000
2003
,
3020
0000
0230
0302
,
0000
0000
0000
0000
,
0000
0000
0000
0000
0003
0100
0010
1000
,
0020
0000
0000
2030
,
3200
0000
0000
0000
0320
0000
0031
1000
,
0002
0000
0000
0203
,
2300
3200
0302
0013
,
0002
0000
0000
2003
,
3020
0230
0000
0300
,
0202
0000
0000
0000
,
0000
0000
0000
0303
,
1000
0100
0010
0001
0010
0000
0100
0000
,
1000
0000
0001
0100
0001
0000
1000
0000
,
0010
1000
0100
1000
,
0001
0000
0100
0010
0100
0000
0010
0000
,
1000
0000
0100
0000
1000
0000
0000
0001
,
0010
0000
0100
0000
1000
0010
1000
0000
,
0100
0000
1000
0000
0001
0000
0000
0100
,
0001
0000
0010
0000
0100
0010
0100
0000
,
0000
1000
0010
0000
1000
0000
0000
0010
,
0100
0000
0001
0000
0010
0001
0010
0000
,
0000
0000
0100
0000
1000
0000
0000
0010
,
1000
0000
0001
0000
0100
0001
1000
0000
,
0000
0100
1000
0000
0101
0000
0000
1000
,
0100
0000
1000
0000
0010
0100
0010
0000
,
0000
0000
0100
0000
0001
0000
0000
0010
,
0001
0000
1000
0000
0010
1000
0010
0000
,
0000
0010
0100
0000
0110
0000
0000
0100
,
0001
0000
1000
0000
0100
1000
0001
0100
,
0000
0000
0100
0000
0001
0000
0000
0010
,
0001
0000
1000
0000
0010
1000
0010
0000
,
0000
0100
0010
0000
0100
0000
0100
0001
,
1000
0000
0001
0000
1000
0100
1000
0000
,
0010
0000
0100
0000
0110
0000
0000
0100
,
0001
0000
1000
0000
0100
1000
0001
0000
,
0000
0100
0001
0000
0010
0000
0010
0000
,
0010
0000
0010
0001
0000
0001
0000
0001
,
0000
0001
0000
0001
1000
0000
1000
0000
,
1000
0000
1000
0100
0000
0100
0000
0100
,
0000
0010
0100
0000
1000
0000
0001
0000
,
0100
0000
0001
0000
1000
0010
1000
0010
,
0000
0100
0001
0010
,
0100
1000
0100
0000
1000
0001
1000
0000
,
0000
1000
0001
0000
0010
0000
0010
0000
,
0010
0000
0010
0100
0000
0100
0000
0100
,
0000
0100
0000
0100
1000
0000
1000
0000
,
1000
0000
1000
0001
0000
0001
0000
0001
,
0000
1000
0001
0000
1000
0000
0220
0000
,
0000
0000
0000
0000
,
0000
0000
0000
0000
,
0000
0000
0000
0000
,
0330
0010
0100
1000
0002
0000
0000
0000
,
0000
0203
0320
0000
,
0230
0302
0000
0000
,
0000
0000
0000
0000
,
0003
1000
0100
0010
0002
0000
0000
0000
,
0000
2003
3020
0000
,
0230
0000
0301
1000
0200
0000
0000
0000
,
0000
0320
0230
0302
,
0203
0310
0002
0000
,
0000
2003
3020
0230
,
0000
0300
2002
0000
,
0000
0000
0000
0000
,
0000
0000
0000
0000
,
3003
0000
0000
0000
;

//---------------dance-single - ----------------
#NOTES:
     dance-single:
     :
     Easy:
     7:
     0.307189,0.423232,0.201368,0.338010,0.000000,299.000000,271.000000,28.000000,47.000000,0.000000,0.000000,0.307189,0.423232,0.201368,0.338010,0.000000,299.000000,271.000000,28.000000,47.000000,0.000000,0.000000:
0000
0000
0000
0000
,
0000
0000
0000
0000
,
0000
0000
0000
0000
,
0000
0000
0000
0000
,
0000
0000
0000
0000
,
0000
0000
0000
0000
,
1001
0000
1000
0100
,
0010
0001
0010
0100
,
0011
0000
0010
0001
,
0100
0010
1000
0010
,
1010
0000
1000
0100
,
0010
0001
1000
0001
,
1001
0000
1000
0010
,
0100
0001
0000
0001
,
0101
0000
0010
0001
,
0010
0100
1000
0010
,
0110
0000
0100
0010
,
1000
0100
0000
0010
,
0011
0000
0010
0100
,
1000
0001
0100
0010
,
1010
0000
1000
0010
,
0100
0001
0000
0100
,
0001
0011
0000
0110
,
0000
1010
0000
0110
,
0000
0101
0000
1010
,
0000
1001
0000
0011
,
0010
0000
0100
0000
0010
0000
0000
0100
,
0000
0010
0000
0100
0000
0010
0000
0000
,
0100
0000
1000
0000
0010
0000
0000
1000
,
0000
0010
0000
1000
0000
0000
0010
0000
,
1000
0100
1000
0001
,
0100
0001
0010
0100
,
1000
0010
1000
0001
,
0100
1000
0100
0001
,
1000
0000
0100
0000
0010
0000
0000
0100
,
0000
0010
0000
0100
0000
0010
0000
0000
,
0001
0000
1000
0000
0001
0000
0000
1000
,
0000
0010
0000
0100
0000
0000
0001
0000
,
1000
2002
0000
0000
,
0000
0000
0000
0000
,
0000
0000
0000
0000
,
0000
0000
3003
0000
,
0020
0000
0000
0032
,
2000
0003
0000
0000
3020
0000
0230
0000
,
0000
0000
0000
0000
,
0000
0000
0000
0302
,
0023
0000
0000
0230
,
2300
0000
3020
0230
,
0302
0000
0000
2003
,
3020
0230
0302
0013
,
0200
0000
0000
1300
,
0002
0000
0203
0000
0000
0000
0000
0300
,
2002
0000
0000
0000
,
0000
0000
0000
0000
,
3003
0000
0000
0000
,
0000
0000
0000
0000
,
0000
0000
0000
0000
,
0000
0000
0000
0000
,
0000
0001
1000
0100
,
0010
0001
1000
0010
,
0100
0001
1001
0000
,
0100
0010
0001
0100
,
0010
1000
1001
0000
,
1000
0100
0010
0001
,
0010
0100
1001
0000
,
0001
0100
1000
0100
,
0001
0000
1000
0100
,
0001
0100
1000
0010
,
0101
0100
0010
0000
,
1000
0100
0010
0001
,
1001
1000
0010
0000
,
0100
0010
1000
0100
,
0010
0001
0011
0000
,
0010
0001
1000
0010
,
0100
0010
1010
1000
,
0100
0010
0001
1000
,
0010
0100
0101
1000
,
0100
0010
0100
0010
,
0000
0001
0010
0010
,
0010
0000
0000
0001
0000
0001
0000
0001
,
0000
0001
0000
0000
1000
0000
1000
0000
,
1000
0000
0000
0010
0000
0010
0000
0010
,
0000
0100
0100
0010
,
1000
0100
0010
0001
,
1000
0100
0001
0100
,
1000
0001
0100
1000
,
0100
0001
1000
1000
,
1000
0000
0000
0010
0000
0010
0000
0010
,
0000
0010
0000
0000
0100
0000
0100
0000
,
0100
0000
0000
0001
0000
0001
0000
0001
,
0000
0001
0000
2002
,
0000
0000
0000
0000
,
0000
0000
0000
0000
,
0000
0000
0000
3003
,
0000
1000
0200
0000
,
0000
0320
0230
0000
,
2300
3002
0000
0000
,
0000
0000
0000
0000
,
0000
0203
0320
0000
,
0000
2030
3020
0000
,
2030
3002
0023
0000
,
0000
0230
0320
0032
,
0023
0130
2000
0000
,
0000
3000
0002
0000
0023
0000
0230
0000
,
0000
0300
0202
0000
,
0000
0000
0000
0000
,
0000
0000
0000
0000
,
0303
0000
0000
0000
;

//---------------dance-single - ----------------
#NOTES:
     dance-single:
     :
     Beginner:
     4:
     0.161300,0.230854,0.208560,0.186984,0.000000,157.000000,128.000000,29.000000,26.000000,0.000000,0.000000,0.161300,0.230854,0.208560,0.186984,0.000000,157.000000,128.000000,29.000000,26.000000,0.000000,0.000000:
0000
0000
0000
0000
,
0000
0000
0000
0000
,
0000
0000
0000
0000
,
0000
0000
0000
0000
,
0000
0000
0000
0000
,
0000
0000
0000
0000
,
1000
0000
0001
0000
,
1000
0000
0100
0000
,
1000
0000
0001
0000
,
0100
0000
0001
0000
,
1000
0000
0100
0000
,
1000
0000
0010
0000
,
1000
0000
0001
0000
,
0010
0000
0001
0000
,
2000
0000
0000
0000
,
3200
0000
0000
0000
,
0320
0000
0000
0000
,
0000
0000
0000
0000
,
0032
0000
0000
0000
,
2003
0000
0000
0000
,
3020
0000
0000
0000
,
0000
0000
0000
0000
,
1030
0000
0001
0000
,
1000
0000
0010
0000
,
1000
0000
0001
0000
,
0010
0000
0100
0000
,
1001
0000
0000
0000
,
0110
0000
0000
0000
,
1001
0000
0000
0000
,
0110
0000
0000
0000
,
0001
0000
0010
0000
,
0100
0000
1000
0000
,
0001
0000
0100
0000
,
0010
0000
1000
0000
,
1001
0000
0000
0000
,
0110
0000
0000
0000
,
1001
0000
0000
0000
,
0110
0000
0000
0000
,
2002
0000
0000
0000
,
0000
0000
0000
0000
,
0000
0000
0000
0000
,
0000
0000
0000
3003
,
0001
0000
0000
1000
,
0002
0000
0013
0200
,
0000
0000
0000
0000
,
0000
0000
0000
1300
,
0020
0000
0000
0130
,
0002
0000
0023
0000
,
0230
0000
0000
0300
,
1000
0000
0100
0000
,
0110
0000
0000
0000
,
1000
0001
0000
0000
,
2002
0000
0000
0000
,
0000
0000
0000
0000
,
3003
0000
0000
0000
,
0000
0000
0000
0000
,
0000
0000
0000
0000
,
0000
0000
0000
0000
,
0000
0000
1000
0000
,
0010
0000
1000
0000
,
0001
0000
0010
0000
,
0100
0000
1000
0000
,
0010
0000
0100
0000
,
0001
0000
1000
0000
,
0100
0000
1000
0000
,
0010
0000
0100
0000
,
0001
0000
1001
0000
,
0000
0000
0110
0000
,
0000
0000
1001
0000
,
0000
0000
0110
0000
,
0000
0000
1001
0000
,
0000
0000
0110
0000
,
0000
0000
1001
0000
,
0000
0000
0110
0000
,
0000
0000
1000
0000
,
0010
0000
0100
0000
,
0001
0000
1000
0000
,
0010
0000
0100
0000
,
0001
0000
1001
0000
,
0000
0000
0110
0000
,
0000
0000
0110
0000
,
0000
0000
1001
0000
,
0000
0000
1000
0000
,
0010
0000
0100
0000
,
0010
0000
1000
0000
,
0001
0000
0010
0000
,
0001
0000
1001
0000
,
0000
0000
0110
0000
,
0000
0000
1001
0000
,
0000
0000
0110
0000
,
0000
0000
2002
0000
,
0000
0000
0000
0000
,
0000
0000
0000
0000
,
0000
0000
0000
0000
,
3003
0000
0001
0000
,
0000
1000
0002
0000
,
0013
0200
0000
0000
,
0000
0000
0000
0000
,
0000
0310
0002
0000
,
0000
0000
1003
0000
,
0010
0000
0200
0000
,
0000
0000
0301
0000
,
0010
0000
0200
0000
,
0000
0000
2300
0000
,
0000
3000
2002
0000
,
0000
0000
0000
0000
,
0000
0000
0000
0000
,
3003
0000
0000
0000
;
