#TITLE:Ripple Star;
#SUBTITLE:Kirby 64\: The Crystal Shards;
#ARTIST:Jun Ishikawa;
#TITLETRANSLIT:;
#SUBTITLETRANSLIT:;
#ARTISTTRANSLIT:;
#GENRE:;
#CREDIT:;
#BANNER:bn.png;
#BACKGROUND:bg.png;
#LYRICSPATH:;
#CDTITLE:;
#MUSIC:Kirby 64 - Ripple Star.ogg;
#OFFSET:-3.880000;
#SAMPLESTART:43.847000;
#SAMPLELENGTH:30.000000;
#SELECTABLE:YES;
#BPMS:0.000000=143.940002
;
#STOPS:
;
#BGCHANGES:;
#KEYSOUNDS:;
#ATTACKS:;

//---------------dance-single - ----------------
#NOTES:
     dance-single:
     :
     Hard:
     18:
     1.010669,1.108273,0.391484,0.149137,1.500690,759.000000,717.000000,42.000000,16.000000,0.000000,0.000000,1.010669,1.108273,0.391484,0.149137,1.500690,759.000000,717.000000,42.000000,16.000000,0.000000,0.000000:
0000
0000
0000
0000
,
0000
0000
0000
0000
,
1000
0000
0000
0001
0000
0000
0010
0000
0100
0010
0000
0001
0010
0000
0000
0100
0000
0000
1000
0000
0010
0100
0000
0010
,
1000
0000
0000
0010
0000
0000
0100
0000
0001
0010
0000
0100
0010
0000
0000
0001
0000
0000
0010
0000
0100
1000
0000
0010
,
0100
0000
0000
0010
0000
0000
1000
0000
0010
0100
0000
0010
1000
0000
0000
0100
0000
0000
0010
0000
0100
0010
0000
0001
,
0010
0000
0000
0100
0000
0000
0010
0000
0001
0100
0000
0010
0100
0000
0000
0001
0000
0000
0100
0000
0010
1000
0000
0000
,
1010
0000
1010
0000
0000
0000
0000
0000
0000
0101
0000
1001
0000
0000
0000
0010
0000
0000
0010
0000
0000
1000
0000
0000
,
0010
1000
0100
0010
0001
0100
0010
1000
,
0100
0000
0000
0010
0000
0000
0001
0000
0010
0100
0000
0010
0001
0000
0000
0100
0000
0000
0001
0000
0100
0010
0000
1000
,
0010
0000
0000
1000
0000
0000
0100
0000
0010
0100
0000
0010
0001
0000
0000
0100
0000
0000
0001
0000
1000
0010
0000
0100
,
0010
0000
0000
1000
0000
0000
0100
0000
0010
0001
0000
0010
0100
0000
0000
0010
0000
0000
0001
0000
0100
0010
0000
1000
,
0010
0000
0000
0100
0000
0000
0010
0000
1000
0001
0000
1000
0001
0000
0000
0010
0000
0000
0100
0000
0010
0001
0000
0000
,
0011
0000
0011
0000
0000
0000
0000
0000
0000
1001
0000
0011
0000
0000
0000
1000
0000
0000
0010
0000
0000
0100
0000
0000
,
0010
0000
0000
1000
0000
0000
0100
0000
0000
0001
0000
0000
0100
0000
0000
1000
0000
0000
0010
0000
1000
0010
1000
0010
,
2000
0000
3020
0000
,
1030
0000
0001
0100
0000
0010
1000
0000
0010
0100
0000
0001
0010
0000
0001
1000
0000
0010
1000
0000
0001
0100
0000
0110
,
0000
0000
0000
0011
0000
1000
0001
0000
0100
0001
0000
0010
0001
0000
1000
0010
0000
1000
0001
0000
0000
1100
0000
1100
,
0000
0000
0010
1000
0000
0001
1000
0000
0010
1000
0000
0010
0100
0000
0001
0100
0000
0010
1000
0000
0011
0000
0000
0000
,
0101
0000
0000
0010
0100
0010
0100
0000
0000
0110
0000
0000
1000
0010
1000
0010
0000
0000
0110
0000
0000
1000
0100
1000
,
0100
0000
0000
0011
0000
0000
1000
0000
0000
1010
0000
1000
0001
0000
0000
1000
0100
0010
0100
0000
0000
0011
0000
0100
,
0001
0000
0000
0100
0010
0100
0001
0000
0010
0100
0000
1000
0100
0000
0010
0001
0000
1000
0001
0000
0000
0101
0000
0110
,
0000
0000
1000
0100
0000
0010
0100
0000
1000
0100
0000
0010
0001
0000
0010
0100
0000
0010
0001
0000
0000
1010
0000
0100
,
0010
0000
0010
0100
0000
0001
1000
0000
0010
0100
0000
0000
1010
0000
1000
0010
0000
0100
0001
0000
0000
0110
0000
0000
,
0020
0000
0230
0000
,
1300
0000
0001
0100
0000
0010
1000
0000
0001
0010
0000
0100
1000
0000
1000
0001
0000
1000
0010
0000
1000
0100
0000
0010
,
0001
0000
1000
0000
0000
0001
1000
0000
0001
1000
0000
0010
1000
0000
0010
0100
0000
0010
1000
0000
0001
0010
0000
0001
,
0100
0000
0001
1000
0000
0100
1000
0000
0010
0100
0000
0010
1000
0000
0100
0010
0000
0100
0010
0000
0001
0100
0000
0001
,
1000
0000
0010
0100
0000
0010
1000
0000
0100
0010
0000
0001
0010
0000
0001
0100
0000
0010
1000
0000
0100
1000
0000
0001
,
1000
0000
0001
0000
0000
0002
0000
0000
0103
0020
0000
0000
0000
0030
0100
0002
0000
0000
0000
0000
1003
0010
0000
0100
,
0001
0000
0010
0001
0000
2000
0000
0000
3010
0100
0000
0010
1000
0000
0001
1000
0000
1000
0100
0000
0010
0001
0000
0010
,
0100
0000
0010
0001
0000
0010
0100
0000
0010
0001
0000
0010
0100
0000
1000
0100
0000
0010
0100
0000
1000
0100
0000
0010
,
0100
0000
1000
0010
0000
0100
0010
0000
0100
0001
0000
0010
0100
0000
1000
0100
0000
1000
0010
0000
1000
0010
0000
0100
,
0010
1000
0010
1000
0000
0000
0010
0100
0010
0100
0000
0000
0001
0100
0001
0100
0000
0000
0001
1000
0001
1000
0000
0000
,
0100
0010
0100
0010
0100
0010
0100
0010
0100
0010
0100
0010
0100
0010
0100
0010
0100
0010
0100
0010
0100
0010
0100
0010
,
0001
0000
0010
0100
0010
1000
0010
0001
0010
0100
0010
1000
,
0010
0001
0100
1000
0100
0001
0100
0010
1000
0100
1000
0001
,
0001
0000
0100
0000
0000
0001
0010
0000
0000
0100
0000
0010
0000
0000
0001
1000
0000
0000
0010
1000
0010
1000
0000
0010
,
0100
0000
0000
0010
0100
0010
0100
0010
0100
0010
0100
0010
0100
0010
0100
0010
0100
0010
0100
0001
1000
0001
1000
0001
,
1000
0000
0000
0010
0100
0010
0100
0000
0000
0110
0000
0000
0001
0010
0001
0010
0000
0000
0100
0010
0100
1000
0000
0000
,
0100
1000
0001
1000
0000
0000
1001
0000
0000
0001
1000
0001
0010
0000
0000
0011
0000
0000
0110
0000
1000
0000
0100
0000
,
0011
0000
0000
0001
0100
0001
0100
0000
0000
0010
0100
0010
1000
0000
0000
0100
0010
0001
0010
0100
0010
0001
0000
0000
,
0100
0000
0000
1100
0000
0000
1000
0100
0000
0010
0000
0100
0010
0000
0000
0100
0000
1000
0001
0000
1000
0010
0000
0000
,
0110
0000
0000
1000
0010
0100
0010
0000
0000
1010
0000
0000
1000
0001
0100
0001
0000
0000
0100
0000
0000
0110
0000
0000
,
0001
0000
0000
1001
0000
0000
1000
0001
1000
0001
1000
0001
1000
0001
1000
0001
0000
0000
0011
0000
0000
0010
0000
0000
,
0110
0000
0000
0010
0001
0010
0001
0000
0000
0010
0100
0010
0100
0000
0000
1000
0010
1000
0010
0000
0000
0110
0000
0000
,
1000
0000
0000
0010
0000
0000
0100
0010
0000
1010
0000
0000
1000
0000
0000
0100
0000
0000
0101
0000
0000
0001
0000
0000
,
0110
0000
0000
0000
0000
0000
0010
0000
0001
0000
1000
0000
0001
0000
0000
0000
0000
0000
0110
0000
0000
0000
0000
0000
0010
0000
0000
0001
0000
0000
0100
0000
0000
0001
0000
0000
1000
0000
0000
0010
0000
0000
1000
0000
0000
0100
0000
0000
,
0020
0000
0032
0000
,
1003
0000
0001
0010
0000
0100
1000
0000
0010
1000
0000
0001
0100
0000
0010
1000
0000
0001
0010
0000
0100
1000
0000
0001
,
0100
0000
0010
0100
0000
0001
0010
0000
0100
0010
0000
0100
1000
0000
0000
0100
0000
0000
0010
0000
0001
0100
0000
0001
,
1000
0000
0100
0010
0000
0100
1000
0000
0001
0100
0000
0010
0100
0000
0001
0010
0000
0100
1000
0000
0001
0000
0000
0000
,
0100
0000
0010
1000
0000
0001
0010
0000
0001
1000
0000
0100
1000
0000
0001
0100
0000
0010
1000
0000
0100
0010
0000
0001
,
1000
0000
0010
0100
0000
0001
1000
0000
0100
1000
0000
0010
0100
0000
0001
0010
0000
0001
1000
0000
0010
1000
0000
0100
,
0010
0000
0100
1000
0000
0001
0100
0000
0010
1000
0000
0001
0010
0000
0001
1000
0000
0010
1000
0000
0001
1000
0000
1000
,
0100
0000
0100
0010
0000
0010
0001
0000
0001
0010
0000
0010
0100
0000
0100
1000
0000
1000
0001
0000
0001
0100
0000
0100
,
0010
0000
0010
0100
0000
0100
0001
0000
0001
0010
0000
0010
0100
0000
0100
1000
0000
1000
0010
0000
0010
0100
0010
0100
,
0002
0000
0000
0010
0010
0010
2003
0000
0000
0100
0100
0100
,
3002
0000
0000
0000
0023
0000
0000
0000
0230
0000
0000
0000
0320
0000
0000
0030
,
1001
0000
0000
0000
;

//---------------dance-single - ----------------
#NOTES:
     dance-single:
     :
     Challenge:
     19:
     1.175784,1.324522,0.466053,0.121174,2.027329,883.000000,833.000000,50.000000,13.000000,0.000000,0.000000,1.175784,1.324522,0.466053,0.121174,2.027329,883.000000,833.000000,50.000000,13.000000,0.000000,0.000000:
0000
0000
0000
0000
,
0000
0000
0000
0000
,
1000
0000
0000
0100
0000
0000
0010
0000
0100
1000
0000
0010
0100
0000
0000
0010
0000
0000
1000
0000
0001
0010
0000
0100
,
0010
0000
0000
0001
0000
0000
0100
0000
0010
0001
0000
0010
1000
0000
0000
0100
0000
0000
0010
0000
0001
0010
0000
1000
,
0010
0000
0000
0001
0000
0000
0100
0000
0010
1000
0000
0100
0010
0000
0000
0001
0000
0000
0100
0000
0010
1000
0000
0010
,
0001
0000
0000
0010
0000
0000
1000
0000
0100
0001
0000
0100
1000
0000
0000
0100
0000
0000
1000
0000
0001
0100
0000
0010
,
0101
0000
1010
0000
0000
0000
0000
0000
0000
1100
0000
0011
0000
0000
0000
0100
0000
0000
1000
0000
0001
0010
0000
0100
,
1000
0000
0000
1000
0000
0000
0010
0000
0010
0100
0000
0100
0001
0000
1000
0100
0000
0010
0100
0000
0010
0001
0000
0001
,
0100
0000
0100
0010
0000
1000
0010
0000
0000
1000
0000
0000
0100
0000
0010
0001
0000
0100
0001
0000
0000
1000
0000
0000
,
0100
0000
1000
0001
0000
0100
0010
0000
0000
1000
0000
0000
0100
0000
0010
0100
0000
0001
0100
0000
0000
1000
0000
0000
,
0010
0000
0100
0010
0000
0001
0010
0000
0000
1000
0000
0000
0001
0000
0100
0010
0000
0100
1000
0000
0000
0100
0000
0000
,
0010
0000
1000
0100
0000
0010
0100
0000
0000
1000
0000
0000
0010
0000
0001
0010
0000
1000
0100
0000
0001
0100
0000
0010
,
1100
0000
1100
0000
0000
0000
0000
0000
0000
1001
0000
0101
0000
0000
0000
1000
0000
0000
0100
0000
0010
0001
0000
0100
,
1000
0000
0000
0100
0000
0000
0001
0000
1000
0001
0000
0001
0100
0000
0100
0010
0000
0010
0001
0000
0010
1000
0100
0010
,
0002
0000
0000
0000
0000
0000
0000
0000
0000
0000
0000
0000
2003
0000
0000
0000
0000
0000
0000
0000
0000
0000
0000
3000
,
0010
1000
0100
0010
0001
0010
0100
1000
0010
1000
0100
0010
0001
0010
0100
1000
0010
1000
0100
0010
0001
0010
0100
0110
,
0000
0000
0000
0011
0000
0001
0010
0100
1000
0010
1000
0100
0010
0001
0100
0001
0010
0100
1000
0010
0100
0101
0000
0101
,
0000
0000
1000
0010
0100
0001
0100
0010
1000
0100
1000
0010
0100
0001
0100
0010
1000
0100
1000
0001
0101
0000
0000
0000
,
0011
0000
0000
0001
0010
0100
1000
0000
0000
1100
0000
0000
1000
0010
0100
0001
0000
0000
0101
0000
0000
0001
0100
1000
,
0100
0000
0000
0011
0000
0000
1000
0000
0000
0110
0000
0000
0001
0000
0000
1000
0010
0001
0010
0000
0000
1100
0000
0000
,
1000
0000
0000
0010
0100
0001
1000
0000
1000
0001
0010
0100
1000
0001
0100
0001
1000
0100
0010
0001
0100
0101
0000
1010
,
0000
0000
0100
0010
0001
1000
0010
0100
0001
0100
0010
1000
0100
0010
0001
1000
0010
0100
0001
0010
0100
1100
0000
1000
,
1001
0000
0000
1000
0100
0010
0001
1000
0010
0100
0001
1000
1010
0000
0000
1000
0001
0010
0100
0010
0001
0011
0000
0000
,
0020
0000
0000
0000
0000
0000
0000
0000
0000
0000
0000
0000
0230
0000
0000
0000
0000
0000
0000
0000
1300
0010
1000
0010
,
1000
0000
1000
0100
0000
0100
0010
0000
0010
0001
0000
0001
1000
0000
1000
0010
0000
0010
0001
0000
0001
0010
0000
0010
,
1000
0000
0100
0000
0000
0010
0001
0000
0100
0001
0000
0001
0010
0000
0010
0100
0000
0100
1000
0000
1000
0010
0000
0010
,
0100
0000
0100
0010
0000
0010
0001
0000
0001
0010
0000
0010
1000
0000
1000
0001
0000
0001
0010
0000
0010
0100
0000
0100
,
1000
0000
1000
0100
0000
0100
0001
0000
0001
0100
0000
0100
0010
0000
0010
0001
0000
0001
1000
0000
1000
0001
0000
0001
,
0010
0000
1000
0000
0000
0001
0000
0000
1000
0020
0000
0000
0000
0000
0031
0200
0000
0000
0000
0000
0001
0310
0000
0100
,
1000
0000
1000
0010
0000
0200
0000
0000
0310
1000
0000
1000
0100
0000
0100
0010
0000
0010
0100
0000
0100
0010
0000
0010
,
0100
0000
0100
1000
0000
1000
0010
0000
0010
0100
0000
0100
0001
0000
0001
0100
0000
0100
0001
0010
0100
1000
0001
0010
,
0100
0000
1000
0001
0000
0001
0010
0000
0010
1000
0000
1000
0001
0000
0001
0100
0000
0100
1000
0100
0010
0100
0010
0001
,
0010
0100
1000
0100
0010
0001
0010
0100
1000
0100
0010
0001
0010
0100
1000
0100
0010
0001
1000
0100
0010
0100
0010
0001
,
0010
0100
1000
0001
0010
0100
1000
0001
0100
0010
1000
0001
0100
0010
1000
0001
0010
0100
1000
0001
0010
0100
1000
0010
,
0200
0000
0301
0010
1000
0010
0001
0100
0010
0001
1000
0100
,
0010
0001
0010
1000
0100
0001
0100
0010
0001
0010
1000
0010
,
1001
0000
1001
0000
0000
0010
0001
0000
0000
0101
0000
0101
0000
0000
1000
0100
0000
0000
1000
0010
1000
0010
0000
0100
,
0010
0000
0000
1000
0100
0010
0100
1000
0100
0010
0100
0010
0001
0010
0100
0010
0001
1000
0100
1000
0001
0100
0010
1000
,
1001
0000
0000
1000
0010
1000
0100
0000
0000
0110
0000
0000
0010
0001
0100
0001
0000
0000
1000
0100
1000
1001
0000
0000
,
1000
0001
1000
0100
0000
0000
1010
0000
0000
1000
0100
0010
0100
0000
0000
0011
0000
0000
0110
0000
1001
0000
1010
0000
,
1001
0000
0000
0100
0010
1000
0100
0000
0000
1000
0100
0010
0100
0000
0000
0010
0001
0010
0100
0010
0001
1000
0000
0000
,
0100
0000
0000
1001
0000
0000
0100
0010
0000
1000
0000
1000
0100
0000
0001
0000
0000
0100
0010
0000
0010
0001
0000
0000
,
1100
0000
0000
1000
0001
0010
0100
0000
0000
0110
0000
0000
1000
0001
0100
0001
0000
0000
0010
0001
1000
1001
0000
0000
,
0010
0000
0000
1010
0000
0000
1000
0100
0010
0100
1000
0001
0010
0100
1000
0001
0010
0100
0110
0000
0000
0001
0000
0000
,
0110
0000
0000
1000
0001
0100
0010
0000
0000
1000
0100
1000
0001
0000
0000
0010
0100
1000
0001
0100
0001
1001
0000
0000
,
0100
0000
0000
0010
0000
0100
0001
0010
0000
1010
0000
0000
1000
0000
0000
0001
0000
1000
1001
0000
0000
0100
0000
0000
,
0011
0000
0000
0000
0000
0000
1000
0000
0010
0000
0100
0000
0001
0000
0000
0000
0000
0000
0110
0000
0000
0000
0000
0000
0001
0000
0000
0010
0000
0000
1000
0000
0000
0001
0000
0000
0100
0000
0000
1000
0000
0000
0001
0000
0000
0010
0000
0000
,
2000
0000
0000
0000
3020
0000
0000
0030
,
0010
0000
0010
0001
0000
0001
0010
0000
0010
0100
0000
0100
1000
0000
1000
0010
0000
0010
0100
0000
0100
0001
0000
0001
,
1000
0000
1000
0100
0000
0100
0001
0000
0001
0100
0000
0100
0010
0000
0010
1000
0000
1000
0010
0000
0010
0100
0000
0100
,
0001
0000
0001
1000
0000
1000
0010
0000
0010
0001
0000
0001
0010
0000
0100
1000
0000
1000
0100
0000
0001
0100
0000
1000
,
0100
0000
0010
0001
0000
0010
1000
0000
0010
0001
0000
0010
0100
0000
1000
0001
0000
0010
0100
0000
1000
0100
0000
0100
,
1000
0010
1000
0001
0100
0001
1000
0100
1000
0001
0100
0001
1000
0010
1000
0001
0100
0001
1000
0100
1000
0001
0010
0001
,
0010
0100
0010
0001
1000
0001
0100
0010
0100
0001
1000
0001
0010
0100
0010
0100
1000
0100
0010
0100
0010
0001
1000
0100
,
0010
0001
0010
0100
0010
1000
0010
0100
0010
0001
0100
0001
0100
0010
0100
1000
0100
0010
0100
0001
0100
0001
0010
0001
,
0100
0010
1000
0100
1000
0010
0100
0001
0010
0001
0100
0010
1000
0100
1000
0010
0100
0001
0010
0100
1000
0100
0001
0100
,
2000
0000
0000
0100
0001
0001
0100
0000
0000
0001
0001
0100
,
0100
0000
0000
0000
0000
0000
3002
0000
0000
0000
0000
0000
0023
0000
0000
1030
0000
0000
0010
0000
0000
0100
0010
0100
,
1000
0000
0000
0000
;

//---------------dance-single - ----------------
#NOTES:
     dance-single:
     :
     Medium:
     15:
     0.745684,0.892025,0.279632,0.093211,0.671116,560.000000,530.000000,30.000000,10.000000,0.000000,0.000000,0.745684,0.892025,0.279632,0.093211,0.671116,560.000000,530.000000,30.000000,10.000000,0.000000,0.000000:
0000
0000
0000
0000
,
0000
0000
0000
0000
,
1000
0001
0010
1000
0010
0001
1000
0010
,
0100
0010
1000
0100
0010
0001
0100
1000
,
0100
0001
0100
0010
1000
0010
0100
0001
,
0010
0100
1000
0010
0100
0010
1000
0001
,
1000
0000
0100
0000
0000
0000
0000
0000
0000
0010
0000
0001
0000
0000
0000
0001
0000
0000
0010
0000
0000
1000
0000
0000
,
0010
0001
1000
0010
0100
0010
1000
0100
,
1100
1000
0010
1000
0001
0100
0010
1000
,
0001
0010
0100
1000
0001
0100
0110
0010
,
1010
1000
0100
1000
0001
0010
0100
0010
,
0001
0010
0100
0001
0100
0010
0001
1000
,
0100
0000
0010
0000
0000
0000
0000
0000
0000
0001
0000
0010
0000
0000
0000
0100
0000
0000
0010
0000
0000
0001
0000
0000
,
1000
0000
0000
0010
0000
0000
0100
0000
0000
0010
0000
0000
1000
0000
0000
0010
0000
0000
0001
0000
0010
1000
0000
0000
,
0200
0000
0302
0000
,
0103
0000
0000
0001
0000
0000
0100
0000
0000
0010
0000
0000
0001
0000
0000
1000
0000
0000
1000
0000
0000
0010
0000
1000
,
0000
0000
0000
1010
0000
0000
0010
0000
0000
0100
0000
0000
0010
0000
0000
1000
0000
0000
0001
0000
0000
0010
0000
1000
,
0000
0000
0000
0010
0000
0000
0001
0000
0000
0100
0000
0000
0010
0000
0000
0001
0000
0000
0010
0000
0100
0000
0000
0000
,
0110
0000
0000
0000
0000
0010
0100
0000
0000
1001
0000
0000
0000
0000
0010
1000
0000
0000
0101
0000
0000
0000
0000
0001
,
0100
0000
0000
0110
0000
0000
0000
0000
0000
1001
0000
0000
0000
0000
0000
0000
0000
0001
0010
0000
0000
1100
0000
0000
,
0000
0000
0000
0100
0000
1000
0100
0000
0000
0010
0000
0000
0001
0000
0000
0010
0000
0000
0100
0000
0000
0010
0000
0001
,
0000
0000
0000
0010
0000
0000
0100
0000
0000
1000
0000
0000
0001
0000
0000
1000
0000
0100
0010
0000
0000
0001
0000
1000
,
0010
1000
0010
0100
1010
1000
0100
0110
,
0020
0000
0032
0000
,
0013
0000
0001
0010
0000
0000
0100
0000
0010
0001
0000
0000
1000
0000
0100
0010
0000
0000
0001
0000
0100
0010
0000
0000
,
1000
0000
0100
0000
0000
0100
1000
0000
0000
0010
0000
0100
0001
0000
0000
0010
0000
0100
1000
0000
0000
0100
0000
0010
,
0001
0000
0000
0100
0000
0001
1000
0000
0000
0010
0000
1000
0100
0000
0000
0010
0000
0001
0100
0000
0000
0010
0000
1000
,
0010
0000
0000
0100
0000
0010
1000
0000
0000
0100
0000
1000
0001
0000
0000
1000
0000
0001
0100
0000
0000
0001
0000
0000
,
1000
0000
0010
0000
0000
0100
0000
0000
0001
2000
0000
0000
0000
3000
1000
0002
0000
0000
0000
0000
0003
0001
0000
0000
,
1000
0000
0000
0001
0000
0100
0000
0000
0010
1000
0000
0000
0100
0000
0000
1000
0000
0000
0001
0000
0000
0010
0000
0100
,
1000
0000
0000
0100
0000
0000
0010
0000
0000
0001
0000
0000
0100
0000
0000
1000
0000
0000
0100
0000
0001
0010
0000
0100
,
1000
0000
0000
0100
0000
0000
0010
0000
0000
1000
0000
0000
0010
0000
0000
0001
0000
0100
0010
0000
1000
0001
0000
1000
,
0001
0000
0000
0100
0000
0001
0010
0000
0000
0010
0000
0100
1000
0000
0000
0010
0000
0100
0010
0000
0000
1000
0000
0001
,
0010
0000
0001
1000
0000
0001
0100
0000
0010
1000
0000
0010
0100
0000
0001
1000
0000
0001
0100
0000
0010
0100
0000
0001
,
0010
0000
0010
0001
0010
0100
1000
0010
0100
0010
1000
0100
,
1000
0010
0100
0010
1000
0100
0010
0001
0010
0100
1000
0010
,
1000
0000
0001
0000
0000
1000
0010
0000
0000
1000
0000
0100
0000
0000
0010
0001
0000
0000
0010
0000
0001
0010
0000
0001
,
0100
0000
0000
0010
0000
0100
0010
0000
0100
0010
0000
0100
0010
0000
0100
0010
0000
0100
0010
0000
0100
0010
0000
0000
,
1100
0000
0000
0000
0000
0100
1000
0000
0000
1001
0000
0000
0000
0000
0001
0010
0000
0000
0100
0000
0000
0101
0000
0000
,
0000
0000
0001
0010
0000
0000
0110
0000
0000
0000
0000
0010
0001
0000
0000
1010
0000
0000
0100
0000
0010
0000
1000
0000
,
1100
0000
0000
1000
0000
0000
0010
0000
0000
0100
0000
0001
0100
0000
0000
0010
0000
1000
0010
0000
1000
0001
0000
0000
,
0010
0000
0000
0110
0000
0000
0100
0000
0000
1000
0000
0000
0010
0000
0000
1000
0000
0010
0100
0000
0010
0100
0000
0000
,
1010
1000
0100
0110
0010
0001
0001
0101
,
0100
0110
1000
0010
1000
0100
1100
1000
,
0011
0010
0100
1000
0001
0100
0001
0101
,
0100
0010
0100
0110
0100
0010
1010
1000
,
1001
0000
1000
0000
0001
0000
0011
0000
0010
0001
0010
0001
1000
0100
1000
0100
,
0020
0000
0230
0000
,
1300
0000
0100
1000
0000
0000
0010
0000
0100
0001
0000
0000
0010
0000
0100
1000
0000
0000
0010
0000
0100
0001
0000
0000
,
1000
0000
0100
0010
0000
0000
0001
0000
0100
0010
0000
0000
1000
0000
0001
1000
0000
0000
0010
0000
0100
0001
0000
0000
,
0010
0000
0001
1000
0000
0000
0010
0000
1000
0001
0000
0000
0100
0000
0010
1000
0000
0000
0100
0000
1000
0001
0000
0000
,
0010
0000
0100
0010
0000
0000
0001
0000
0100
0010
0000
0000
1000
0000
0001
0100
0000
0000
0010
0000
1000
0001
0000
0000
,
0010
0000
0100
1000
0000
0000
0001
0000
0100
0010
0000
0000
1000
0000
0100
1000
0000
0000
0001
0000
0010
0100
0000
0000
,
1000
0000
0001
0100
0000
0000
0010
0000
1000
0001
0000
0000
1000
0000
0100
1000
0000
0000
0001
0000
1000
0100
0000
1000
,
0100
0000
1000
0100
0000
1000
0001
0000
1000
0001
0000
0100
0001
0000
0100
0001
0000
0100
0010
0000
0100
0010
0000
1000
,
0010
0000
1000
0010
0000
1000
0001
0000
1000
0001
0000
0100
0001
0000
0100
0010
0000
1000
0010
0000
0100
0010
0000
0100
,
0001
0000
0000
0001
1000
0001
2000
0000
0000
3100
0010
0100
,
0020
0000
0000
0000
0000
0000
0000
0000
0000
0000
0000
0000
0031
0000
0000
1000
0000
0000
0001
0000
0000
1000
0000
0001
,
1000
0000
0000
0000
;

//---------------dance-single - ----------------
#NOTES:
     dance-single:
     :
     Easy:
     12:
     0.539290,0.567652,0.223705,0.149137,0.163118,405.000000,381.000000,24.000000,16.000000,0.000000,0.000000,0.539290,0.567652,0.223705,0.149137,0.163118,405.000000,381.000000,24.000000,16.000000,0.000000,0.000000:
// measure 0
0000
0000
0000
0000
,  // measure 1
0000
0000
0000
0000
,  // measure 2
0002
1000
0010
1000
,  // measure 3
0100
0010
0100
2003
,  // measure 4
3200
0010
1000
0001
,  // measure 5
1000
0000
0000
0000
0000
0000
0010
0000
0000
0000
0000
0000
1000
0000
0000
0000
0000
0000
2300
0000
0000
0000
0000
3000
,  // measure 6
0010
0000
0100
0000
0000
0000
0000
0000
0000
0001
0000
1000
0000
0000
0000
1000
0000
0000
0001
0000
0000
0010
0000
0000
,  // measure 7
0100
1000
0010
0001
0010
1000
0001
0010
,  // measure 8
0200
0010
0001
0010
,  // measure 9
1000
0010
1000
0320
,  // measure 10
0032
0010
0100
1000
,  // measure 11
0010
1000
0010
0023
,  // measure 12
0031
0000
1000
0000
0000
0000
0000
0000
0000
0100
0000
0010
0000
0000
0000
0010
0000
0000
0001
0000
0000
1000
0000
0000
,  // measure 13
0010
0100
0010
1000
0100
1000
0001
0010
,  // measure 14
0002
0000
2003
0000
,  // measure 15
3001
0000
0000
0100
0000
0000
0010
0000
0000
0100
0000
0000
0001
0000
0000
0010
0000
0000
0100
0000
0000
0000
0000
0110
,  // measure 16
0000
0000
0000
1100
0000
0000
0100
0000
0000
0010
0000
0000
0001
0000
0000
0100
0000
0000
0001
0000
0000
1000
0000
0010
,  // measure 17
0000
0000
0000
1000
0000
0000
0010
0000
0000
0100
0000
0000
0001
0000
0000
0010
0000
0000
0000
0000
0100
0000
0000
0000
,  // measure 18
0110
0000
0001
0011
0000
1000
1100
0000
,  // measure 19
0001
1001
0000
0110
0000
0100
0001
0011
,  // measure 20
0000
0000
0000
0010
0000
0000
0001
0000
0000
0100
0000
0000
0010
0000
0000
1000
0000
0000
0100
0000
0000
0010
0000
0100
,  // measure 21
0000
0000
0000
1000
0000
0000
0100
0000
0000
0010
0000
0000
0001
0000
0000
0100
0000
0000
0001
0000
0000
1000
0000
0010
,  // measure 22
1000
0010
1000
0100
0010
0001
1000
1001
,  // measure 23
0002
0000
0203
0000
,  // measure 24
0310
1000
0100
0010
0100
1000
0010
0100
,  // measure 25
0001
0000
0100
0000
0000
0000
0010
0000
0000
0100
0000
0000
0001
0000
0000
0010
0000
0000
0100
0000
0000
1000
0000
0000
,  // measure 26
0100
0001
0100
1000
0010
0100
0001
0100
,  // measure 27
1000
0100
0001
0010
0100
0001
0100
1000
,  // measure 28
0010
0000
1000
0000
0000
0001
0000
0000
0000
2000
0000
0000
0000
0000
0000
3002
0000
0000
0000
0000
0000
0103
0000
0000
,  // measure 29
0001
0000
0000
1000
0000
0100
0000
0000
0000
1000
0000
0000
0100
0000
0000
0010
0000
0000
0001
0000
0000
0100
0000
0000
,  // measure 30
0010
0000
0000
0100
0000
0000
0001
0000
0000
0010
0000
0000
0100
0000
0000
1000
0000
0000
0001
0000
1000
0001
0000
1000
,  // measure 31
0001
0010
0100
0010
0001
0010
0100
1000
,  // measure 32
0100
0010
0001
0100
0010
0100
0001
0010
,  // measure 33
0001
0010
0100
1000
0001
0010
0100
1000
,  // measure 34
0001
0000
0001
0010
0000
0010
0100
0000
0100
1000
0000
1000
,  // measure 35
0100
0000
0100
0010
0000
0010
0100
0000
0100
1000
0000
0000
,  // measure 36
1000
0000
0100
0000
0000
0000
0010
0000
0000
0000
0001
0000
0000
0000
0000
0100
0000
0000
0001
0000
0000
1000
0000
0000
,  // measure 37
0100
0010
0100
0010
0100
0010
0001
0010
,  // measure 38
1001
0000
1000
1010
0000
0001
0100
0101
,  // measure 39
0000
0000
0000
0010
0000
0000
0110
0000
0000
0000
0000
0000
1000
0000
0000
0010
0000
0000
1000
0000
0001
0000
1000
0000
,  // measure 40
0001
0010
0100
1000
0100
0001
0100
1000
,  // measure 41
0100
1001
0000
0010
0001
1000
0010
1000
,  // measure 42
1001
0000
0010
0011
0000
0100
0001
0101
,  // measure 43
0000
1010
0010
1000
0001
0010
0011
0000
,  // measure 44
0110
0100
0001
0100
1000
0100
0010
1100
,  // measure 45
0000
0010
0001
0101
0100
0001
1001
0010
,  // measure 46
0110
0100
1000
0001
1000
0100
0010
0001
,  // measure 47
2000
0000
0000
0000
0000
0000
0000
0000
0000
0000
0000
0000
3002
0000
0000
0000
0000
0000
0000
0000
0000
0000
0000
0003
,  // measure 48
1000
0100
0001
0100
1000
0010
0100
0001
,  // measure 49
0010
0100
0001
0100
1000
0010
0100
1000
,  // measure 50
0100
0001
0010
0100
1000
0001
0100
0010
,  // measure 51
0001
0010
0100
0001
0010
0100
1000
0010
,  // measure 52
0100
0001
1000
0100
0010
0001
0010
1000
,  // measure 53
0010
0000
0000
0001
0000
0000
0100
0000
0000
0010
0000
0000
0100
0000
0000
0001
0000
0000
0010
0000
0000
0100
0000
1000
,  // measure 54
0100
0000
0000
1000
0000
0000
0010
0000
0000
0100
0000
0001
0100
0000
0000
0010
0000
0000
0100
0000
0000
0001
0000
0010
,  // measure 55
0100
0000
0000
0010
0000
0000
0100
0000
0000
1000
0000
0010
1000
0000
0000
0001
0000
0000
1000
0000
0000
0001
0000
0010
,  // measure 56
0001
0000
0000
0001
0010
0100
0010
0000
0000
0100
0010
0100
,  // measure 57
1000
0000
0000
0000
0100
1000
0100
1000
,  // measure 58
0001
0000
0000
0000
;

//---------------dance-single - ----------------
#NOTES:
     dance-single:
     :
     Beginner:
     8:
     0.324905,0.378435,0.242347,0.177100,0.055926,244.000000,218.000000,26.000000,19.000000,0.000000,0.000000,0.324905,0.378435,0.242347,0.177100,0.055926,244.000000,218.000000,26.000000,19.000000,0.000000,0.000000:
0000
0000
0000
0000
,
0000
0000
0000
0000
,
0020
0100
0001
0100
,
0001
0100
0001
0230
,
2300
0010
0001
0010
,
0001
0010
0001
3200
,
0310
0000
0001
0000
0000
0000
0000
0000
0000
0001
0000
1000
0000
0000
0000
0000
0000
0000
0001
0000
0000
0000
0000
0000
,
1000
0010
0100
0001
,
2000
0100
0001
0100
,
0010
0001
0010
3020
,
0230
0001
0010
0001
,
0010
0001
0010
0302
,
1003
0000
0010
0000
0000
0000
0000
0000
0000
0010
0000
1000
0000
0000
0000
0000
0000
0000
1000
0000
0000
0000
0000
0000
,
0010
0000
0100
0000
0001
0010
0001
0000
,
2000
0000
3002
0000
,
1003
0000
0000
0000
0000
0000
0010
0000
0000
0000
0000
0000
1000
0000
0000
0000
0000
0000
0001
0000
0000
0000
0000
0010
,
0000
0001
0000
0010
0000
0100
0000
0110
,
0000
0000
0000
1000
0000
0000
0000
0000
0000
0010
0000
0000
0000
0000
0000
1000
0000
0000
0000
0000
0001
0000
0000
0000
,
1000
0000
0000
0110
0000
0000
1001
0000
,
0000
0110
0000
1001
0000
1000
0000
0110
,
0000
0000
0000
0010
0000
0000
0000
0000
0000
0001
0000
0000
0000
0000
0000
1000
0000
0000
0000
0000
0000
0001
0000
0010
,
0000
0100
0000
1000
0000
0100
0000
0010
,
0001
0000
0000
0000
1001
0000
0000
0001
,
2000
0000
3002
0000
,
1003
0100
0010
0001
,
0010
0001
0000
0010
0000
0000
0100
0000
0000
0010
0000
0000
,
0100
1000
0010
0100
,
0001
1000
0100
0010
,
0001
0000
0000
0000
1000
0000
0000
0000
0000
0001
0000
0000
0000
0000
0000
1000
0000
0000
0000
0000
0000
0001
0000
0000
,
1000
0000
0000
0000
0010
0000
0000
0000
0000
1000
0000
0000
0010
0000
0000
0000
0000
0000
0100
0000
0000
0000
0000
0000
,
0010
0000
1000
0000
0100
0000
0010
0001
,
0010
0100
1000
0010
,
0100
0010
1000
0001
,
0010
0001
0010
0100
,
1000
0001
0010
0100
,
1000
0010
0100
0010
,
0100
0000
0010
0000
0000
0000
1000
0000
0000
0000
0001
0000
0000
0000
0000
1000
0000
0000
0001
0000
0000
0000
0000
0000
,
1000
0001
0010
0100
,
0110
0000
0000
1001
0000
0000
0000
1001
,
0000
0000
0110
0000
0000
1001
0000
0000
,
0110
1000
0001
0010
,
0000
0110
0000
1000
0000
0001
0000
0010
,
0110
0000
0000
1001
0000
0000
0000
0110
,
0000
1001
0000
0000
0000
0000
0110
0000
,
1001
0000
0000
0000
0000
0000
0000
0110
,
0000
0000
0000
1001
0000
0000
0110
0000
,
1001
0000
1000
0000
,
0002
0000
0023
0000
,
0031
0010
0100
1000
,
0010
0100
0010
1000
,
0100
0010
0001
0010
,
0001
1000
0010
0100
,
0010
1000
0001
0010
,
0100
1000
0001
0100
,
0010
1000
0010
0000
1000
0001
1000
0000
,
0001
0100
0001
0000
1000
0010
1000
0000
,
1002
0000
0023
0000
,
0230
0320
0032
1003
,
1001
0000
0000
0000
;
