#TITLE:Ridley's Lair;
#SUBTITLE:Super Metroid;
#ARTIST:Kenji Yamamoto;
#TITLETRANSLIT:;
#SUBTITLETRANSLIT:;
#ARTISTTRANSLIT:;
#GENRE:;
#CREDIT:;
#BANNER:bn.png;
#BACKGROUND:bg.png;
#LYRICSPATH:;
#CDTITLE:;
#MUSIC:Ridleys Lair.ogg;
#OFFSET:-0.139000;
#SAMPLESTART:11.063000;
#SAMPLELENGTH:20.000000;
#SELECTABLE:YES;
#BPMS:0.000000=131.830002
;
#STOPS:
;
#BGCHANGES:;
#KEYSOUNDS:;
#ATTACKS:;

//---------------dance-single - ----------------
#NOTES:
     dance-single:
     :
     Challenge:
     11:
     0.473146,0.496058,0.663897,0.119352,0.216326,444.000000,355.000000,89.000000,16.000000,0.000000,0.000000,0.473146,0.496058,0.663897,0.119352,0.216326,444.000000,355.000000,89.000000,16.000000,0.000000,0.000000:
0000
0000
0000
0000
,
0000
0000
0000
0000
,
0000
0000
0000
0000
,
0000
0000
0000
0000
,
0000
0000
0000
0000
,
0000
0000
0000
0000
,
1001
0000
0001
0010
1010
0000
1000
0010
,
0011
0000
0000
1000
0000
0000
1010
0000
0000
1000
0010
0001
,
0012
0000
0010
0000
1000
0000
0010
0003
,
2010
0000
0001
0000
0010
0000
0001
3000
,
0110
0000
0010
0001
0011
0000
0010
0100
,
0110
0000
0000
1000
0000
0000
1010
0000
0000
1000
0010
0100
,
0021
0000
1000
0000
0001
0000
1000
0030
,
0210
0000
1000
0000
0001
0000
1000
0300
,
0110
0000
0010
0001
0011
0000
0010
0100
,
1100
0000
0000
1000
0000
0000
0110
0000
0000
0100
0001
0010
,
2100
0000
0010
0000
0001
0000
0010
3000
,
0120
1000
0001
1030
,
1010
0000
1000
0100
0110
0000
0010
0001
,
0011
0000
0000
0010
0000
0000
0110
0000
0000
0010
0100
1000
,
1200
1000
0010
0301
,
0201
0000
0000
0001
0000
0000
0010
0000
0000
1000
0300
0000
,
1100
0000
1000
0010
0110
0000
0100
0001
,
0011
0000
0000
0010
0000
0000
0110
0000
0000
1000
0100
1000
,
1020
0000
0100
0000
0001
0000
0100
0030
,
0201
1000
0010
1300
,
1010
0000
0100
0001
1100
0000
1000
0100
,
0011
0000
0000
0010
0000
0000
0101
0000
0000
1000
0010
0100
,
0102
0000
0000
0010
0000
0000
0100
0000
0000
1000
0003
0000
,
2010
0000
0100
0000
0010
0000
0001
3000
,
0101
0000
0100
0010
0011
0000
0010
0001
,
0101
0000
0000
1000
0000
0000
1010
0000
0000
0100
0010
1000
,
1020
0000
1000
0000
0001
0000
1000
0030
,
0102
0000
0010
0000
1000
0000
0010
0003
,
0110
0000
0010
0001
0101
0000
1000
0001
,
1010
0000
0000
1000
0000
0000
0110
0000
0000
0010
0001
0010
,
2001
0000
0100
0000
0010
0000
0100
3000
,
0120
0001
1000
0031
,
0011
0000
0000
1000
0000
0000
1100
0000
0000
1000
0100
0010
,
0011
0000
0000
0100
0000
0000
0011
0000
0000
0001
0010
0100
,
1100
0000
0000
1000
0000
0000
0110
0000
0000
1000
0010
0100
,
0011
0000
0000
0100
0000
0000
0101
0000
0000
1000
0001
0100
,
1010
0000
0000
0000
0100
0000
0010
0001
0010
0000
0000
0000
0100
0000
1000
0001
,
1000
0001
0011
0010
,
1100
0000
0000
0000
1000
0000
0010
0100
0001
0000
0000
0000
0100
0000
0001
0100
,
0010
0010
1001
0010
,
0110
0000
0000
0000
0100
0000
0010
0001
0100
0000
0000
0000
0001
0000
0100
0001
,
0010
0100
1001
0010
,
1001
0000
0000
0000
0100
0000
1000
0010
1000
0000
0000
0000
0010
0000
0100
0001
,
0100
0010
1100
0001
,
0110
0000
0000
0000
0010
0000
0001
0010
0001
0000
0000
0000
0100
0000
0010
1000
,
0010
0100
0011
0100
,
1010
0000
0000
0000
1000
0000
0010
0100
0010
0000
0000
0000
1000
0000
0001
0010
,
0001
0000
0000
1000
0000
0000
0110
0000
0000
0100
0001
0010
,
0110
0000
0000
1000
0000
0000
1010
0000
0000
0100
0010
1000
,
1010
0000
0000
1000
0000
0000
0011
0000
0000
0010
0100
1000
,
1001
0000
0000
0100
0000
0000
0011
0000
0000
0100
0010
0001
,
1001
0000
0000
0100
0000
0000
1010
0000
0000
1000
0100
0010
,
0011
0000
0000
0000
0100
0000
0001
0010
0001
0000
0000
0000
0010
0000
0100
0010
,
0100
1000
1010
0100
,
0011
0000
0000
0000
0010
0000
0100
0010
0100
0000
0000
0000
0010
0000
0001
1000
,
0001
0010
0110
0001
,
1010
0000
0000
0000
0010
0000
0100
0001
0100
0000
0000
0000
0010
0000
1000
0100
,
1000
0100
0011
0100
,
1100
0000
0000
0000
0010
0000
1000
0100
1000
0000
0000
0000
0010
0000
0100
0001
,
0100
0001
1001
0100
,
0011
0000
0000
0000
0010
0000
0001
0100
0001
0000
0000
0000
0100
0000
0010
1000
,
0010
0001
0011
1000
,
1010
0000
0000
0000
0010
0000
1000
0001
1000
0000
0000
0000
0010
0000
0100
0001
,
0100
0010
0110
0100
,
1001
0000
0000
0000
;

//---------------dance-single - ----------------
#NOTES:
     dance-single:
     :
     Hard:
     10:
     0.379370,0.417733,0.201407,0.059676,0.208866,356.000000,329.000000,27.000000,8.000000,0.000000,0.000000,0.379370,0.417733,0.201407,0.059676,0.208866,356.000000,329.000000,27.000000,8.000000,0.000000,0.000000:
0000
0000
0000
0000
,
0000
0000
0000
0000
,
0000
0000
0000
0000
,
0000
0000
0000
0000
,
0000
0000
0000
0000
,
0000
0000
0000
0000
,
1001
0000
0001
1000
0001
0000
1000
0001
,
1000
0000
0000
0100
0000
0000
0110
0000
0000
0010
0100
0010
,
0001
0010
0100
0010
,
1100
1000
0010
0100
,
0011
0000
0010
0001
0010
0000
0001
0010
,
0001
0000
0000
0010
0000
0000
1000
0000
0000
0010
0001
1000
,
0010
0100
0001
0010
,
1010
1000
0010
0100
,
0101
0000
0001
0100
0001
0000
0100
0001
,
0100
0000
0000
1000
0000
0000
0100
0000
0000
0001
0010
0100
,
1000
0010
0100
0010
,
1010
0100
0001
0100
,
0110
0000
0010
0100
0010
0000
0100
0010
,
0100
0000
0000
1000
0000
0000
0100
0000
0000
0001
0010
0100
,
0010
0001
1000
0100
,
0101
0100
1000
0001
,
1010
0000
0010
1000
0010
0000
1000
0010
,
1000
0000
0000
0100
0000
0000
0010
0000
0000
0100
0010
0100
,
0001
0100
1000
0001
,
1001
0100
0010
0100
,
0101
0000
0001
0100
0001
0000
0100
0001
,
0100
0000
0000
0010
0000
0000
1000
0000
0000
1000
0100
0010
,
0001
1000
0100
0001
,
0110
0100
1000
0010
,
1001
0000
0001
1000
0001
0000
1000
0001
,
1000
0000
0000
0010
0000
0000
0100
0000
0000
0010
1000
0100
,
0010
0001
0100
1000
,
0101
0010
1000
0010
,
0011
0000
0001
0010
0001
0000
0010
0001
,
0010
0000
0000
1000
0000
0000
0010
0000
0000
0001
1000
0010
,
1000
0100
0010
0100
,
0011
0010
0100
0010
,
2001
0000
0000
0010
0000
0000
0001
3000
0000
1000
0100
0010
,
0002
0000
0000
1000
0000
0000
0010
0000
0000
0103
0010
1000
,
0020
0000
0000
1000
0000
0000
0001
0000
0000
0130
0001
0010
,
0200
0000
0000
1000
0000
0000
0010
0000
0000
1300
0010
1000
,
0100
0000
0000
0000
0000
0000
0001
0010
0001
0000
0000
0000
0000
0000
1000
0010
,
1000
0010
0001
0010
,
1000
0000
0000
0000
0000
0000
0100
0010
0100
0000
0000
0000
0000
0000
0010
0100
,
0010
0100
0001
0100
,
1000
0000
0000
0000
0000
0000
0100
1000
0100
0000
0000
0000
0000
0000
1000
0100
,
1000
0010
0100
0010
,
1000
0000
0000
0000
0000
0000
0001
0100
0001
0000
0000
0000
0000
0000
0100
0001
,
0100
1000
0100
0001
,
0010
0000
0000
0000
0000
0000
0100
1000
0100
0000
0000
0000
0000
0000
1000
0100
,
1000
0010
0001
0010
,
1000
0000
0000
0000
0000
0000
0010
1000
0010
0000
0000
0000
0000
0000
1000
0010
,
1000
0100
0010
0001
,
0021
0000
0000
1000
0000
0000
0100
0000
0000
0031
0010
0100
,
2000
0000
0000
0010
0000
0000
0100
0000
0000
3010
1000
0100
,
0020
0000
0000
0001
0000
0000
0100
0000
0000
0031
1000
0100
,
0020
0000
0000
0001
0000
0000
1000
0000
0000
0031
0010
0100
,
1000
0000
0000
0000
0000
0000
0010
1000
0010
0000
0000
0000
0000
0000
1000
0010
,
1000
0100
0010
0100
,
1000
0000
0000
0000
0000
0000
0001
0100
0001
0000
0000
0000
0000
0000
0100
0001
,
0100
0010
1000
0010
,
0110
0000
0000
0000
0000
0000
0100
0010
0100
0000
0000
0000
0000
0000
0010
0100
,
0010
0010
1000
0100
,
0011
0000
0000
0000
0000
0000
0100
1000
0100
0000
0000
0000
0000
0000
1000
0100
,
1000
0001
0100
0010
,
1001
0000
0000
0000
0000
0000
0001
0010
0001
0000
0000
0000
0000
0000
0010
0001
,
0010
0001
1000
0100
,
1010
0000
0000
0000
0000
0000
0010
1000
0010
0000
0000
0000
0000
0000
1000
0010
,
1000
1001
0110
1001
,
0110
0000
0000
0000
;

//---------------dance-single - ----------------
#NOTES:
     dance-single:
     :
     Medium:
     7:
     0.318628,0.313300,0.313300,0.000000,0.000000,299.000000,257.000000,42.000000,0.000000,0.000000,0.000000,0.318628,0.313300,0.313300,0.000000,0.000000,299.000000,257.000000,42.000000,0.000000,0.000000,0.000000:
0000
0000
0000
0000
,
0000
0000
0000
0000
,
0000
0000
0000
0000
,
0000
0000
0000
0000
,
0000
0000
0000
0000
,
0000
0000
0000
0000
,
1010
0000
0000
0100
0010
0000
0000
0100
,
0010
1000
0001
0010
,
0011
0001
0100
0010
,
0110
1000
0010
1000
,
1001
0000
0000
1000
0001
0000
0000
1000
,
0001
0010
0001
0100
,
0101
0100
0010
0100
,
0110
1000
0010
1000
,
1010
0000
0000
1000
0010
0000
0000
1000
,
0010
0100
0001
0010
,
0011
0010
1000
0010
,
0101
0100
1000
0100
,
0110
0000
0000
0100
0010
0000
0000
0100
,
0010
0100
0001
0010
,
0110
0100
1000
0100
,
0101
0100
0001
0100
,
1001
0000
0000
1000
0001
0000
0000
1000
,
0001
1000
0010
0100
,
0101
0100
0010
0100
,
1010
1000
0010
1000
,
0011
0000
0000
0010
0001
0000
0000
0010
,
0001
0010
0100
1000
,
1100
1000
0100
1000
,
0110
0010
0100
0010
,
0011
0000
0000
0010
0001
0000
0000
0010
,
0001
1000
0010
1000
,
1001
0100
0001
1000
,
1001
0001
1000
0010
,
1001
0000
0000
1000
0010
0000
0000
1000
,
0010
0100
0010
1000
,
0110
0010
0001
0100
,
1010
0010
1000
0001
,
0110
0010
0001
0100
,
1001
0001
0010
0100
,
1010
1000
0100
0010
,
0011
0001
0100
0010
,
1001
0000
0000
1000
0001
0000
0000
1000
,
0010
0100
0010
1000
,
1010
0000
0000
1000
0001
0000
0000
0010
,
0001
0100
0001
1000
,
0110
0000
0000
1000
0010
0000
0000
0100
,
0010
0100
0001
0010
,
0110
0000
0000
0010
0001
0000
0000
1000
,
0001
0100
0010
1000
,
1001
0000
0000
0100
0010
0000
0000
1000
,
0010
1000
0100
0010
,
0011
0000
0000
0100
0001
0000
0000
0100
,
0010
0100
0001
0010
,
1100
0010
0100
1000
,
0010
0100
1000
0100
,
0001
1000
0100
0001
,
0100
0010
0001
0100
,
0110
0000
0000
1000
0010
0000
0000
0100
,
0010
0100
0001
0010
,
1100
0000
0000
1000
0010
0000
0000
0100
,
0010
0100
0001
1000
,
1100
0000
0000
1000
0100
0000
0000
0001
,
0100
1000
0010
0100
,
0011
0000
0000
0010
0001
0000
0000
0010
,
1000
0010
0100
1000
,
1010
0000
0000
1000
0100
0000
0000
0001
,
0100
1000
0010
0100
,
0101
0000
0000
0001
0010
0000
0000
1000
,
0010
0001
1000
0010
,
0110
0000
0000
0000
;

//---------------dance-single - ----------------
#NOTES:
     dance-single:
     :
     Easy:
     5:
     0.222720,0.287191,0.238704,0.000000,0.000000,209.000000,177.000000,32.000000,0.000000,0.000000,0.000000,0.222720,0.287191,0.238704,0.000000,0.000000,209.000000,177.000000,32.000000,0.000000,0.000000,0.000000:
0000
0000
0000
0000
,
0000
0000
0000
0000
,
0000
0000
0000
0000
,
0000
0000
0000
0000
,
0000
0000
0000
0000
,
0000
0000
0000
0000
,
1000
0000
0001
0000
,
1000
0010
1000
0000
,
1001
0000
0010
0000
,
0001
0000
0010
0000
,
0110
0000
0100
0000
,
1000
0010
1000
0000
,
1010
0000
1000
0000
,
0001
0000
0100
0000
,
0011
0000
0010
0000
,
0001
0010
0001
0000
,
0101
0000
1000
0000
,
0010
0000
1000
0000
,
1010
0000
1000
0000
,
0100
1000
0100
0000
,
1001
0000
0001
0000
,
0100
0000
0100
0000
,
0110
0000
0010
0000
,
1000
0010
1000
0000
,
1010
0000
1000
0000
,
0001
0000
0001
0000
,
0110
0000
0100
0000
,
0010
0100
0010
0000
,
0110
0000
0100
0000
,
0001
0000
0001
0000
,
0011
0000
0010
0000
,
0100
0010
0100
0000
,
0010
0000
0010
0000
,
0001
0000
0001
0000
,
1010
0000
0010
0000
,
0100
0001
0100
0000
,
0010
0000
0010
0000
,
1000
0000
1000
0000
,
0001
0100
1000
0100
,
0001
1000
0100
0001
,
0100
1000
0100
0010
,
0001
0010
0100
0001
,
0100
0000
0101
0000
,
0110
1000
0010
1000
,
1010
0000
1010
0000
,
1010
0100
0010
0100
,
0101
0000
0101
0000
,
0101
0001
1000
0100
,
0110
0000
0110
0000
,
0110
0001
0100
0010
,
1010
0000
1010
0000
,
1010
0100
1000
0001
,
0101
0000
0101
0000
,
0101
0010
0001
1000
,
0010
1000
0100
0010
,
0001
1000
0010
0001
,
0010
1000
0100
0010
,
0001
1000
0100
0001
,
0100
0000
1100
0000
,
0100
0010
0001
0010
,
0100
0000
0010
0000
,
0010
0001
0100
0001
,
0010
0000
0100
0000
,
1000
0010
1000
0100
,
1000
0000
0001
0000
,
0100
0001
0010
0100
,
1000
0000
0010
0000
,
1000
0100
0001
0100
,
1000
0000
0001
0000
,
0100
1000
0100
0001
,
0101
0000
0000
0000
;

//---------------dance-single - ----------------
#NOTES:
     dance-single:
     :
     Beginner:
     3:
     0.138534,0.156650,0.067136,0.119352,0.000000,130.000000,121.000000,9.000000,16.000000,0.000000,0.000000,0.138534,0.156650,0.067136,0.119352,0.000000,130.000000,121.000000,9.000000,16.000000,0.000000,0.000000:
// measure 0
0000
0000
0000
0000
,  // measure 1
0000
0000
0000
0000
,  // measure 2
0000
0000
0000
0000
,  // measure 3
0000
0000
0000
0000
,  // measure 4
0000
0000
0000
0000
,  // measure 5
0000
0000
0000
0000
,  // measure 6
0001
0000
1000
0000
,  // measure 7
0001
0000
0010
0000
,  // measure 8
0100
0000
0100
0000
,  // measure 9
0010
0000
0010
0000
,  // measure 10
0001
0000
1000
0000
,  // measure 11
0010
0000
1000
0000
,  // measure 12
0100
0000
0100
0000
,  // measure 13
0010
0000
0010
0000
,  // measure 14
0001
0000
1000
0000
,  // measure 15
0001
0000
0010
0000
,  // measure 16
0100
0000
0100
0000
,  // measure 17
1000
0000
1000
0000
,  // measure 18
0010
0000
0100
0000
,  // measure 19
0010
0000
1000
0000
,  // measure 20
0100
0000
0100
0000
,  // measure 21
0010
0000
0010
0000
,  // measure 22
0001
0000
1000
0000
,  // measure 23
0001
0000
0010
0000
,  // measure 24
0100
0000
0100
0000
,  // measure 25
1000
0000
1000
0000
,  // measure 26
0001
0000
0010
0000
,  // measure 27
0100
0000
1000
0000
,  // measure 28
0001
0000
0001
0000
,  // measure 29
1000
0000
1000
0000
,  // measure 30
0010
0000
0100
0000
,  // measure 31
0001
0000
1000
0000
,  // measure 32
0100
0000
0100
0000
,  // measure 33
0010
0000
0010
0000
,  // measure 34
0001
0000
1000
0000
,  // measure 35
0001
0000
1000
0000
,  // measure 36
0010
0000
0010
0000
,  // measure 37
0100
0000
0100
0000
,  // measure 38
2002
0000
0000
3003
,  // measure 39
0220
0000
0000
0330
,  // measure 40
2002
0000
0000
3003
,  // measure 41
0220
0000
0000
0330
,  // measure 42
0010
0000
0010
0000
,  // measure 43
0001
0000
1000
0000
,  // measure 44
0010
0000
0010
0000
,  // measure 45
0100
0000
0100
0000
,  // measure 46
0001
0000
1000
0000
,  // measure 47
0010
0000
0100
0000
,  // measure 48
0001
0000
0010
0000
,  // measure 49
0100
0000
1000
0000
,  // measure 50
0001
0000
1000
0000
,  // measure 51
0010
0000
1000
0000
,  // measure 52
0001
0000
0010
0000
,  // measure 53
0001
0000
0100
0000
,  // measure 54
0001
0000
0001
0000
,  // measure 55
1000
0000
1000
0000
,  // measure 56
0001
0000
0001
0000
,  // measure 57
0010
0000
0010
0000
,  // measure 58
0100
0000
1000
0000
,  // measure 59
0010
0000
1000
0000
,  // measure 60
0001
0000
1000
0000
,  // measure 61
0001
0000
0010
0000
,  // measure 62
0220
0000
0000
0330
,  // measure 63
2002
0000
0000
3003
,  // measure 64
2020
0000
0000
3030
,  // measure 65
0202
0000
0000
0303
,  // measure 66
0010
0000
0010
0000
,  // measure 67
0100
0000
0100
0000
,  // measure 68
1000
0000
1000
0000
,  // measure 69
0010
0000
0010
0000
,  // measure 70
1001
0000
0000
0000
;
