#TITLE:Ragnarok Canyon;
#SUBTITLE:Battletoads;
#ARTIST:David Wise;
#TITLETRANSLIT:;
#SUBTITLETRANSLIT:;
#ARTISTTRANSLIT:;
#GENRE:;
#CREDIT:;
#BANNER:bn.png;
#BACKGROUND:bg.png;
#LYRICSPATH:;
#CDTITLE:;
#MUSIC:Ragnarok Canyon.ogg;
#OFFSET:-0.080000;
#SAMPLESTART:11.314000;
#SAMPLELENGTH:30.000000;
#SELECTABLE:YES;
#BPMS:0.000000=107.370003
;
#STOPS:18.500000=0.559000,
137.500000=0.559000
;
#BGCHANGES:;
#KEYSOUNDS:;
#ATTACKS:;

//---------------dance-single - ----------------
#NOTES:
     dance-single:
     :
     Hard:
     13:
     0.670463,0.732594,0.253493,0.115882,1.129853,648.000000,613.000000,35.000000,16.000000,0.000000,0.000000,0.670463,0.732594,0.253493,0.115882,1.129853,648.000000,613.000000,35.000000,16.000000,0.000000,0.000000:
0000
0000
0000
0000
,
0000
0000
0000
0000
,
1000
0100
0010
0100
,
0001
0100
0010
0100
,
1010
0000
0000
0000
1000
0010
0000
0000
2020
0000
0000
3030
1000
0100
0100
0010
,
0001
0010
0001
0001
0100
0010
0010
1000
0010
1000
0010
0010
1000
0000
0010
0000
,
1000
0100
0000
0010
0000
0001
1000
0000
0010
1000
0000
0000
0100
0000
0010
0000
,
0001
1000
0000
0010
0000
1000
0001
0000
0100
0001
0000
0000
0001
0100
0100
0001
,
0010
0001
1000
1000
0010
1000
1000
0010
1000
0100
1000
1000
0001
0000
0010
0100
,
0000
1100
0000
1001
0000
0000
1000
0010
0000
1100
0000
0000
1000
0000
0001
0000
,
0010
0001
0000
0100
0000
0001
1000
0000
0010
1000
0000
0000
0100
0000
0010
0000
,
0001
0100
0000
0010
0000
1000
0100
0000
1000
0010
0000
0000
0100
0000
0010
0000
,
1000
0100
0000
1000
0000
0001
0100
0000
0001
0010
0000
0000
0001
0000
1000
0000
,
0010
1000
0000
0010
0000
0100
0010
0000
1000
0001
0000
0000
0020
0000
0000
0000
,
0000
0031
0000
1000
0000
0010
0100
0000
0010
1000
0100
0010
0002
0000
0000
0000
,
0000
1003
0000
0010
0000
0100
0010
0000
1000
0100
0010
0001
2000
0000
0000
0000
,
0000
3010
0000
0100
0000
0001
0010
0000
0100
1000
0001
0100
0020
0000
0000
0000
,
0030
1000
0000
0100
0000
0010
0001
0000
1000
0010
0100
0010
2000
0000
0000
0000
,
0000
3010
0000
0100
0000
0001
0010
0000
0100
1000
0001
0100
0002
0000
0000
0000
,
0003
0010
0000
0001
0000
1000
0010
0000
1000
0010
0100
0010
1000
0100
0010
0001
,
0100
0001
1000
0010
1000
0000
0100
1000
0001
0010
0100
1000
0001
0100
0010
1000
,
0100
1000
0001
0100
0001
0000
0010
0001
0100
0001
1000
0010
1000
0100
1000
0010
,
0100
0001
0010
0001
0100
0000
0100
0001
0010
0100
1000
0010
1000
0010
0100
0010
,
1000
0100
0010
0001
0010
0000
0001
0010
0100
1000
0001
0100
0010
1000
0010
1000
,
0000
0110
0000
1010
0000
0000
0010
1000
0000
1010
0000
0010
1000
0100
0010
0001
,
0000
0011
0000
1001
0000
0000
0010
0001
0000
0101
0000
0001
0010
0001
0010
0100
,
0000
1001
0000
0011
0000
0000
1000
0010
0000
1010
0000
0010
1000
0100
0010
0001
,
0000
0110
0000
0011
0000
0000
1000
0001
0000
1001
0000
0010
1000
0100
0010
0001
,
0100
0001
1000
0100
1000
0010
0100
0001
1000
0100
1000
0010
0100
0010
1000
0100
,
0010
0100
0001
0100
0010
0100
1000
0001
0100
0010
0100
0010
1000
0000
0010
0000
,
1000
0100
0000
1000
0000
0001
0010
0000
0001
1000
0000
0000
0010
0000
0100
0000
,
0010
1000
0000
0010
0000
1000
0001
0000
0010
0001
0000
0000
0010
0000
0100
0000
,
0010
0001
0000
1000
0000
0010
1000
0000
0010
0100
0000
0000
0010
0000
1000
0000
,
0100
0010
0000
0100
0000
0010
0100
0000
0100
1000
0000
0000
1010
0000
0000
0000
,
0100
0010
0000
0000
0220
0000
0000
0330
1000
0100
0100
0010
0100
0010
0001
0001
,
0010
0001
0001
0100
0001
1000
0001
0001
1000
0000
1000
0000
1000
0010
0000
1000
,
0000
1000
1000
0000
1000
0010
0000
0000
0100
0000
0100
0000
0100
0010
0000
0100
,
0000
0100
0100
0000
0100
0001
0000
0000
0001
0010
0010
0100
1000
0100
1000
1000
,
0010
1000
1000
0001
0100
0001
0100
0100
0001
0000
0001
0010
0000
0101
0000
1001
,
0000
0000
0001
0100
0000
1010
0000
0000
1000
0000
0010
0000
1000
0100
0000
0010
,
0000
0100
0010
0000
0100
0001
0000
0000
0100
0000
1000
0000
0001
1000
0000
0001
,
0000
1000
0010
0000
0001
0010
0000
0000
0100
0000
0010
0000
0100
0001
0000
1000
,
0000
0100
0001
0000
0100
1000
0000
0000
0010
0000
1000
0000
0001
0010
0000
0001
,
0000
0100
1000
0000
0100
0001
0000
0000
0002
0000
0000
0000
0000
1003
0000
0010
,
0000
0100
0100
0000
0010
1000
0100
0010
0002
0000
0000
0000
0000
0103
0000
0010
,
0000
0100
0100
0000
0001
0010
1000
0010
0002
0000
0000
0000
0000
1003
0000
0100
,
0000
0010
0001
0000
0100
0001
1000
0001
0200
0000
0000
0000
0000
0301
0000
0010
,
0000
0100
0100
0000
1000
0100
0010
0100
0002
0000
0000
0000
0000
0103
0000
0010
,
0000
0100
0100
0000
1000
0001
0100
0001
2000
0000
0000
0000
0000
3001
0000
0010
,
0000
1000
0010
0000
0001
0100
1000
0100
0010
0100
0001
0010
0100
1000
0001
0010
,
0010
0000
0001
0100
0010
0001
0010
1000
0100
0010
0001
0010
1000
0010
0100
1000
,
1000
0000
0010
0100
1000
0100
0010
0100
0001
0010
0100
1000
0100
0010
0001
1000
,
1000
0000
0100
0010
1000
0010
0100
1000
0010
0100
0010
0100
0001
0010
0100
0010
,
0010
0000
0100
0010
0001
0010
1000
0010
0001
0100
0010
1000
0000
1010
0000
1010
,
0000
0000
1000
0100
0000
1001
0000
0001
0010
0100
0010
0100
0000
0110
0000
0110
,
0000
0000
0010
0100
0000
1010
0000
0010
1000
0100
0010
0001
0000
0011
0000
1001
,
0000
0000
0010
1000
0000
0101
0000
0010
0001
1000
0100
1000
0000
1100
0000
0011
,
0000
0000
1000
0010
0000
0101
0000
1000
0001
0100
0010
1000
0001
0010
0100
0010
,
0001
1000
0010
0100
0010
1000
0100
0010
0001
0100
1000
0100
0001
0010
0100
1000
,
0010
0001
0010
1000
0100
0010
0001
0010
0011
0000
0000
0000
0000
0000
0000
0000
;

//---------------dance-single - ----------------
#NOTES:
     dance-single:
     :
     Medium:
     10:
     0.480084,0.452485,0.079669,0.115882,0.590276,464.000000,453.000000,11.000000,16.000000,0.000000,0.000000,0.480084,0.452485,0.079669,0.115882,0.590276,464.000000,453.000000,11.000000,16.000000,0.000000,0.000000:
// measure 0
0000
0000
0000
0000
,  // measure 1
0000
0000
0000
0000
,  // measure 2
1000
0001
1000
0001
,  // measure 3
1000
0001
1000
0001
,  // measure 4
0110
0000
0000
0000
0010
0001
0000
0000
2002
0000
0000
3003
1000
0000
0010
0000
,  // measure 5
1000
0010
1000
0100
0010
0100
0010
0001
,  // measure 6
0010
0001
0000
0010
0000
0000
0100
0000
0010
0100
0000
0000
1000
0000
0010
0000
,  // measure 7
1000
0001
0000
0100
0000
0000
0001
0000
0010
0100
0000
0000
1000
0000
0010
0000
,  // measure 8
1000
0000
0001
0000
0100
0000
0010
0000
1000
0000
0100
0000
0010
0000
0001
0010
,  // measure 9
0000
0011
0000
0010
0000
0000
0001
1000
0000
1001
0000
0000
1000
0000
0010
0000
,  // measure 10
0100
0010
0000
0100
0000
0010
1000
0000
0010
1000
0000
0000
0100
0000
1000
0000
,  // measure 11
0001
0010
0000
0001
0000
1000
0001
0000
0100
0010
0000
0000
1000
0000
0001
0000
,  // measure 12
0010
0001
0000
0100
0000
0001
1000
0000
0100
1000
0000
0000
0100
0000
0001
0000
,  // measure 13
0100
1000
0000
0010
0000
1000
0010
0000
0001
0010
0000
0000
2000
0000
0000
0000
,  // measure 14
3000
0010
0000
1000
0000
0100
0010
0000
0001
0000
0010
0000
0200
0000
0000
0000
,  // measure 15
0000
1300
0000
0010
0000
0100
0010
0000
1000
0000
0100
0000
0020
0000
0000
0000
,  // measure 16
0000
0031
0000
1000
0000
0010
1000
0000
1000
0000
0100
0000
0020
0000
0000
0000
,  // measure 17
0000
0031
0000
1000
0000
1000
0010
0000
1000
0000
0001
0000
0020
0000
0000
0000
,  // measure 18
0000
0130
0000
1000
0000
0100
0010
0000
0001
0000
0010
0000
0200
0000
0000
0000
,  // measure 19
0000
1300
0000
0010
0000
1000
0010
0000
1000
0000
0001
0000
0010
0000
0100
0000
,  // measure 20
1000
0010
0100
0001
1000
0100
0001
0100
,  // measure 21
1000
0010
1000
0010
0100
0001
0010
0100
,  // measure 22
1100
0010
0001
1000
1100
0100
0010
0001
,  // measure 23
0101
0000
0100
0000
0010
0000
1000
0000
1010
0000
0010
0000
0100
0010
0000
1000
,  // measure 24
0000
0010
0000
1000
0000
0000
0000
0010
0000
1000
0000
0000
0010
0000
1000
0100
,  // measure 25
0000
0010
0000
0100
0000
0000
0000
0010
0000
0100
0000
0010
0001
0000
0010
0100
,  // measure 26
0000
0010
0000
0001
0000
0000
0000
0010
0000
0100
0000
1000
0010
0000
0100
0010
,  // measure 27
0000
0010
0000
1000
0000
0000
0010
1000
0000
0010
0000
1000
0010
0000
1000
0000
,  // measure 28
0100
0010
0100
0001
0100
1000
0100
1000
,  // measure 29
0010
0100
0010
0001
0010
1000
0001
0010
,  // measure 30
0001
0010
0000
0100
0000
0010
0100
0000
1000
0010
0000
0000
1000
0000
0001
0000
,  // measure 31
1000
0001
0000
0100
0000
0001
0010
0000
0001
1000
0000
0000
0010
0000
1000
0000
,  // measure 32
0010
0100
0000
0010
0000
1000
0010
0000
0100
0001
0000
0000
0100
0000
0001
0000
,  // measure 33
0010
0001
0000
1000
0000
0010
1000
0000
0010
0100
0000
0000
0110
0000
0000
0000
,  // measure 34
1000
0010
0000
0000
2020
0000
0000
3030
1000
0000
0100
0000
0010
0000
0001
0010
,  // measure 35
0000
0001
0010
0000
0100
0000
1000
0000
0010
0000
1000
0000
0001
0100
0000
0001
,  // measure 36
0000
1000
0010
0000
1000
0010
0000
0000
1000
0000
0100
0000
0010
0100
0000
0010
,  // measure 37
0000
0001
0010
0000
0001
1000
0000
0000
0001
0000
1000
0000
0010
0000
1000
0100
,  // measure 38
0000
0010
0100
0000
0010
0000
0001
0000
1000
0000
0000
0010
0000
1000
0000
0010
,  // measure 39
0000
0000
0100
0010
0000
1000
0000
0000
0010
0000
1000
0000
0100
0010
0000
0100
,  // measure 40
0000
0010
0001
0000
1000
0001
0000
0000
1000
0000
0010
0000
0100
0010
0000
1000
,  // measure 41
0000
0001
1000
0000
0001
0010
0000
0000
0100
0000
1000
0000
0001
0100
0000
0010
,  // measure 42
0000
1000
0100
0000
0010
0001
0000
0000
1000
0000
0010
0000
1000
0001
0000
0100
,  // measure 43
0000
0001
1000
0000
0100
0010
0000
0000
0002
0000
0000
0000
0000
1003
0000
0010
,  // measure 44
0000
0100
0010
0000
1000
0000
0001
0000
0020
0000
0000
0000
0000
0031
0000
0010
,  // measure 45
0000
0100
1000
0000
0010
0000
1000
0000
0002
0000
0000
0000
0000
0103
0000
0010
,  // measure 46
0000
1000
0010
0000
1000
0000
0100
0000
0020
0000
0000
0000
0000
0031
0000
0010
,  // measure 47
0000
0001
1000
0000
0001
0000
1000
0000
0020
0000
0000
0000
0000
1030
0000
0010
,  // measure 48
0000
0100
0010
0000
1000
0000
0100
0000
0020
0000
0000
0000
0000
0031
0000
0010
,  // measure 49
0000
0001
1000
0000
0010
0000
1000
0000
0100
0000
0010
0000
0001
0000
1000
0000
,  // measure 50
0010
0100
0010
1000
0100
0010
0100
0001
,  // measure 51
0100
0010
0001
0100
0010
0001
0010
1000
,  // measure 52
0100
0010
1000
0010
0100
1000
0010
0100
,  // measure 53
1000
0000
0100
0000
0010
0000
1000
0000
0001
0010
0000
0001
0000
0010
0000
0100
,  // measure 54
0000
0000
0000
1000
0000
0010
0000
1000
0100
0000
0010
0001
0000
0100
0000
0001
,  // measure 55
0000
0000
0000
1000
0000
0010
0000
1000
0100
0000
0010
0001
0000
0100
0000
0001
,  // measure 56
0000
0000
0000
1000
0000
0100
0000
0100
1000
0000
0010
1000
0000
0001
0000
0100
,  // measure 57
0000
0000
0001
0010
0000
0001
0000
1000
0001
0000
1000
0000
0100
0000
0001
0000
,  // measure 58
0100
1000
0010
0001
0010
1000
0100
0010
,  // measure 59
0100
1000
0010
0100
0110
0000
0000
0000
;

//---------------dance-single - ----------------
#NOTES:
     dance-single:
     :
     Easy:
     5:
     0.226591,0.258563,0.072427,0.086912,0.000000,219.000000,209.000000,10.000000,12.000000,0.000000,0.000000,0.226591,0.258563,0.072427,0.086912,0.000000,219.000000,209.000000,10.000000,12.000000,0.000000,0.000000:
0000
0000
0000
0000
,
0000
0000
0000
0000
,
0000
0000
0000
0000
,
0000
0000
0000
0000
,
1000
0001
1001
1000
,
0010
0000
0100
0000
0010
0000
1000
0001
,
1000
0000
0010
0000
0100
0000
0010
1000
,
0010
0100
0010
1000
,
0001
0010
0001
1000
,
0000
0000
0000
0100
,
0010
1000
0001
0010
,
0100
0010
0001
1000
,
0010
0001
0010
1000
,
0100
0001
0100
2000
,
0100
0001
0100
3002
,
1000
0010
1000
0023
,
0001
0100
0001
0230
,
0010
1000
0010
2300
,
0100
0001
0100
3002
,
0100
1000
0100
0013
,
1000
0000
0100
0000
0010
0001
0010
0000
,
0100
0000
0010
0000
0001
1000
0001
0000
,
0001
0000
1000
0000
0010
0100
0010
0000
,
0100
0000
0001
0000
1000
0001
1000
0000
,
0000
0000
0000
1001
,
0000
0000
0000
1001
,
0000
0000
0000
1001
,
0000
0000
0000
1000
,
0100
0010
0001
1000
,
0010
0100
0001
1000
,
0100
0010
0001
0010
,
0001
1000
0010
1000
,
0001
0100
0001
0010
,
0100
1000
0001
1001
,
0100
1001
1000
0010
,
0100
0010
0100
0001
,
0010
0001
1000
0001
,
1000
0010
1000
0010
,
0100
0001
1001
0000
,
0000
0000
1000
0010
,
1000
0010
0100
0000
0010
0000
0100
0000
,
0001
1000
0001
0000
0100
0000
0001
0000
,
0010
0001
1000
0000
1000
0000
0100
0000
,
0001
0100
2000
0100
,
0001
0100
3020
0001
,
0100
0001
0230
0010
,
1000
0010
0302
1000
,
0010
1000
0023
0100
,
1000
0100
0230
0010
,
0001
0010
1300
0010
,
0001
0000
0010
1000
0010
0000
1000
0000
,
0100
0000
0010
0100
0010
0000
0100
0000
,
0010
0000
0001
0010
0001
0000
1000
0000
,
0010
0000
1000
0010
1000
0000
0000
0000
,
0000
0000
1001
0000
,
0000
0000
0110
0000
,
0000
0000
1001
0000
,
0000
0000
1000
0010
,
0100
0001
0100
0000
0001
0000
0100
0000
,
0010
1000
0010
1000
0010
0000
0000
0000
;

//---------------dance-single - ----------------
#NOTES:
     dance-single:
     :
     Beginner:
     2:
     0.125194,0.172375,0.079669,0.086912,0.000000,121.000000,110.000000,11.000000,12.000000,0.000000,0.000000,0.125194,0.172375,0.079669,0.086912,0.000000,121.000000,110.000000,11.000000,12.000000,0.000000,0.000000:
0000
0000
0000
0000
,
0000
0000
0000
0000
,
0000
0000
0000
0000
,
0000
0000
0000
0000
,
1000
0000
1001
0000
,
1000
0001
0000
0001
,
0010
0001
0000
1000
,
0010
1000
0000
0001
,
0000
1000
0000
0110
,
0000
0000
0000
0100
,
0000
0010
0000
0001
,
0000
1000
0000
0010
,
0000
1000
0000
0001
,
0000
0010
0000
0002
,
0000
0000
0000
2003
,
0000
0000
0000
3020
,
0000
0000
0000
0230
,
0000
0000
0000
0302
,
0000
0000
0000
2003
,
0000
0000
0000
3010
,
0100
0001
0000
1000
,
0100
1000
0000
0010
,
1000
0010
0000
0001
,
0010
0001
0000
1001
,
0000
0000
0000
1001
,
0000
0000
0000
1001
,
0000
0000
0000
1001
,
0000
0000
0000
1000
,
0010
1000
0000
0001
,
0010
0001
0010
0001
,
0000
1000
0000
0010
,
0000
1000
0000
0001
,
0000
0100
0000
0001
,
0000
1000
0000
0010
,
0000
1001
0000
0001
,
0000
0010
0000
0001
,
0000
1000
0000
0001
,
0000
0010
0100
0010
,
0000
0100
1000
0100
,
0000
0000
1000
0100
,
1000
0000
0001
0000
,
1000
0000
0010
0000
,
0100
0000
0001
0000
,
1000
0000
0200
0000
,
0000
0000
0320
0000
,
0000
0000
0032
0000
,
0000
0000
2003
0000
,
0000
0000
3020
0000
,
0000
0000
2030
0000
,
0000
0000
3001
1000
,
0001
0000
1000
0010
,
1000
0000
0001
0100
,
0001
0000
1000
0010
,
1000
0000
1001
0000
,
0000
0000
0110
0000
,
0000
0000
1001
0000
,
0000
0000
0110
0000
,
0000
0000
1000
0001
,
1000
0000
0010
0100
,
0010
0100
0010
0000
;

//---------------dance-single - ----------------
#NOTES:
     dance-single:
     :
     Challenge:
     18:
     1.071912,1.400548,0.905331,0.014485,1.861361,1036.000000,911.000000,125.000000,2.000000,0.000000,0.000000,1.071912,1.400548,0.905331,0.014485,1.861361,1036.000000,911.000000,125.000000,2.000000,0.000000,0.000000:
0000
0000
0000
0000
,
0000
0000
0000
0000
,
1000
0001
1000
0000
0100
1000
0100
0000
0010
0100
0010
0000
0001
0010
0001
0000
,
1000
0001
1000
0000
0010
1000
0010
0000
0100
0010
0100
0000
0001
0100
0001
0000
,
1001
0001
0000
0000
1000
0100
0000
0000
1010
0000
2002
3003
1000
0100
0100
0010
,
0001
0010
0001
0001
1000
0010
0010
0100
0010
1000
0010
0010
0101
0000
0010
0000
,
1000
0100
0000
0010
0100
0010
0001
0000
1000
0001
0000
0000
0110
0000
0100
0000
,
0010
1000
0000
0100
1000
0100
0001
0000
0100
0010
0000
0000
0010
0001
0001
1000
,
0001
0100
0010
0010
1000
0010
0010
0100
0010
1000
0010
0010
1100
0000
0010
1000
,
0010
0110
1000
1010
0010
0000
1100
1000
0000
1001
0001
0000
0011
0000
0010
0000
,
0100
0010
0000
0001
0010
0100
0010
0000
0100
1000
0000
0000
0110
0000
0100
0000
,
0010
1000
0000
0010
1010
1000
0100
0000
1000
0001
0000
0000
0101
0000
0100
0000
,
0001
0010
0000
0100
0110
0010
0100
0000
1000
0010
0000
0000
1010
0000
0100
0000
,
0001
1000
0000
0001
1001
1000
0100
0000
0010
0100
0000
0000
1100
0000
1000
0010
,
0100
0101
0000
1001
0000
1000
0100
0000
0010
0100
1000
0010
0110
0000
0100
0001
,
0010
0011
0000
0110
0000
1000
0100
0000
1000
0010
0100
0010
1010
0000
1000
0100
,
0010
0011
0000
0110
0000
1000
0001
0000
0100
0001
1000
0100
1010
0000
1000
0010
,
0100
0101
0000
1001
0000
1000
0100
0000
0010
0100
0010
0001
0011
0000
0010
0100
,
1000
1100
0000
1010
0000
1000
0001
0000
0100
0001
0010
0001
0101
0000
1000
0001
,
0100
0000
0110
0000
0000
0000
1001
0000
0000
0000
1000
0000
0010
0000
0000
0000
1000
0000
0100
0000
1000
0000
0001
0000
0010
0001
0010
0001
0100
0010
0100
0010
,
1000
0100
1000
0100
0010
0100
0010
0100
0010
0100
0000
0000
0100
0010
0100
0010
0100
1000
0100
1000
0100
0010
0100
0010
0001
1000
0001
1000
0010
1000
0010
1000
,
0010
0100
0001
0100
0001
1000
0100
1000
0100
1000
0000
0000
1000
0001
1000
0001
0100
0010
0100
0010
1000
0100
1000
0100
0010
0100
0010
0100
1000
0100
1000
0100
,
0010
0001
0010
0001
1000
0001
1000
0001
0100
0010
0000
0000
0010
0100
0010
0100
0001
0100
0001
0100
0001
1000
0001
1000
0001
0010
0100
0010
0100
0010
0001
0010
,
0001
1000
0100
1000
0100
0010
0100
0010
0100
1000
0000
0000
1000
0010
1000
0010
1000
0001
1000
0001
0100
0001
0100
0001
1000
0000
0100
0000
1000
0000
1001
0000
,
0001
1001
1000
1100
0100
0000
1010
1100
0001
0101
0100
0001
1000
0001
0100
1001
,
0001
1100
1000
1001
0001
0000
0101
0101
1000
1100
0100
0010
0001
0100
0001
1001
,
0001
0011
0010
0110
0100
0000
0110
0110
1000
1100
0100
0010
1000
0010
0001
0101
,
0001
0000
1001
0000
1000
0000
1100
0000
0100
0000
0000
0000
1010
0000
1010
0000
0001
0000
0011
0000
0100
0000
0010
0000
1000
0100
1000
0100
0010
0100
0010
0100
,
0010
0001
0010
0001
1000
0001
1000
0001
1000
0100
1000
0100
0010
0100
0010
0100
0010
0001
0010
0001
1000
0001
1000
0000
0001
0010
0001
0010
0100
0010
0100
0010
,
0100
1000
0100
1000
0001
1000
0001
1000
0001
0010
0001
0010
0100
0010
0100
0010
0100
1000
0100
1000
0001
1000
0001
0000
1001
0000
0000
0000
1000
0000
0000
0000
,
0100
0010
0000
0100
0000
0100
0010
0000
0010
0100
0000
0000
1100
0000
1000
0000
,
0010
1000
0000
0010
0000
1000
0001
0000
0010
0001
0000
0000
0011
0000
0010
0000
,
0100
0010
0000
0010
0100
0010
0100
0000
1000
0100
0000
0000
1010
0000
1000
0000
,
0001
0010
0000
0001
0010
0100
0010
0000
0100
1000
0000
0000
1010
0000
0000
0000
,
1000
0010
0000
0000
1010
0000
1010
0000
1000
0100
0100
0010
0001
0010
0001
0001
,
0100
0001
0001
1000
0010
1000
0010
0010
0101
0000
0010
0000
1100
1000
0000
0100
,
0011
0001
0010
0000
0110
0010
0000
0000
0101
0000
0100
0000
1001
1000
0000
0001
,
1001
1000
0100
0000
0101
0001
0000
0000
0010
1000
1000
0001
1000
0100
1000
1000
,
0001
1000
1000
0100
0010
0100
0010
0010
0001
0000
1000
0001
1000
1001
0001
0011
,
0010
0000
1010
1000
0000
0011
0001
0000
1100
0000
1000
0000
0100
0010
0000
0010
,
0100
0010
0001
0000
0010
0001
0000
0000
0110
0000
0010
0000
0001
1000
0000
0010
,
1000
0010
0100
0000
0010
1000
0000
0000
1100
0000
1000
0000
0001
0010
0000
0100
,
0010
0001
1000
0000
0010
0100
0000
0000
0110
0000
1000
0000
0100
0010
0000
0001
,
0010
0100
1000
0000
0010
0100
0000
0000
1010
0000
1000
0010
1000
1100
0000
0011
,
0000
0010
0100
0000
1000
0001
0100
0010
0110
0000
1000
0010
1000
1100
0000
1001
,
0000
0010
0100
0000
0010
0001
0100
0001
1001
0000
1000
0010
1000
0110
0000
1010
,
0000
1000
0100
0000
1000
0100
0010
0100
0011
0000
0010
0100
0010
0110
0000
1100
,
0000
1000
0001
0000
0100
0001
0100
0010
0110
0000
1000
0010
1000
1010
0000
0110
,
0000
1000
0010
0000
1000
0100
0010
0100
0011
0000
0010
0100
1000
1100
0000
1010
,
0000
0000
0100
0000
0010
0000
0000
0000
1000
0000
0010
0000
1000
0000
0001
0000
0010
0001
0100
0010
1000
0100
0010
0001
0010
0100
1000
0001
0010
0100
0010
0001
,
0010
0001
0000
0000
0100
0010
1000
0100
1000
0001
0010
0100
0010
0001
1000
0010
0100
0001
1000
0010
0100
0001
0010
0100
0010
0001
1000
0100
0010
0001
0010
0100
,
1000
0001
0000
0000
1000
0001
0100
0001
1000
0001
0010
0001
1000
0100
0010
0100
1000
0001
0010
0001
0100
0010
0100
0001
0100
0010
1000
0001
0100
0001
1000
0001
,
0100
0010
0000
0000
0100
0010
1000
0100
0010
0001
0010
0100
1000
0001
0010
0001
1000
0100
0010
0100
1000
0010
1000
0100
0010
0001
1000
0001
0010
0100
1000
0001
,
0100
0001
0000
0000
0010
0001
1000
0010
0100
0001
0010
0100
1000
0010
0100
0001
0010
0000
0001
0000
0010
0000
0011
0000
0001
0000
0011
0000
0010
0000
0011
0000
,
0001
0000
0011
0011
0010
0110
0100
0010
0001
0100
0010
1010
1000
1010
0010
1010
,
1000
0000
1010
1010
1000
1100
0100
0100
0010
0100
0010
0110
0100
0110
0010
0110
,
0100
0000
0110
0110
0010
0011
0001
0010
0001
0010
0001
0011
0010
0011
0001
0011
,
0010
0000
0000
0000
0110
0000
0110
0000
0010
0000
0110
0000
0100
0000
1000
0000
0010
0100
0010
0100
0001
0010
0001
0010
0100
0010
0100
0010
0001
0100
0001
0100
,
0010
1000
0010
1000
0010
0100
0010
0100
0001
0010
0001
0010
0100
1000
0100
1000
0100
0010
0001
0100
0010
1000
0100
0010
0001
0010
0100
1000
0010
0100
0001
0010
,
0100
1000
0001
0100
0010
1000
0001
0100
0001
1000
0100
0010
0100
0010
0001
0000
0011
0000
0000
0000
0000
0000
0000
0000
0000
0000
0000
0000
0000
0000
0000
0000
;
