#TITLE:Protect The Espers!;
#SUBTITLE:Final Fantasy VI;
#ARTIST:植松伸夫;
#TITLETRANSLIT:;
#SUBTITLETRANSLIT:;
#ARTISTTRANSLIT:Nobuo Uematsu;
#GENRE:;
#CREDIT:;
#BANNER:bn.png;
#BACKGROUND:bg.png;
#LYRICSPATH:;
#CDTITLE:;
#MUSIC:Protect_The_Espers.ogg;
#OFFSET:-0.076000;
#SAMPLESTART:52.495998;
#SAMPLELENGTH:30.000000;
#SELECTABLE:YES;
#BPMS:0.000000=169.399994
;
#STOPS:
;
#BGCHANGES:;
#KEYSOUNDS:;
#ATTACKS:;

//---------------dance-single - ----------------
#NOTES:
     dance-single:
     :
     Hard:
     12:
     0.552229,0.630077,0.357611,0.391669,0.110689,454.000000,412.000000,42.000000,46.000000,0.000000,0.000000,0.552229,0.630077,0.357611,0.391669,0.110689,454.000000,412.000000,42.000000,46.000000,0.000000,0.000000:
0000
0000
0000
0000
,
0000
0000
0000
0000
,
0000
0000
0000
0000
,
0000
0000
0000
0000
,
0000
0000
0000
0000
,
0000
0000
0000
0000
,
1000
0001
0010
0000
0000
0010
0001
1000
,
0010
0100
0010
0100
0010
1000
0001
0010
,
0100
0010
0100
0000
0000
0010
0100
1000
,
0100
1000
0100
1000
0001
0100
0010
0100
,
0101
1010
1100
0011
,
0101
0000
0000
0000
1010
0000
0000
0000
1100
0000
0000
0000
0011
0000
0000
0100
,
0001
0100
0100
0010
1000
1000
0100
1000
,
0010
0000
0010
1000
0000
1000
0100
0000
,
0100
0010
0010
0001
0010
0010
0001
0100
,
0010
0000
0010
1000
0000
1000
0100
0000
,
0110
0000
0001
1000
1010
0000
0010
0100
,
0101
0000
1000
0010
0100
0001
1000
0000
,
1001
0000
1100
0000
0110
0000
0011
0010
,
0001
0010
0100
0010
0100
1000
0010
0100
,
0010
1000
0200
0000
0300
0010
0001
0010
,
0100
1000
0100
0001
0100
1000
0010
0100
,
0110
1100
1001
0110
,
0100
0000
0001
0000
0100
0000
0001
0000
0100
0000
0001
0000
1000
0001
1000
0000
,
0001
0000
1000
0000
0100
0000
1000
0000
0100
0000
1000
0000
0010
1000
0010
0000
,
1000
0000
0010
0000
1000
0000
0100
0000
1000
0000
0100
0000
0010
0100
0010
0000
,
0001
0000
0010
0000
0001
0000
0010
0000
0100
0000
0010
0000
0001
0010
0001
0000
,
1001
0000
0010
1010
0000
1000
0010
0100
,
0110
0000
0100
0101
0000
0100
0001
1000
,
0001
0002
0023
0230
,
2300
3200
0302
0203
,
2300
0000
0000
0000
3000
0000
1000
0010
2000
0000
0000
0000
0000
0000
3010
0100
,
0020
0000
0000
0000
0000
0000
0130
0001
0200
0000
0000
0000
0301
0010
0001
0010
,
0001
0020
0230
2300
,
3002
2003
3200
0302
,
0203
0000
2300
0000
,
0000
0000
0000
0000
0000
0000
0000
3000
,
0001
0000
0010
0000
0100
1000
1000
0000
,
0100
0000
0010
0001
0100
0000
0001
0000
,
1000
0000
0100
0010
0200
0000
0300
0010
,
0100
0010
0200
0000
0300
0010
0100
0010
,
0100
1000
0100
1000
0001
0100
0010
1000
,
1010
0000
0000
1000
0100
0000
0000
0100
0010
0000
0000
0010
0001
0000
0000
0001
,
0100
0010
2000
0000
0000
3001
0100
0001
,
0010
0100
0010
0001
0010
0100
1000
0010
,
0100
0010
2000
0000
0000
3010
1000
0100
,
0010
0100
0010
0001
0010
0100
1000
0001
,
0101
1010
1100
0110
,
0011
0000
0000
0000
0101
0000
0000
0000
1001
0000
0000
0000
1100
0000
0000
1000
,
0010
1000
0010
0001
0010
1000
0010
0100
,
0010
0000
0010
0100
0000
0100
0001
0000
,
0001
0010
0010
0001
1000
1000
0001
0010
,
0100
0000
0100
1000
0000
1000
0010
0000
,
1010
0000
1000
0100
0010
0000
0100
0000
,
0010
0000
0001
0100
0010
0000
1000
0000
,
0100
0000
0010
0000
1000
0000
0010
0100
,
0100
0010
0001
0010
0100
1000
0001
0100
,
0001
1000
0200
0000
0000
0310
0100
0010
,
0001
0010
0100
1000
0001
0010
0100
1000
,
1001
0101
1100
1010
,
1000
0000
0100
0000
1000
0000
0100
0000
1000
0000
0100
0000
1000
0010
1000
0000
,
0010
0000
1000
0000
0010
0000
1000
0000
0010
0000
1000
0000
0001
1000
0001
0000
,
0010
0000
0001
0000
0010
0000
0001
0000
0010
0000
0001
0000
0010
0001
0010
0000
,
0001
0000
0010
0000
0100
0000
0010
0000
0100
0000
0010
0000
0100
1000
0100
0000
,
1100
0000
1000
0101
0000
1000
0001
1000
,
1100
0000
0010
1010
0000
1000
0010
1000
,
1100
0200
0320
0032
,
2003
3020
0032
0023
,
2030
0000
0000
0000
0000
0000
3100
0010
0200
0000
0000
0000
0000
0000
0310
0001
,
0020
0000
0000
0000
0000
0000
0031
1000
0002
0000
0000
0000
1003
0010
1000
0010
,
1000
2000
3020
0032
,
0023
0230
0302
0023
,
2030
0000
3020
0000
,
0000
0000
0000
0000
0000
0000
0000
0000
0030
0000
0000
0000
0001
0100
0001
0100
,
0001
0000
0000
0000
;

//---------------dance-single - ----------------
#NOTES:
     dance-single:
     :
     Medium:
     9:
     0.422078,0.441054,0.229893,0.340582,0.000000,347.000000,320.000000,27.000000,40.000000,0.000000,0.000000,0.422078,0.441054,0.229893,0.340582,0.000000,347.000000,320.000000,27.000000,40.000000,0.000000,0.000000:
0000
0000
0000
0000
,
0000
0000
0000
0000
,
0000
0000
0000
0000
,
0000
0000
0000
0000
,
0000
0000
0000
0000
,
0000
0000
0000
0000
,
1000
0010
0100
0000
0000
0010
0100
0000
,
0001
0010
0100
0000
1000
0001
0100
0000
,
0001
1000
0100
0000
0000
0100
0010
0000
,
0100
1000
0010
0000
0100
0010
1000
0000
,
0001
0011
0100
0110
,
1000
1010
0010
0101
,
0100
0001
0000
0100
0001
0000
0001
0010
,
0001
0000
0010
0100
0000
1000
0010
0000
,
0010
1000
0000
0010
1000
0000
0010
1000
,
0001
0000
0100
0001
0000
0001
0010
0000
,
0110
0000
0000
1000
0200
0000
0000
0000
,
0300
0000
1000
0100
0010
0000
0001
0000
,
0101
0000
1000
0000
1001
0000
0010
0001
,
0010
0100
0000
1000
0001
0100
0000
0010
,
1000
0001
0200
0000
0000
0310
1000
0000
,
0001
0010
0000
0100
0010
0001
0000
0100
,
0001
1001
1000
0110
,
1000
0010
1000
0000
0010
1000
0010
0000
,
1000
0001
1000
0000
0001
1000
0001
0000
,
0010
0001
0010
0000
0001
0010
0001
0000
,
0010
0100
0010
0000
0100
0010
0100
0000
,
1000
0000
0100
1000
0000
1000
0010
0000
,
1000
0000
0001
0100
0000
0100
0001
0000
,
0010
0101
0010
1100
,
1000
0011
0100
1010
,
0020
0000
0000
0130
0020
0000
0000
1030
,
0002
0000
0000
0013
0001
0000
0010
0001
,
1000
2000
3200
0320
,
0032
2003
3002
0203
,
0320
0000
2030
0000
,
0000
0000
0000
0000
,
3001
0000
0010
0000
0100
1000
0010
0000
,
0100
0000
0010
1000
0100
0000
0010
0000
,
0001
0000
0100
0001
0020
0000
0000
0130
,
0010
0001
0200
0000
0300
0100
0001
0000
,
0010
0100
1000
0000
0010
1000
0001
0000
,
0101
1000
1010
0100
,
1000
0001
0020
0000
0000
0031
0010
0000
,
0010
0100
0010
0000
0100
1000
0100
0000
,
1000
0001
0200
0000
0300
0001
1000
0000
,
0010
1000
0001
0000
0010
0100
1000
0000
,
0010
1010
0100
0101
,
0001
0110
0010
1100
,
1010
0000
0100
0010
0000
1000
0010
0000
,
0100
0000
0001
0010
0000
0001
0010
0000
,
0110
0000
0010
0100
0000
0010
0100
0000
,
1000
0000
0010
0100
0000
0010
1000
0000
,
1001
0000
0000
1000
0020
0000
0000
0000
,
0000
0000
0130
0010
1000
0000
0001
0000
,
0011
0010
0110
1000
,
0100
1000
0001
0000
0100
0001
1000
0000
,
0010
1000
0200
0000
0000
0310
0001
0000
,
0100
0001
0010
0000
0100
1000
0010
0000
,
0110
0100
0101
1000
,
1000
0001
1000
0000
0010
1000
0010
0000
,
0100
0010
0100
0000
0001
0100
0001
0000
,
0010
0001
0010
0000
0100
0010
0100
0000
,
1000
0100
1000
0000
0010
1000
0010
0000
,
1000
0000
0001
1000
0000
0001
1000
0000
,
0010
0000
1000
0010
0000
1000
0010
0000
,
1000
0002
0023
0230
,
2300
3002
0203
0320
,
2030
0000
3000
0100
2000
0000
0000
3010
,
0200
0000
0000
0301
0020
0000
0130
0010
,
0100
0020
0032
0203
,
0320
2030
3200
0320
,
0032
0000
2003
0000
,
0000
0000
0000
3000
,
1001
0000
0000
0000
;

//---------------dance-single - ----------------
#NOTES:
     dance-single:
     :
     Easy:
     6:
     0.273682,0.441054,0.178806,0.510873,0.000000,225.000000,204.000000,21.000000,60.000000,0.000000,0.000000,0.273682,0.441054,0.178806,0.510873,0.000000,225.000000,204.000000,21.000000,60.000000,0.000000,0.000000:
0000
0000
0000
0000
,
0000
0000
0000
0000
,
0000
0000
0000
0000
,
0000
0000
0000
0000
,
0000
0000
0000
0000
,
0000
0000
0000
0000
,
0001
2000
0000
3010
,
1000
0001
1000
0001
,
0010
0200
0000
0310
,
0100
0010
0100
1000
,
0020
0000
2030
0000
,
3002
0000
0023
0030
,
0010
0000
0000
0100
0000
0000
0010
0000
,
0001
0000
0000
1000
0000
0000
0010
0000
,
1010
0000
0000
0001
0000
0000
1000
0000
,
0010
0000
0000
1000
0000
0000
0001
0000
,
0010
0000
0001
0000
,
0010
0000
0100
0000
,
1000
0010
1000
0001
,
0010
0011
0000
0110
,
0000
0101
0000
1001
,
0000
1010
0000
1100
,
0000
0101
0000
0100
,
0110
0010
0002
0000
,
0000
0000
2003
3200
,
2300
0000
3002
0000
,
0000
0000
0013
0001
,
1000
0000
0000
0010
0000
0000
1000
0000
,
0001
0000
0000
0010
0000
0000
0001
0000
,
0100
0002
0023
0230
,
2300
3020
0230
0302
,
2003
0000
3002
0000
,
0023
0000
0230
0300
,
1001
0100
0010
0001
,
1000
0010
0001
0010
,
2000
0000
3200
0000
,
0000
0000
0000
0300
,
1001
0100
0010
1000
,
0010
1000
0001
0010
,
0100
0010
0200
0000
,
1300
0200
0000
0310
,
0001
0100
0001
1000
,
0010
0001
0010
1000
,
0100
0020
0000
0031
,
1000
0100
0001
0100
,
1000
0002
0000
0103
,
0001
0010
1000
0010
,
0002
0203
0320
2030
,
3200
2300
3002
0203
,
0301
0000
0000
0001
0000
0000
0001
0000
,
0010
0000
0000
0100
0000
0000
0010
0000
,
0100
0000
0000
1000
0000
0000
0100
0000
,
0010
0000
0000
0001
0000
0000
1000
0000
,
0020
0000
2030
0000
,
3001
0000
0010
0100
,
1000
0100
0010
0001
,
0100
0110
1000
1010
,
0100
0011
1000
1100
,
0010
0110
0001
0011
,
0100
0110
0001
1001
,
0110
0010
2000
0000
,
0000
0000
3010
1000
,
0020
0000
0230
0000
,
0000
0000
0301
0010
,
0001
0000
0000
1000
0000
0000
0010
0000
,
1000
0000
0000
0010
0000
0000
1000
0000
,
0100
0020
0230
0320
,
0032
2003
3020
0230
,
0320
0000
2030
0000
,
3200
0000
0310
0010
,
0001
0200
0302
0023
,
2030
3020
0032
2003
,
3020
0000
2030
0000
,
0000
0000
0000
3000
,
1001
0000
0000
0000
;

//---------------dance-single - ----------------
#NOTES:
     dance-single:
     :
     Beginner:
     4:
     0.149613,0.189023,0.170291,0.161776,0.000000,123.000000,103.000000,20.000000,19.000000,0.000000,0.000000,0.149613,0.189023,0.170291,0.161776,0.000000,123.000000,103.000000,20.000000,19.000000,0.000000,0.000000:
0000
0000
0000
0000
,
0000
0000
0000
0000
,
0000
0000
0000
0000
,
0000
0000
0000
0000
,
0000
0000
0000
0000
,
0000
0000
0000
0000
,
0001
0000
0100
0000
,
0001
0000
1000
0000
,
0010
0000
1000
0000
,
0001
0000
0010
0000
,
2002
0000
0000
0000
,
0000
0000
0000
3003
,
1001
0000
0000
0000
,
0110
0000
0000
0000
,
1001
0000
0000
0000
,
0110
0000
0000
0000
,
0100
0000
0010
0000
,
1000
0000
0100
0000
,
0010
0000
0001
0000
,
1000
0000
0001
0000
,
1000
0000
0010
0000
,
1000
0000
0001
0000
,
0010
0000
0001
0000
,
0220
0000
0000
0000
,
0000
0000
0330
0000
,
2002
0000
0000
0000
,
0000
0000
3003
0000
,
1000
0000
0001
0000
,
0010
0000
0001
0000
,
1000
0000
0010
0000
,
1000
0000
0001
0000
,
0200
0000
0320
0000
,
2030
0000
3200
0000
,
0300
0010
0000
0001
,
0000
1000
0000
0010
,
0000
0000
0200
0000
,
0000
0000
0300
0000
,
1001
0000
0010
0000
,
1000
0000
0001
0000
,
0010
0000
0100
0000
,
0010
0000
0001
0000
,
1000
0000
0010
0000
,
0100
0000
0001
0000
,
0110
0000
0100
0000
,
0010
0000
0100
0000
,
1000
0000
1000
0000
,
0001
0000
0001
0000
,
2002
0000
0000
0000
,
0000
0000
0000
3003
,
1001
0000
0000
0000
,
0110
0000
0000
0000
,
1001
0000
0000
0000
,
0110
0000
0000
0000
,
0010
0000
0001
0000
,
1000
0000
0010
0000
,
1000
0000
0001
0000
,
0100
0000
0010
0000
,
0100
0000
0001
0000
,
1000
0000
0100
0000
,
1000
0000
0010
0000
,
2002
0000
0000
0000
,
0000
0000
3003
0000
,
0220
0000
0000
0000
,
0000
0000
0330
0000
,
1001
0000
0000
0000
,
1001
0000
0000
0000
,
1000
0000
0001
0000
,
0010
0000
0100
0000
,
0010
0000
0001
0000
,
1000
0000
0001
0000
,
0000
0001
0000
0010
,
0000
0100
0000
1000
,
0000
0000
2002
0000
,
0000
0000
3003
0000
,
1001
0000
0000
0000
;

//---------------dance-single - ----------------
#NOTES:
     dance-single:
     :
     Challenge:
     16:
     0.821046,1.039627,0.655620,0.246922,0.412956,675.000000,598.000000,77.000000,29.000000,0.000000,0.000000,0.821046,1.039627,0.655620,0.246922,0.412956,675.000000,598.000000,77.000000,29.000000,0.000000,0.000000:
// measure 0
0000
0000
0000
0000
,  // measure 1
0000
0000
0000
0000
,  // measure 2
0000
0000
0000
0000
,  // measure 3
0000
0000
0000
0000
,  // measure 4
0000
0000
0000
0000
,  // measure 5
0000
0000
0000
0000
,  // measure 6
1000
0001
0020
0000
0100
0130
0001
0100
,  // measure 7
0010
0001
0100
0001
1000
0010
1000
0100
,  // measure 8
0010
0001
0020
0000
0100
0031
0001
0010
,  // measure 9
0100
0010
0001
0010
1000
0001
0100
1000
,  // measure 10
0001
0010
0100
1000
0001
0010
0100
1000
0001
0100
0010
1000
0001
0100
0010
1000
,  // measure 11
0001
0010
0100
1000
0001
0010
0100
1000
0001
0100
0010
1000
0001
0100
0010
1000
,  // measure 12
0001
1000
1000
0010
0001
0001
0010
0100
,  // measure 13
0110
0000
0000
0000
0001
0000
0101
0000
0000
0000
1000
0000
1010
0000
0001
1000
,  // measure 14
0010
0100
0100
0010
1000
1000
0001
0100
,  // measure 15
0110
0000
0000
0000
0010
0000
1010
0000
0000
0000
1000
0000
0001
1000
0100
0010
,  // measure 16
0001
0000
0010
0000
1000
0000
0010
0001
0010
0000
0001
0000
0010
0000
0100
1000
,  // measure 17
0001
0010
0100
0010
1000
0001
0100
0010
,  // measure 18
0002
0000
0103
0001
0011
1000
1010
0010
,  // measure 19
0100
0001
0101
0100
0010
1000
1010
0010
,  // measure 20
0100
0001
0201
0000
0301
0100
0101
1000
,  // measure 21
0001
0010
0110
0100
1000
0001
1001
1000
,  // measure 22
0020
0000
0030
0000
0210
0000
0300
0000
0100
0000
0010
0100
0001
0000
0001
0000
,  // measure 23
1000
0000
0100
0000
1000
0000
0001
0000
1000
0000
0100
0000
1000
0001
0010
0000
,  // measure 24
0001
0000
0010
0000
0100
0000
0010
0000
0001
0000
0100
0000
0001
1000
0010
0000
,  // measure 25
1000
0000
0100
1000
0001
0000
0010
0001
1000
0000
0010
0100
0001
0100
0010
1000
,  // measure 26
0010
0000
0100
0001
1000
0000
0100
1000
0010
0000
0100
0001
1000
0010
0100
0001
,  // measure 27
0010
0000
0001
0100
0001
0000
1100
0000
0000
0000
1000
0000
0100
0000
0010
0000
,  // measure 28
0011
0000
0100
0001
1000
0000
0101
0000
0000
0000
1000
0000
0010
0000
1000
0000
,  // measure 29
0011
0000
1010
0001
0011
0000
0101
0000
,  // measure 30
1010
0100
1000
0011
0010
0100
1001
0100
,  // measure 31
0102
0000
0010
0000
0010
0000
1003
0100
0020
0000
0100
0000
0100
0000
0031
0100
,  // measure 32
0020
0000
1000
0000
1000
0000
0130
0001
0020
0000
0000
0000
0031
0100
1000
0100
,  // measure 33
0001
0000
0012
0003
0120
0030
1200
0300
,  // measure 34
2010
3000
0201
0300
1020
0030
0201
0300
,  // measure 35
1001
1000
0001
0011
0010
0100
1100
1000
,  // measure 36
1010
0000
0100
0000
0010
0000
0110
0000
0100
0000
0001
0000
0010
0001
0100
0001
,  // measure 37
0010
0000
0000
0000
0100
0000
0000
0000
0010
0000
0100
0000
0010
0100
0001
0100
,  // measure 38
0010
0000
0100
0000
0010
0000
0001
0000
1000
0000
0001
0000
0100
0010
1000
0010
,  // measure 39
0100
0000
1010
1000
0010
0000
1010
1000
,  // measure 40
0100
0010
0011
0000
0010
0100
1001
0100
,  // measure 41
0010
1000
1100
1000
0001
0010
0110
0001
,  // measure 42
1000
0100
0010
0001
1000
0100
0010
0001
1000
0010
0100
0001
1000
0010
0100
0001
,  // measure 43
1000
0010
0012
0003
0010
0100
1000
0010
,  // measure 44
1010
1000
0010
0100
0101
0001
0100
0010
,  // measure 45
1000
0010
1002
0000
0003
1000
0010
0100
,  // measure 46
0110
0100
0001
0010
0011
0010
0100
1000
,  // measure 47
1000
0100
0010
0001
1000
0001
0010
0100
1000
0001
1000
0100
0010
0001
1000
0001
,  // measure 48
0010
0100
1000
0001
1000
0100
0010
0001
1000
0001
0010
0100
1000
0010
0100
0001
,  // measure 49
0010
0100
0100
1000
0010
0010
0100
0001
,  // measure 50
0020
0000
0000
0030
1000
0000
0020
0000
0030
0000
0010
0000
0001
0100
0001
1000
,  // measure 51
0010
1000
1000
0010
1000
1000
0100
0010
,  // measure 52
0002
0000
0000
0000
0103
0000
2000
0000
0000
0000
3100
0000
0001
0010
0100
0010
,  // measure 53
0001
0001
0100
0010
1000
1000
0100
0010
,  // measure 54
0001
0001
0100
0010
1000
1000
0001
0010
,  // measure 55
2100
3000
0011
1000
1001
0001
1100
0001
,  // measure 56
0100
0010
1010
0000
1000
0100
0110
0010
,  // measure 57
0001
0100
0102
0000
0000
1003
0011
0001
,  // measure 58
1010
1000
0010
1000
0110
0010
0100
0010
,  // measure 59
0011
0000
1000
0000
0101
0000
0000
0000
1001
0000
0010
0001
1000
0000
0100
0000
,  // measure 60
1000
0000
0100
0000
0001
0000
0100
0000
1000
0000
0100
0000
1000
0010
0100
0000
,  // measure 61
0010
0000
0100
0000
1000
0000
0100
0000
0010
0000
0100
0000
0010
0100
0001
0000
,  // measure 62
0100
0000
0001
0100
0010
0000
0100
0001
1000
0000
0100
1000
0001
0100
1000
0100
,  // measure 63
0010
0000
1000
0100
0001
0000
0100
0010
0001
0000
1000
0010
0001
0010
0100
0001
,  // measure 64
0100
0000
0010
1000
0100
0000
1100
0000
0000
0000
1000
0000
0010
0000
1000
0000
,  // measure 65
0110
0000
0100
0001
0010
0000
0011
0000
0000
0000
0100
0000
0001
0000
1000
0000
,  // measure 66
1100
0001
0100
0010
0100
1000
0001
0010
,  // measure 67
1000
0001
0010
1000
0001
0100
1000
0001
,  // measure 68
1002
0000
0010
0000
0010
0000
0103
0001
2000
0000
0001
0000
0001
0000
3010
1000
,  // measure 69
0200
0000
0010
0000
0310
0000
0100
0010
0002
0000
0000
0000
1003
0100
0001
0100
,  // measure 70
1000
0100
0010
0101
0010
0100
1001
0100
,  // measure 71
0101
1000
0001
0110
1000
0010
1100
1000
,  // measure 72
0011
0100
1000
1010
0001
0010
1100
0010
,  // measure 73
1001
0000
0010
0000
0100
0000
0011
0000
0100
0000
1000
0000
0100
0001
1000
0010
,  // measure 74
0001
0000
0000
0000
;
