#TITLE:Hyrule Castle;
#SUBTITLE:Zelda\: A Link to the Past;
#ARTIST:近藤浩治;
#TITLETRANSLIT:;
#SUBTITLETRANSLIT:;
#ARTISTTRANSLIT:Koji Kondo;
#GENRE:;
#CREDIT:;
#BANNER:bn.png;
#BACKGROUND:bg.png;
#LYRICSPATH:;
#CDTITLE:;
#MUSIC:Hyrule_Castle.ogg;
#OFFSET:-0.365000;
#SAMPLESTART:11.967999;
#SAMPLELENGTH:30.000000;
#SELECTABLE:YES;
#BPMS:0.000000=131.869995
;
#STOPS:
;
#BGCHANGES:;
#KEYSOUNDS:;
#ATTACKS:;

//---------------dance-single - ----------------
#NOTES:
     dance-single:
     :
     Hard:
     12:
     0.533320,0.513441,0.067179,0.211134,0.379082,389.000000,382.000000,7.000000,22.000000,0.000000,0.000000,0.533320,0.513441,0.067179,0.211134,0.379082,389.000000,382.000000,7.000000,22.000000,0.000000,0.000000:
0000
0000
0000
0000
,
0000
0000
0000
0000
,
0000
0000
0000
0000
0000
0001
0000
0100
,
0010
0000
0000
0000
0010
0000
0100
0000
0000
0000
0010
0000
1000
0000
1000
0010
,
0100
0010
1000
0010
0100
0001
0000
0010
,
0001
0000
0000
0000
0001
0000
0010
0000
0000
0000
0010
0000
0100
0000
0010
0001
,
0010
0001
1000
0010
0100
0010
0000
1000
,
0001
0000
0000
0000
0001
0000
1000
0000
0000
0000
1000
0000
0010
0000
1000
0010
,
0100
0010
0100
0001
0000
0010
0000
0001
,
1000
0000
0000
0000
1000
0000
0001
0000
0000
0000
0100
0000
0010
0000
1000
0010
,
0100
0000
0010
0000
1000
0010
0100
0001
0010
0000
0100
0000
0000
0000
1000
0000
,
0100
0000
0000
0000
0100
0000
1000
0000
0000
0000
0100
0000
0010
0000
0001
0010
,
0100
1000
0001
0100
0010
1000
0000
1000
,
0010
0000
0000
0000
1000
0000
0100
0000
0000
0000
0100
0000
0010
0000
0001
0010
,
0001
0000
0100
0000
0001
1000
0100
1000
0001
0000
0100
0000
0000
0000
0001
0000
,
0010
0000
0000
0000
0010
0000
0001
0000
0000
0000
0001
0000
0010
0000
0100
0010
,
0001
0100
0001
1000
0000
0010
0000
1000
,
0100
0000
0000
0000
1000
0000
0002
0000
0000
0000
0000
0000
0003
0000
0010
0100
,
0010
0000
0001
0000
0100
0001
0010
0100
1000
0000
0010
0000
0000
0000
1000
0000
,
0010
0000
0000
0000
0010
0000
1000
0000
0000
0000
1000
0000
0010
0000
1000
0100
,
0010
0001
0010
0100
0000
1000
0000
0001
,
0100
0000
0000
0000
0100
0000
0001
0000
0000
0000
0010
0000
0100
0000
0010
0001
,
0010
0000
0000
0000
0000
0000
1000
0000
0000
0000
0000
0000
0010
0000
0000
0001
0000
0000
1000
0000
0000
0100
0000
0000
0020
0000
0000
0000
0000
0000
0000
0000
0000
0000
0000
0000
0000
0000
0000
0030
0100
0000
0000
0000
0001
0000
0000
0000
,
0100
0000
0000
1000
0000
0000
0100
0000
0000
0001
0000
0000
0200
0000
0000
0000
0000
0000
0000
0000
0010
0300
0100
0000
,
1000
0000
0000
0001
0000
0000
1000
0000
0010
0000
0100
0000
0002
0000
0000
0000
0000
0000
0000
0000
1003
0000
0100
0000
,
0010
0000
0000
0001
0000
0000
0100
0000
0000
1000
0000
0000
0200
0000
0000
0000
0000
0000
0000
0300
0010
0000
0100
0000
,
0001
0000
0000
0010
0000
0000
0100
0000
0010
0000
0001
0000
0020
0000
0000
0000
0000
0000
0000
0000
0031
0000
0010
0000
,
0100
0000
0000
0100
0000
0000
0010
0000
0000
0001
0000
0000
2001
0000
0000
0000
0000
0000
0000
0000
3001
0000
1000
0000
,
0010
0000
0000
1000
0000
0000
0100
0000
0000
0010
0000
0000
0012
0000
0000
0000
0000
0000
0000
0000
1003
0000
0001
0000
,
0010
0000
0000
0001
0000
0000
1000
0000
0000
0100
0000
0000
2100
0000
0000
0000
0000
0000
0000
0000
3010
0000
1000
0000
,
0010
0000
0000
1000
0000
0000
0010
0000
0100
0000
0010
0000
1000
0000
0000
0000
0000
0000
0001
0000
1000
0000
0001
0000
,
0100
0000
0000
0010
0000
0000
1000
0000
0000
0001
0000
0000
2000
0000
0000
0000
0000
0000
3100
0000
0010
0000
0001
0000
,
0010
0000
0000
1000
0000
0000
0010
0000
0000
0001
0000
0000
0010
0000
0000
0000
0000
0000
0100
0000
0010
0000
0100
0000
,
1000
0000
0000
0100
0000
0000
1000
0000
0000
0010
0000
0000
0200
0000
0000
0000
0000
0000
0301
0000
1000
0000
0010
0000
,
1000
0000
0000
0100
0000
0000
0010
0000
0000
0001
0000
0000
0002
0000
0000
0000
0000
0000
1003
0000
0010
0000
0100
0000
,
0010
0000
0000
1000
0000
0000
0010
0000
0000
0100
0000
0000
0002
0000
0000
0000
0000
0000
0103
0000
0010
0000
0100
0000
,
0001
0000
0000
0010
0000
0000
1000
0000
0000
0010
0000
0000
0002
0000
0000
0000
0000
0000
0013
0000
0001
0000
1000
0000
,
0001
0000
0000
0100
0000
0000
1000
0000
0000
0100
0000
0000
0020
0000
0000
0000
0000
0000
0130
0000
0001
0000
0010
0000
,
0100
0000
0000
0000
0000
0000
0010
0000
0000
0100
0000
0000
0010
0000
0000
0100
0000
0000
1000
0000
0000
0001
0000
0000
0020
0000
0000
0000
0000
0000
0000
0000
0000
0000
0000
0000
0000
0000
0000
0000
0130
0000
0000
0000
1000
0000
0000
0000
,
0100
0000
0000
0010
0000
0000
0001
0000
0000
0100
0000
0000
0020
0000
0000
0000
0000
0000
0130
0000
0010
0000
0100
0000
,
1000
0000
0000
0100
0000
0000
0010
0000
0000
1000
0000
0000
0020
0000
0000
0000
0000
0000
1030
0000
0010
0000
0100
0000
,
0001
0000
0000
0100
0000
0000
0010
0000
0000
1000
0000
0000
0200
0000
0000
0000
0000
0000
0310
0000
0100
0000
0010
0000
,
0001
0000
0000
1000
0000
0000
0001
0000
0000
0010
0000
0000
0210
0000
0000
0000
0000
0000
0310
0000
0001
0000
1000
0000
,
0001
0000
0000
0010
0000
0000
0100
0000
0000
0010
0000
0000
0012
0000
0000
0000
0000
0000
1003
0000
0010
0000
0100
0000
,
0010
0000
0000
1000
0000
0000
0100
0000
0000
0010
0000
0000
0012
0000
0000
0000
0000
0000
1003
0000
0010
0000
0100
0000
,
0001
0010
0100
1000
0011
0010
0000
0010
,
0001
0000
0000
0000
0001
0000
0010
0000
0000
0000
0100
0000
0010
0000
0001
0100
,
0010
0010
1000
0010
1000
0100
0000
0100
,
0010
0000
0000
0000
0010
0000
0100
0000
0000
0000
0010
0000
0001
0000
0001
0100
,
0010
0100
0001
1000
0100
0010
0000
0010
,
0001
0000
0000
0000
0001
0000
0010
0000
0000
0000
0010
0000
0100
0000
0100
1000
,
0001
1000
0001
0100
0001
1000
0000
0001
,
1000
0000
0000
0000
1000
0000
0001
0000
0000
0000
1000
0000
0100
0000
0010
0100
,
0010
0000
0100
0000
1000
0001
0010
0100
1000
0000
0000
0000
0000
0000
0000
0000
;

//---------------dance-single - ----------------
#NOTES:
     dance-single:
     :
     Medium:
     9:
     0.353719,0.359408,0.182343,0.153552,0.000000,258.000000,239.000000,19.000000,16.000000,0.000000,0.000000,0.353719,0.359408,0.182343,0.153552,0.000000,258.000000,239.000000,19.000000,16.000000,0.000000,0.000000:
0000
0000
0000
0000
,
0000
0000
0000
0000
,
0000
0000
0000
0000
0000
1000
0000
1000
,
0100
0000
0100
1000
0000
0001
0001
0000
,
0101
0000
1010
0000
0100
1000
0000
0001
,
1000
0000
1000
0001
0000
0010
0010
0000
,
0011
0000
1100
0000
0200
0000
0000
0310
,
0100
0000
1000
0001
0000
0001
1000
0000
,
0100
0000
0010
0000
0010
0001
0000
1000
,
0010
0000
0010
1000
0000
1000
0001
0000
,
1010
0000
0101
0000
0020
0000
0000
0130
,
0010
0000
0010
0100
0000
0100
0010
0010
,
0001
0000
1000
0000
0010
0100
0000
0001
,
1000
0000
1000
0001
0000
0010
0010
0000
,
0010
0000
0100
1000
0001
0010
0000
0100
,
0010
0000
0010
0100
0000
1000
1000
0000
,
0001
0000
0001
0000
0010
0100
0000
1000
,
0010
0000
1000
0002
0000
0000
0000
0013
,
0001
0000
0001
0001
0010
0100
0000
1000
,
0010
0000
0010
1000
0000
0100
0100
0000
,
1000
0000
0010
0000
0100
0001
0000
1000
,
0010
0000
0010
1000
0000
1000
0100
0000
,
0001
0000
0100
0000
2000
0000
0000
3010
,
0100
0000
0001
0000
0020
0000
0000
0130
,
0010
0000
0001
0000
2000
0000
0000
3010
,
1000
0000
0001
0000
0020
0000
0000
0130
,
0010
0000
0100
0000
2000
0000
0000
3010
,
0100
0000
0001
0000
0020
0000
0000
0130
,
0010
0000
0100
0000
2000
0000
0000
3001
,
0100
0001
2002
0000
,
0000
3003
0110
0100
,
0001
0010
0110
1000
,
1010
0001
0101
0010
,
0110
1000
1010
0100
,
0010
1000
1001
0001
,
0100
0010
1010
1000
,
1100
0100
0110
0010
,
0001
1000
1001
1000
,
0010
0000
1000
0001
1000
0000
0100
0000
,
0010
0100
0010
0100
1000
0000
0100
0000
,
1000
0010
0100
0001
,
0010
0001
0010
0100
0010
0000
0100
0000
,
1000
0010
1000
0010
,
0100
0010
0100
0010
2000
0000
3100
0000
,
0010
0100
0010
0100
2000
0000
3001
0000
,
0010
0100
1000
0001
1000
0001
0000
0100
,
0001
0000
0001
0100
0000
0010
1000
0000
,
0001
0000
0001
0000
0010
0100
0000
0100
,
1000
0000
1000
0100
0000
0100
0010
0000
,
0010
0000
0001
0000
2000
0000
0000
3010
,
0100
0000
0100
0010
0000
0010
0010
0000
,
1000
0000
0001
0000
0010
0100
0000
0100
,
0020
0000
0031
1000
0000
0001
0010
0000
,
0100
0010
1001
0000
;

//---------------dance-single - ----------------
#NOTES:
     dance-single:
     :
     Easy:
     5:
     0.226215,0.256720,0.076776,0.153552,0.000000,165.000000,157.000000,8.000000,16.000000,0.000000,0.000000,0.226215,0.256720,0.076776,0.153552,0.000000,165.000000,157.000000,8.000000,16.000000,0.000000,0.000000:
0000
0000
0000
0000
,
0000
0000
0000
0000
,
0000
0000
0000
0000
0000
1000
0000
0000
,
0001
0000
0000
1000
0000
0000
0100
0000
,
0010
0001
1000
0000
,
0001
0000
0000
1000
0000
0000
0100
0000
,
0100
0010
0002
0000
,
1003
0000
0000
0010
0000
0000
1000
0000
,
0100
0010
0200
0000
,
1300
0000
0000
0010
0000
0000
1000
0000
,
0001
0010
0002
0000
,
1003
0000
0000
0010
0000
0000
1000
0000
,
1000
0100
0020
0000
,
0031
0000
0000
1000
0000
0000
0010
0000
,
0100
0010
2000
0000
,
3100
0000
0000
0001
0000
0000
0100
0000
,
1000
0001
0200
0000
,
0310
0000
0000
0100
0000
0000
0001
0000
,
0010
0100
0020
0000
,
0031
0000
0000
1000
0000
0000
0010
0000
,
1000
0100
0002
0000
,
0103
0000
0000
1000
0000
0000
0010
0000
,
1000
0001
0020
0000
,
0130
0010
0001
0000
,
1000
0010
0100
0000
,
0001
1000
0200
0000
,
1300
0000
0100
0000
0002
0000
0000
0003
,
0100
1000
0020
0000
,
0031
0010
2000
0000
,
3100
0001
0200
0000
,
1000
0010
1300
0100
,
0010
0001
1000
0000
,
1010
0000
1000
0000
,
0001
1000
1100
0000
,
0100
0000
0010
0000
,
0001
0010
0110
0000
,
1100
0000
1000
0000
,
1010
1000
0001
0000
,
0011
0000
0010
0100
,
0010
0100
1000
0010
,
1000
0010
0100
0001
,
0010
0100
1000
0001
,
0010
0100
0010
0001
,
0100
0010
1000
0010
,
0100
0001
0100
0010
,
1000
0001
0101
0000
,
0001
0000
0000
1000
0000
0000
0010
0000
,
1000
0001
0100
0000
,
0001
0000
0000
0010
0000
0000
0000
0000
,
0100
1000
0020
0000
,
1030
0000
0000
0010
0000
0000
1000
0000
,
0001
0010
0200
0000
,
1300
0000
0000
0010
0000
0000
1000
0000
,
0100
0001
1001
0000
;

//---------------dance-single - ----------------
#NOTES:
     dance-single:
     :
     Beginner:
     2:
     0.102825,0.154032,0.095970,0.019194,0.000000,75.000000,65.000000,10.000000,2.000000,0.000000,0.000000,0.102825,0.154032,0.095970,0.019194,0.000000,75.000000,65.000000,10.000000,2.000000,0.000000,0.000000:
0000
0000
0000
0000
,
0000
0000
0000
0000
,
0000
0000
0000
0000
,
0000
0000
0000
0000
,
0000
0000
0000
0000
,
0000
0000
0000
0000
,
0000
0000
1000
0000
,
0000
0000
0000
0001
0000
0000
0000
0000
,
0000
0000
0010
0000
,
0000
0000
0000
0100
0000
0000
0000
0000
,
0000
0000
0010
0000
,
0000
0000
0000
0001
0000
0000
0000
0000
,
0000
0000
1000
0000
,
0000
0000
0000
0010
0000
0000
0000
0000
,
0000
0000
0100
0000
,
0000
0000
0000
0010
0000
0000
0000
0000
,
0000
0000
1000
0000
,
0000
0000
0000
0010
0000
0000
0000
0000
,
0000
0000
1000
0000
,
0000
0000
0000
0001
0000
0000
0000
0000
,
0000
0000
0010
0000
,
0000
0000
0000
0001
0000
0000
0000
0000
,
0000
0000
1000
0000
,
0010
0000
0100
0000
,
0001
0000
1000
0000
,
0010
0000
0100
0000
,
0001
0000
1000
0000
,
0100
0000
0010
0000
,
0001
0000
1000
0000
,
0100
0000
0010
0000
,
0001
0000
1001
0000
,
0000
0000
1001
0000
,
0000
0000
0110
0000
,
0000
0000
0110
0000
,
0000
0000
1001
0000
,
0000
0000
1001
0000
,
0000
0000
0110
0000
,
0000
0000
0110
0000
,
0000
0000
1000
0000
,
0010
0000
0100
0000
,
0010
0000
1000
0000
,
0001
0000
0010
0000
,
0100
0000
0010
0000
,
0001
0000
1000
0000
,
0010
0000
1000
0000
,
0001
0000
2002
0000
,
0000
0000
0000
3003
0000
0000
0000
0000
,
1000
0000
0001
0000
,
0010
0000
0001
0000
,
0100
0000
0001
0000
,
0000
0000
0000
1000
0000
0000
0000
0000
,
0000
0000
0010
0000
,
0000
0000
0000
0100
0000
0000
0000
0000
,
0000
0000
0110
0000
;

//---------------dance-single - ----------------
#NOTES:
     dance-single:
     :
     Challenge:
     16:
     0.645742,0.667473,0.076776,0.412672,0.743769,471.000000,463.000000,8.000000,43.000000,0.000000,0.000000,0.645742,0.667473,0.076776,0.412672,0.743769,471.000000,463.000000,8.000000,43.000000,0.000000,0.000000:
// measure 0
0000
0000
0000
0000
,  // measure 1
0000
0000
0000
0000
,  // measure 2
0000
0000
0000
0000
0000
0001
0000
0100
,  // measure 3
0010
0000
0000
0000
0010
0000
0100
0000
0000
0000
0010
0000
1000
0000
1000
0010
,  // measure 4
0001
0010
1000
0010
0100
0001
0000
0010
,  // measure 5
0001
0000
0000
0000
0001
0000
0010
0000
0000
0000
0010
0000
0100
0000
0001
0100
,  // measure 6
1000
0000
0000
0001
0000
0000
1000
0000
0000
0010
0000
0000
0200
0000
0000
0010
0000
0000
0300
0000
0000
1000
0001
1000
,  // measure 7
0002
0000
0000
0000
0010
0000
1000
0000
0003
0000
0001
0000
0001
0000
1000
0010
,  // measure 8
0100
0000
0000
0010
0000
0000
0100
0000
0001
1000
0001
0000
0200
0000
0000
0010
0000
0000
0300
0000
0000
1000
0001
1000
,  // measure 9
0002
0000
0000
0000
0000
0000
0003
0000
0000
0000
0001
0000
0100
0000
0010
0000
1000
0000
0001
0000
0000
0000
0000
0000
0000
0000
0000
0000
0000
0000
0100
0000
0000
0000
0000
0000
0010
0000
0000
0000
0000
0000
1000
0000
0000
0010
0000
0000
,  // measure 10
0001
0000
0000
0000
0000
0000
0010
0000
0000
0000
0000
0000
1000
0000
0000
0100
0000
0000
0001
0000
0000
0100
0000
0000
2000
0000
0000
0000
0000
0000
0100
0000
0000
0000
0000
0000
3000
0000
0000
0000
0000
0000
1000
0000
0010
0000
1000
0000
,  // measure 11
0020
0000
0000
0000
0000
0000
0000
0000
0000
0000
0000
0000
0100
0000
0000
0000
0000
0000
1000
0000
0030
0000
0000
0000
0000
0000
0000
0000
0000
0000
0010
0000
0000
0000
0000
0000
1000
0000
0000
0000
0000
0000
0001
0000
0000
0010
0000
0000
,  // measure 12
0100
0000
0000
1000
0000
0000
0001
0000
0010
0100
0010
0000
0002
0000
0000
1000
0000
0000
0003
0000
0000
0010
1000
0010
,  // measure 13
2000
0000
0000
0000
0000
0000
0000
0000
0000
0000
3100
0000
1000
0000
0010
0000
0100
0000
0001
0000
0000
0000
0000
0000
0000
0000
0000
0000
0000
0000
0100
0000
0000
0000
0000
0000
0010
0000
0000
0000
0000
0000
1000
0000
0000
0010
0000
0000
,  // measure 14
0001
0000
0000
0000
0000
0000
1000
0000
0000
0000
0000
0000
0100
0000
0000
0001
0000
0000
1000
0000
0000
0100
0000
0000
0002
0000
0000
0000
0000
0000
0100
0000
0000
0000
0000
0000
0000
0000
0003
0000
0000
0000
0010
0000
0001
0000
0010
0000
,  // measure 15
0002
0000
0000
0000
1000
0000
0010
0000
0003
0000
0010
0000
0100
0000
0100
0010
,  // measure 16
0001
0000
0000
0100
0000
0000
0001
0000
0010
0100
1000
0000
0200
0000
0000
0010
0000
0000
0300
0000
0000
0010
0001
0010
,  // measure 17
0002
0000
0000
0000
0000
0000
0000
0000
0000
0000
0103
0000
0010
0000
1000
0000
0100
0000
0020
0000
0000
0000
0000
0000
0000
0000
0000
0000
0000
0000
0000
0000
0000
0000
0000
0000
0000
0000
0000
0000
0000
0000
0031
0000
0000
0100
0000
0000
,  // measure 18
1000
0000
0000
0000
0000
0000
0001
0000
0000
0000
0000
0000
0010
0000
0000
1000
0000
0000
0100
0000
0000
0001
0000
0000
0200
0000
0000
0000
0000
0000
0010
0000
0000
0000
0000
0000
0300
0000
0000
0000
0000
0000
0010
0000
0001
0000
0010
0000
,  // measure 19
0002
0000
0000
0000
0010
0000
1000
0000
0003
0000
1000
0000
0010
0000
1000
0100
,  // measure 20
0010
0000
0000
0000
0000
0000
0001
0000
0000
0000
0000
0000
0010
0000
0000
0000
0001
0000
0100
0000
0010
0000
0000
0000
0002
0000
0000
0000
0000
0000
1000
0000
0000
0000
0000
0000
0000
0000
0000
0003
0000
0000
0001
0000
0010
0000
0001
0000
,  // measure 21
0020
0000
0000
0000
0000
0000
0000
0000
0030
0000
0100
0000
0001
0000
1000
0000
0100
0000
1000
0000
0000
0000
0000
0000
0000
0000
0000
0000
0000
0000
0010
0000
0000
0000
0000
0000
0100
0000
0000
0000
0000
0000
0010
0000
0000
1000
0000
0000
,  // measure 22
0010
0000
0000
0000
0000
0000
1000
0000
0000
0000
0000
0000
0010
0000
0000
0001
0000
0000
1000
0000
0000
0100
0000
0000
0020
0000
0000
0000
0000
0000
0000
0000
0000
0000
0000
0000
0000
0000
0000
0030
0100
0000
0000
0000
0001
0000
0000
0000
,  // measure 23
0100
0000
0000
1000
0000
0000
0100
0000
0000
0001
0000
0000
0200
0000
0000
0000
0000
0000
0310
0100
0010
0000
0100
0000
,  // measure 24
0001
0000
0000
1000
0000
0000
1000
0000
0010
0000
0100
0000
0002
0000
0000
0000
0000
0000
0000
0000
1003
0000
0100
0000
,  // measure 25
0010
0000
0000
0001
0000
0000
0100
0000
0000
1000
0000
0000
0200
0000
0000
0000
0000
0000
0310
0100
0010
0000
0100
0000
,  // measure 26
0001
0000
0000
0010
0000
0000
1000
0000
0010
0000
0001
0000
0020
0000
0000
0000
0000
0000
0000
0000
0031
0000
0010
0000
,  // measure 27
0100
0000
0000
0100
0010
0100
0010
0000
0001
1000
0001
0000
2001
0000
0000
0000
0000
0000
0000
0000
3001
0000
1000
0000
,  // measure 28
0010
0000
0000
1000
0100
1000
0100
0000
0010
0001
0010
0000
0012
0000
0000
0000
0000
0000
0000
0000
1003
0000
0001
0000
,  // measure 29
0010
0000
0000
0001
1000
0001
1000
0000
0100
1000
0100
0000
2100
0000
0000
0000
0000
0000
0000
0000
3010
0000
1000
0000
,  // measure 30
0010
0000
0000
1000
0000
0000
0010
0000
0100
0000
0010
0000
1001
0000
0000
0000
0000
0000
0001
0000
1000
0000
0001
0000
,  // measure 31
0100
0000
0000
0000
0000
0000
0010
0000
0000
0000
0000
0000
1000
0000
0000
0000
0000
0000
0010
0000
0000
0100
0000
0000
2000
0000
0000
0000
0000
0000
0000
0000
0000
0000
0000
0000
3100
0000
0000
0000
0010
0000
0000
0000
0001
0000
0000
0000
,  // measure 32
0010
0000
0000
0000
0000
0000
1000
0000
0000
0000
0000
0000
0010
0000
0000
0000
0000
0000
0001
0000
0000
0010
0000
0000
2000
0000
0000
0000
0000
0000
0000
0000
0000
0000
0000
0000
3100
0000
0000
0000
0010
0000
0000
0000
0100
0000
0000
0000
,  // measure 33
1000
0000
0000
0000
0000
0000
0100
0000
0000
0000
0000
0000
1000
0000
0000
0000
0000
0000
0100
0000
0000
0001
0000
0000
0200
0000
0000
0000
0000
0000
0000
0000
0000
0000
0000
0000
0301
0000
0000
0000
1000
0000
0000
0000
0010
0000
0000
0000
,  // measure 34
0001
0000
0000
0000
0000
0000
1000
0000
0000
0000
0000
0000
0010
0000
0000
0000
0000
0000
1000
0000
0000
0001
0000
0000
2000
0000
0000
0000
0000
0000
0000
0000
0000
0000
0000
0000
3001
0000
0000
0000
0010
0000
0000
0000
0100
0000
0000
0000
,  // measure 35
0010
0000
0000
0000
0000
0000
1000
0000
0000
0000
0000
0000
0010
0000
0000
0000
0000
0000
0001
0000
0000
0100
0000
0000
0002
0000
0000
0000
0000
0000
0000
0000
0000
0000
0000
0000
0103
0000
0000
0000
0010
0000
0000
0000
0100
0000
0000
0000
,  // measure 36
0001
0000
0000
0000
0000
0000
0010
0000
0000
0000
0000
0000
1000
0000
0000
0000
0000
0000
0001
0000
0000
0100
0000
0000
2000
0000
0000
0000
0000
0000
0000
0000
0000
0000
0000
0000
3010
0000
0000
0000
0001
0000
0000
0000
1000
0000
0000
0000
,  // measure 37
0100
0000
0000
0000
0000
0000
0001
0000
0000
0000
0000
0000
1000
0000
0000
0000
0000
0000
0010
0000
0000
0100
0000
0000
0020
0000
0000
0000
0000
0000
0000
0000
0000
0000
0000
0000
0130
0000
0000
0000
0001
0000
0000
0000
0010
0000
0000
0000
,  // measure 38
1000
0000
0000
0000
0000
0000
0010
0000
0000
0001
0000
0000
0010
0000
0000
0100
0000
0000
0010
0000
0000
1000
0000
0000
0020
0000
0000
0000
0000
0000
0000
0000
0000
0000
0000
0000
0000
0000
0000
0000
0130
0000
0000
0000
1000
0000
0000
0000
,  // measure 39
0100
0000
0000
0000
0000
0000
0010
0000
0000
0000
0000
0000
0001
0000
0000
0000
0000
0000
0010
0000
0000
0100
0000
0000
0020
0000
0000
0000
0000
0000
0000
0000
0000
0000
0000
0000
0130
0000
0000
0000
0010
0000
0000
0000
0100
0000
0000
0000
,  // measure 40
1000
0000
0000
0000
0000
0000
0010
0000
0000
0000
0000
0000
0100
0000
0000
0000
0000
0000
0010
0000
0000
0001
0000
0000
0020
0000
0000
0000
0000
0000
0000
0000
0000
0000
0000
0000
0031
0000
0000
0000
0010
0000
0000
0000
0100
0000
0000
0000
,  // measure 41
0001
0000
0000
0000
0000
0000
0100
0000
0000
0000
0000
0000
0010
0000
0000
0000
0000
0000
0100
0000
0000
1000
0000
0000
0200
0000
0000
0000
0000
0000
0000
0000
0000
0000
0000
0000
0310
0000
0000
0000
0100
0000
0000
0000
0010
0000
0000
0000
,  // measure 42
0001
0000
0000
0000
0000
0000
1000
0000
0000
0000
0000
0000
0001
0000
0000
0000
0000
0000
0010
0000
0000
0100
0000
0000
0020
0000
0000
0000
0000
0000
0000
0000
0000
0000
0000
0000
0130
0000
0000
0000
0001
0000
0000
0000
1000
0000
0000
0000
,  // measure 43
0001
0000
0000
0010
0000
0000
0100
0000
1000
0010
1000
0000
0012
0000
0000
0000
0000
0000
1003
0000
0010
0000
0100
0000
,  // measure 44
0010
0000
0000
1000
0000
0000
0100
0000
0010
0001
0010
0000
0012
0000
0000
0000
0000
0000
1003
0000
0010
0000
0100
0000
,  // measure 45
0001
0000
0000
0010
0000
0000
0100
0000
1000
0100
1000
0000
0012
0000
0000
0010
0000
0000
0000
0000
0000
1000
0000
0000
,  // measure 46
0010
0000
0000
0000
0010
0000
1003
0000
0000
0000
0100
0000
0010
0000
0001
0100
,  // measure 47
0010
0010
1000
0010
1000
0100
0000
0100
,  // measure 48
0010
0000
0000
0000
0010
0000
0100
0000
0000
0000
0010
0000
0001
0000
0001
0100
,  // measure 49
0010
0000
0000
0100
0000
0000
0001
0000
0000
1000
0000
0000
0200
0000
0000
0010
0000
0000
0000
0000
0000
0310
0001
0010
,  // measure 50
0002
0000
0000
0000
0010
0000
0100
0000
0003
0000
0010
0000
0100
0000
0100
1000
,  // measure 51
0001
0000
0000
1000
0000
0000
0001
0000
0010
0100
0010
0000
0001
0000
0000
1000
0000
0000
0000
0000
0000
0001
1000
0001
,  // measure 52
2000
0000
0000
0000
0000
0000
0000
0000
0000
0000
3001
0000
0100
0000
0010
0000
1000
0000
0100
0000
0000
0000
0000
0000
0000
0000
0000
0000
0000
0000
1000
0000
0000
0000
0000
0000
0100
0000
0000
0000
0000
0000
0010
0000
0000
0100
0000
0000
,  // measure 53
0010
0000
0100
0000
1000
0001
0010
0100
1100
0000
0000
0000
0000
0000
0000
0000
;
