#TITLE:Hunter's Chance;
#SUBTITLE:Final Fantasy IX;
#ARTIST:植松伸夫;
#TITLETRANSLIT:;
#SUBTITLETRANSLIT:;
#ARTISTTRANSLIT:Nobuo Uematsu;
#GENRE:;
#CREDIT:;
#BANNER:bn.png;
#BACKGROUND:bg.png;
#LYRICSPATH:;
#CDTITLE:;
#MUSIC:Hunters_Chance.ogg;
#OFFSET:-0.334000;
#SAMPLESTART:44.921001;
#SAMPLELENGTH:30.000000;
#SELECTABLE:YES;
#BPMS:0.000000=220.020004
;
#STOPS:
;
#BGCHANGES:;
#KEYSOUNDS:;
#ATTACKS:;

//---------------dance-single - ----------------
#NOTES:
     dance-single:
     :
     Hard:
     13:
     0.635249,0.772589,0.482388,0.166643,0.000000,507.000000,452.000000,55.000000,19.000000,0.000000,0.000000,0.635249,0.772589,0.482388,0.166643,0.000000,507.000000,452.000000,55.000000,19.000000,0.000000,0.000000:
0000
0000
0000
0000
,
0000
0000
0000
0000
,
0000
0000
0000
0000
,
0000
0000
0000
0000
,
0000
0000
0000
0000
,
0000
0000
0000
0000
,
0001
0000
0000
0100
0000
0010
1000
0000
,
0001
0000
1000
0000
0010
0000
0000
0100
,
0000
0001
0010
0000
0001
0000
0100
0000
,
0010
0000
0000
1000
0000
0100
1000
0000
,
0010
0000
0100
0000
0001
0000
0000
1000
,
0000
0100
1000
0100
0010
0100
0010
0001
,
0010
0000
0000
0001
0000
0010
0100
0000
,
0010
0000
0001
0000
0000
0010
0001
0010
,
0100
1000
0001
0000
0100
0000
0001
0000
,
0110
0000
0010
0100
0010
1000
0100
0010
,
0001
0100
0010
1000
0100
0000
0100
1000
,
0010
0100
0001
0010
0100
1000
0010
0100
,
0001
0010
0001
1000
0100
1000
0001
0000
,
0101
0000
1001
0000
1000
0100
1000
0001
,
0100
0001
1000
0000
0101
0000
0000
0000
,
1000
0010
1000
0010
0100
0001
0010
0000
,
0101
0000
0011
0000
0010
0100
1000
0001
,
0100
0010
1000
0000
1001
0000
1100
0000
,
1001
0000
0000
0100
0000
0001
0010
0000
,
0100
0000
0110
0000
0011
0000
0000
1000
,
0000
0001
1000
0000
0010
0000
0110
0000
,
1010
0000
0000
1000
0000
0010
1000
0000
,
0001
0000
0011
0000
0010
0000
0000
0010
,
0000
0100
0010
0001
0010
0100
1000
0001
,
0100
0000
0000
1010
0000
1000
0010
0000
,
0100
0000
0101
0000
0000
0100
0001
0010
,
0100
1000
0010
0100
0001
0100
0010
1000
,
0100
1000
0100
0010
0001
0100
0010
1000
,
0010
0100
0001
1000
0010
1000
0100
0010
,
0000
0000
0001
0000
1000
0010
0000
0010
,
0000
0100
0000
0010
0000
0000
0100
0000
,
0100
0001
0000
0001
0000
0001
0000
0010
,
0000
0000
0010
0000
0010
0100
0000
0010
,
0000
0100
0000
1000
0000
0000
1000
0000
,
1000
0010
0000
0110
0000
0101
0000
2002
,
0000
0000
0000
0000
,
0000
0000
0000
3003
0000
0100
1000
0100
,
0010
0100
0010
0001
1000
0100
0010
0002
,
0000
0000
0010
0000
0000
1000
0000
0013
,
0000
0101
0000
2010
0000
0000
0010
0000
,
0000
0001
0000
3001
0000
0000
2000
0002
,
0000
0000
0000
0000
,
0000
0000
3003
0000
0010
0001
0010
0100
,
1000
0001
0100
0001
1000
0010
0100
0002
,
0000
0000
1000
0000
0000
0100
0000
1003
,
0000
0101
0000
2010
0000
0000
0010
0000
,
0000
0001
0000
0100
0000
3100
0000
0201
,
0000
0000
0001
0000
0000
0010
0000
0010
,
0000
0010
0000
0301
0000
1000
0100
0010
,
0100
0010
0001
0010
0100
1000
0100
0020
,
0000
0000
0100
0000
0000
0001
0000
0031
,
0000
0110
0000
0102
0000
0000
1000
0000
,
0000
0100
0000
0100
0003
0000
2000
0002
,
0000
0000
0000
0000
,
0000
0000
3003
0000
1000
0001
0010
1000
,
0010
0100
0010
0001
0100
0010
1000
0100
,
0000
1000
0001
0100
0000
0000
0100
0001
,
1000
0100
0001
0100
0010
0100
1000
0001
,
0100
0010
1000
0010
0001
0010
1000
2002
,
0000
0000
0000
0000
,
0000
0000
0000
3003
0000
0100
0001
0010
,
1000
0010
0001
1000
0001
0100
0010
2000
,
0000
0000
0100
0000
0000
0001
0000
3001
,
0000
0110
0000
0102
0000
0000
1000
0000
,
0000
0100
0000
0103
0010
1000
0100
0020
,
0000
0000
0001
0000
0000
0100
0000
0100
,
0000
0001
0000
0031
0000
1000
0010
1000
,
0001
0100
0001
1000
0100
0010
0001
0200
,
0000
0000
0010
0000
0000
0001
0000
0001
,
0000
0001
0000
1000
0000
0000
1000
0000
,
0000
1000
0000
0010
0000
0301
0000
0010
,
0001
0010
1000
0010
0001
0010
0000
0001
,
0000
1000
0000
1000
0100
0001
0100
1000
,
0001
0010
0000
0011
0000
0000
0000
0010
,
0001
0100
0010
1000
0001
0010
0000
1100
,
0000
0011
0000
0010
0100
1000
0001
0100
,
0010
1000
0000
1100
0000
1001
0000
0100
,
0001
0010
0100
0010
0100
1000
0010
0001
,
0010
0100
0001
0100
0010
1000
0010
0001
,
0010
0100
0001
0010
0100
1000
0100
0001
,
0000
0000
1010
0000
1000
0100
0000
0010
,
0000
0001
0000
0100
0000
0000
0011
0000
,
0010
0100
0000
1000
0000
0010
0000
0100
,
0010
1000
0100
0001
0100
1000
0010
0100
,
0010
1000
0010
0001
0010
1000
0100
0010
,
0100
1000
0100
0001
0100
0010
0100
1000
,
0000
0000
0011
0000
0010
0100
0000
1100
,
0000
1001
0000
0101
0000
1010
0000
1001
,
0000
0110
0000
0011
0000
1001
0000
0110
,
0000
0000
1000
0000
0100
1000
0000
1010
,
0000
0110
0000
0101
0000
0011
0000
0110
,
0000
1100
0000
1010
0000
0101
0000
1001
;

//---------------dance-single - ----------------
#NOTES:
     dance-single:
     :
     Medium:
     10:
     0.476124,0.600902,0.438535,0.166643,0.000000,380.000000,330.000000,50.000000,19.000000,0.000000,0.000000,0.476124,0.600902,0.438535,0.166643,0.000000,380.000000,330.000000,50.000000,19.000000,0.000000,0.000000:
0000
0000
0000
0000
,
0000
0000
0000
0000
,
0000
0000
0000
0000
,
0000
0000
0000
0000
,
0000
0000
0000
0000
,
0000
0000
0000
0000
,
1000
0000
0000
0010
0000
1000
0001
0000
,
0010
0000
0001
0000
0100
0000
0000
0001
,
0000
1000
0001
0000
1000
0000
0010
0000
,
0100
0000
0000
0010
0000
0100
0001
0000
,
0100
0000
0001
0000
1000
0000
0000
0100
,
0000
1000
0100
0000
0010
0000
0001
0000
,
1000
0000
0000
0010
0000
0100
0010
0000
,
1000
0000
0010
0000
0000
1000
0100
0000
,
0010
0001
0100
0001
,
1001
0000
0100
0010
1000
0000
0010
0000
,
0100
0000
0001
0000
0110
0000
1000
0100
,
0010
0001
1000
0010
,
0110
0000
0000
0100
0000
0010
1000
0000
,
0001
0000
1000
0000
0011
0000
0000
0010
,
0000
0001
1000
0000
1010
0000
0000
0000
,
1100
0000
0000
1000
0000
0001
0100
0000
,
0011
0000
0010
0000
0110
0000
0000
1010
,
0000
1000
0001
0000
0100
0000
0001
0000
,
0011
0000
0000
0001
0000
0100
0001
0000
,
1000
0000
0000
0000
0010
0000
0000
1000
,
0000
0001
0100
0000
0010
0000
0000
0000
,
1000
0000
0000
0100
0000
0010
0100
0000
,
0010
0000
0000
0000
0001
0000
0000
0010
,
0000
0001
1000
0000
0010
0000
0100
0000
,
0110
0000
0000
1000
0000
0001
0010
0000
,
0001
0000
1000
0000
0000
0010
1000
0000
,
0010
0001
0010
1000
,
0100
0000
0000
0110
0000
0000
1000
0000
,
0000
0110
0000
0000
0001
0000
0000
1001
,
0000
0000
0010
0000
0010
0001
0000
0010
,
0000
0100
0000
1010
0000
0000
1000
0000
,
1000
0010
0000
0100
0000
0001
0000
0101
,
0000
0000
0100
0000
0100
0010
0000
1000
,
0000
0010
0000
1010
0000
0000
1000
0000
,
0100
0010
0000
0001
0000
0010
0000
0022
,
0000
0000
0000
0000
,
0000
0000
0000
0033
0000
0100
0010
0001
,
0000
0100
0000
0010
0000
1000
0000
2002
,
0000
0000
0000
0000
0000
0000
0000
3003
,
0000
0010
0000
0202
0000
0000
0000
0000
,
0000
0000
0000
0303
0000
0000
0002
0200
,
0000
0000
0000
0000
,
0000
0000
0303
0000
0100
0010
0000
1000
,
0000
0100
0000
0010
0000
0001
0000
2002
,
0000
0000
0000
0000
0000
0000
0000
3003
,
0000
0100
0000
2020
0000
0000
0000
0000
,
0000
0000
0000
0000
0000
3030
0000
0220
,
0000
0000
0000
0000
,
0000
0000
0000
0330
0000
1000
0100
0010
,
0000
0001
0000
0010
0000
1000
0000
0020
,
0000
0000
0000
0000
0000
0000
0000
0030
,
0000
1001
0000
0202
0000
0000
0000
0000
,
0000
0000
0000
0000
0303
0000
2000
0020
,
0000
0000
0000
0000
,
0000
0000
3030
0000
0001
0100
0000
0010
,
0000
1000
0000
0100
0000
0010
0000
0001
,
0000
0010
0001
0010
0000
0000
0001
0010
,
0000
0100
0000
1000
0000
0010
0100
0000
,
0010
1000
0000
0100
1000
0000
0100
0010
,
0000
0000
0100
0000
0010
0001
0000
0100
,
0000
0001
0000
1000
0000
0100
1000
0100
,
0000
1000
0010
1000
0000
0010
0000
0100
,
0000
0000
0001
0000
0100
0001
0000
0010
,
0000
0011
0000
0110
0000
0000
1000
0000
,
0100
1000
0000
0010
0000
1000
0000
0010
,
0000
0000
0110
0000
0100
0001
0000
1000
,
0000
0100
0000
1000
0000
0001
1000
0001
,
0000
0100
0010
0100
0000
0010
1000
0010
,
0000
0000
1000
0000
0100
1000
0000
0100
,
0000
0010
0000
0100
0000
0000
0010
0000
,
0001
0010
0000
0001
0000
1000
0000
0001
,
0000
0100
0001
0000
0001
0010
0000
0100
,
0000
0010
0000
0100
0000
0010
0100
0000
,
0100
1000
0000
1100
0000
0000
0000
1000
,
0000
1000
0100
0000
0100
0010
0000
0010
,
0000
0001
0000
0100
0000
0001
0010
0000
,
0010
0100
0000
1000
0000
0010
0000
0110
,
0000
1000
0000
0100
0000
1100
0000
1000
,
0000
0001
0000
0101
0000
0100
0000
0010
,
0000
1010
0000
1000
0000
0010
0000
1001
,
0000
0000
1000
0000
0001
0010
0000
0100
,
0000
0010
0000
0011
0000
0000
0010
0000
,
0100
1000
0000
0010
0000
0100
0000
0110
,
0000
1000
0000
0010
0000
1010
0000
1000
,
0000
0100
0000
1100
0000
0010
0000
0100
,
0000
0110
0000
0010
0000
0001
0000
0101
,
0000
0000
0100
0000
0001
0010
0000
0110
,
0000
1100
0000
1000
0000
0010
0000
0101
,
0000
0100
0000
0001
0000
0011
0000
1100
,
0000
0000
1000
0000
0010
0100
0000
0110
,
0000
0101
0000
1000
0000
1100
0000
0001
,
0000
0101
0000
0010
0000
0100
0000
0110
;

//---------------dance-single - ----------------
#NOTES:
     dance-single:
     :
     Easy:
     6:
     0.300710,0.429216,0.140331,0.201726,0.000000,240.000000,224.000000,16.000000,23.000000,0.000000,0.000000,0.300710,0.429216,0.140331,0.201726,0.000000,240.000000,224.000000,16.000000,23.000000,0.000000,0.000000:
0000
0000
0000
0000
,
0000
0000
0000
0000
,
0000
0000
0000
0000
,
0000
0000
0000
0000
,
0000
0000
0000
0000
,
0000
0000
0000
0000
,
0010
0000
0000
0001
0000
0000
1000
0000
,
0010
0000
0000
0000
1000
0000
0000
0001
,
0000
0100
0001
0000
,
1000
0000
0000
0100
0000
0000
1000
0000
,
0001
0000
0000
0000
0100
0000
0000
0001
,
0000
1000
0001
1000
,
0100
0000
0000
0010
0000
0000
0100
0000
,
0010
0001
0000
0010
,
0100
0010
0001
0100
,
0202
0000
0000
0000
,
0000
0303
2200
0000
,
0000
0000
0000
3300
,
1000
0000
0000
0001
0000
0000
1000
0000
,
0010
0000
0100
0000
0010
0000
0000
0100
,
0000
0001
1000
0000
,
0001
0000
0000
1000
0000
0000
0100
0000
,
1000
0000
0010
0000
0100
0000
0000
0010
,
0000
0100
0001
0010
,
0100
0000
0000
0010
0000
0000
0100
0000
,
1000
0000
0000
0000
0100
0000
0000
1000
,
0000
0001
0100
0000
,
0001
0000
0000
1000
0000
0000
0010
0000
,
1000
0000
0000
0000
0001
0000
0000
0010
,
0000
0001
0010
0100
,
0010
0000
0000
0100
0000
0000
1000
0000
,
0010
1000
0000
1000
,
0001
0010
0100
0010
,
0001
0000
0000
1000
0000
0000
0001
0000
,
0000
1000
0000
0000
0001
0000
0000
1000
,
0000
0000
0001
0000
0000
0010
0000
0001
,
0000
0100
0000
0001
0000
0000
1000
0000
,
0000
0010
0000
0100
0000
0010
0000
1000
,
0000
0000
0100
0000
0000
1000
0000
0001
,
0000
0100
0000
0001
0000
0000
0010
0000
,
0000
0100
0000
0010
0000
0010
0000
0022
,
0000
0000
0000
0000
,
0000
0000
0033
0000
0000
0010
0000
1000
,
0000
0010
0000
0100
0000
0001
0000
0020
,
0000
0000
0000
0030
,
0000
0100
0000
2000
0000
0000
0000
0000
,
0000
0000
0000
3000
0000
0100
0000
0020
,
0000
0000
0000
0000
,
0000
0000
0030
0000
0000
0100
0000
1000
,
0000
0010
0000
0100
0000
0001
0000
2000
,
0000
0000
0000
0000
0000
0000
0000
3000
,
0000
0010
0000
0200
0000
0000
0000
0000
,
0000
0000
0000
0000
0000
0300
0000
0022
,
0000
0000
0000
0000
,
0000
0000
0033
0000
0000
0010
0000
0100
,
0000
1000
0000
0010
0000
0100
0000
0002
,
0000
0000
0000
0000
0000
0000
0000
0003
,
0000
1000
0000
2020
0000
0000
0000
0000
,
0000
0000
3030
0000
0000
0010
0000
2000
,
0000
0000
0000
0000
,
0000
0000
0000
3000
0000
0001
0000
0010
,
0000
0100
0000
1000
0000
0010
0000
0100
,
0000
0010
0000
1000
0000
0000
0000
1000
,
0000
0100
0000
0010
0000
0001
0000
0010
,
0000
0100
0000
0010
0000
0001
0000
2002
,
0000
0000
0000
0000
,
0000
0000
0000
3003
0000
1000
0000
0010
,
0000
0100
0000
0010
0000
1000
0000
0002
,
0000
0000
0000
0000
0000
0000
0000
0003
,
0000
0110
0000
0002
0000
0000
0000
0000
,
0000
0003
0000
0010
0000
0100
0000
2000
,
0000
0000
0000
0000
,
0000
0000
0000
3000
0000
1000
0000
0010
,
0000
0001
0000
0010
0000
1000
0000
0200
,
0000
0000
0000
0000
,
0000
0000
0000
0000
,
0000
0000
0000
0000
0000
0300
0000
0010
,
0000
0000
0001
0000
0000
0010
0000
0100
,
0000
1000
0000
0100
0000
0000
1000
0000
,
0000
0010
0000
1000
0000
0000
0000
0010
,
0000
0000
1000
0000
0000
0001
0000
0010
,
0000
0001
0000
0100
0000
0000
0001
0000
,
0000
1000
0000
0100
0000
1000
0000
1100
,
0000
0000
0000
0000
0000
0011
0000
0000
,
0000
0000
0000
0101
0000
0000
0000
0000
,
0000
1010
0000
0000
0000
0000
0000
1000
,
0000
0000
0001
0000
0000
0010
0000
0001
,
0000
0100
0000
0010
0000
0000
1000
0000
,
0000
0010
0000
1000
0000
0100
0000
0110
,
0000
0000
0000
0000
0000
1001
0000
0000
,
0000
0000
0000
0101
0000
0000
0000
0000
,
0000
1010
0000
0000
0000
0000
0000
1000
,
0000
0000
0001
0000
0000
0010
0000
0100
,
0000
0010
0000
0001
0000
0010
0000
0001
,
0000
1000
0000
0010
0000
0100
0000
0010
,
0000
0000
1000
0000
0000
0100
0000
1000
,
0000
0100
0000
0001
0000
0100
0000
1000
,
0000
0010
0000
0001
0000
0010
0000
1001
;

//---------------dance-single - ----------------
#NOTES:
     dance-single:
     :
     Beginner:
     3:
     0.146596,0.257530,0.201726,0.166643,0.000000,117.000000,94.000000,23.000000,19.000000,0.000000,0.000000,0.146596,0.257530,0.201726,0.166643,0.000000,117.000000,94.000000,23.000000,19.000000,0.000000,0.000000:
0000
0000
0000
0000
,
0000
0000
0000
0000
,
0000
0000
0000
0000
,
0000
0000
0000
0000
,
0000
0000
0000
0000
,
0000
0000
0000
0000
,
1000
0000
0000
0001
,
0000
0000
0010
0000
,
0000
0100
0000
0000
,
1001
0000
0000
1000
,
0000
0000
0001
0000
,
0000
0010
0000
0000
,
0100
0000
0000
1000
,
0000
0000
0001
0000
,
0000
0100
0000
0000
,
0110
0000
0000
0000
,
0000
0000
1001
0000
,
0000
0000
0000
0000
,
1000
0000
0000
0001
,
0000
0000
0010
0000
,
0000
0100
0000
0000
,
0100
0000
0000
0010
,
0000
0000
0001
0000
,
0000
1000
0000
0000
,
1001
0000
0000
0100
,
0000
0000
0010
0000
,
0000
0100
0000
0000
,
1001
0000
0000
0001
,
0000
0000
0100
0000
,
0000
0010
0000
0000
,
1000
0000
0000
0001
,
0000
0000
0010
0000
,
0000
0100
0000
0000
,
1001
0000
0000
0000
,
0000
0000
0000
0000
0000
0000
0000
0110
,
0000
0000
0000
0000
,
0000
0000
0000
1001
0000
0000
0000
0000
,
0000
0000
0000
0000
0000
0000
0000
0110
,
0000
0000
0000
0000
,
0000
0000
0000
1001
0000
0000
0000
0000
,
0000
0000
0000
0000
0000
0000
0000
0220
,
0000
0000
0000
0000
,
0000
0000
0330
0000
,
0000
1000
0000
0000
0000
0000
0000
0002
,
0000
0000
0000
0000
,
0000
0003
0000
2000
0000
0000
0000
0000
,
0000
0000
0000
0000
0000
3000
0000
0020
,
0000
0000
0000
0000
,
0000
0000
0000
0030
0000
0000
0000
0000
,
0000
0100
0000
0000
0000
0000
0000
0002
,
0000
0000
0000
0000
,
0000
0003
0000
0220
0000
0000
0000
0000
,
0000
0000
0000
0000
0000
0330
0000
2002
,
0000
0000
0000
0000
,
0000
0000
0000
3003
0000
0000
0000
0000
,
0000
1000
0000
0000
0000
0000
0000
0002
,
0000
0000
0000
0000
,
0000
0003
0000
2000
0000
0000
0000
0000
,
0000
0000
0000
0000
0000
3000
0000
0020
,
0000
0000
0000
0000
,
0000
0030
0000
0100
0000
0000
0000
0000
,
0000
0010
0000
0000
0000
0000
0000
1000
,
0000
0000
0000
0000
0000
0001
0000
0000
,
0000
0000
0000
0010
0000
0000
0000
0000
,
0000
0100
0000
0000
0000
0000
0000
2020
,
0000
0000
0000
0000
,
0000
0000
0000
3030
0000
0000
0000
0000
,
0000
1000
0000
0000
0000
0000
0000
0002
,
0000
0000
0000
0000
,
0000
0003
0000
0020
0000
0000
0000
0000
,
0000
0000
0000
0030
0000
0000
0000
0200
,
0000
0000
0000
0000
,
0000
0000
0000
0300
0000
0000
0000
0000
,
0000
1000
0000
0000
0000
0000
0000
0200
,
0000
0000
0000
0000
,
0000
0000
0000
0000
,
0000
0000
0000
0000
0000
0300
0000
1000
,
0000
0000
0000
0000
0000
0010
0000
0000
,
0000
0000
0000
0100
0000
0000
0000
0000
,
0000
0001
0000
0000
0000
0000
0000
0001
,
0000
0000
0000
0000
0000
0100
0000
0000
,
0000
0000
0000
0010
0000
0000
0000
0000
,
0000
1000
0000
0000
0000
0000
0000
0110
,
0000
0000
0000
0000
0000
1001
0000
0000
,
0000
0000
0000
0110
0000
0000
0000
0000
,
0000
1001
0000
0000
0000
0000
0000
1000
,
0000
0000
0000
0000
0000
0001
0000
0000
,
0000
0000
0000
0010
0000
0000
0000
0000
,
0000
0100
0000
0000
0000
0000
0000
0110
,
0000
0000
0000
0000
0000
1001
0000
0000
,
0000
0000
0000
0110
0000
0000
0000
0000
,
0000
1001
0000
0000
0000
0000
0000
1000
,
0000
0000
0000
0000
0000
0010
0000
0000
,
0000
0000
0000
0100
0000
0000
0000
0000
,
0000
0001
0000
0000
0000
0000
0000
1000
,
0000
0000
0000
0000
0000
0100
0000
0000
,
0000
0000
0000
0010
0000
0000
0000
0000
,
0000
0001
0000
0000
0000
0000
0000
1001
;

//---------------dance-single - ----------------
#NOTES:
     dance-single:
     :
     Challenge:
     15:
     0.771821,0.901354,0.692885,0.070166,0.048239,616.000000,537.000000,79.000000,8.000000,0.000000,0.000000,0.771821,0.901354,0.692885,0.070166,0.048239,616.000000,537.000000,79.000000,8.000000,0.000000,0.000000:
// measure 0
0000
0000
0000
0000
,  // measure 1
0000
0000
0000
0000
,  // measure 2
0000
0000
0000
0000
,  // measure 3
0000
0000
0000
0000
,  // measure 4
0000
0000
0000
0000
,  // measure 5
0000
0000
0000
0000
,  // measure 6
1001
0000
1000
0010
0000
0010
0001
0000
,  // measure 7
1100
0000
0101
0000
0011
0000
0010
0100
,  // measure 8
0000
0001
0100
0000
1001
0000
0101
0000
,  // measure 9
1010
0000
1000
0100
0000
0001
0100
0000
,  // measure 10
0011
0000
1010
0000
1100
0000
1000
0010
,  // measure 11
0000
1000
0010
0100
0010
0001
0010
0100
,  // measure 12
0110
0000
0000
1000
0000
0100
1000
0000
,  // measure 13
0010
0000
1010
0000
0000
1000
0010
0100
,  // measure 14
0001
0010
0100
0000
1000
0000
1100
0000
,  // measure 15
1001
0000
0100
0001
0010
0001
0010
0100
,  // measure 16
1000
0000
0010
0000
0100
0010
0100
0010
0100
0000
0000
0000
0100
0000
0010
0000
,  // measure 17
1000
0001
1000
0100
0010
0001
0010
0100
,  // measure 18
0010
1000
0010
0110
0100
0010
0001
0000
,  // measure 19
0101
0000
0110
0000
1000
0001
1000
0110
,  // measure 20
0010
0100
0101
0000
1100
0000
0000
0000
,  // measure 21
1000
0010
1000
0100
1000
0010
1000
0000
,  // measure 22
0011
0000
0110
0000
0010
0001
0100
0001
,  // measure 23
0010
0001
0100
0000
0110
0000
0101
0000
,  // measure 24
1001
0000
0000
1000
0000
0100
1000
0000
,  // measure 25
1010
0000
0110
0000
0101
0000
0000
1000
,  // measure 26
0000
0001
0010
0000
0110
0000
0011
0000
,  // measure 27
1001
0000
0000
1000
0000
0010
0100
0000
,  // measure 28
0110
0000
1010
0000
1001
0000
0000
1000
,  // measure 29
0000
0100
0001
0100
1000
0100
0010
0001
,  // measure 30
0110
0000
0000
0110
0000
1000
0010
0000
,  // measure 31
1000
0000
0110
0000
1001
1000
0100
0010
,  // measure 32
0001
0100
0010
1000
0100
1000
0010
0100
,  // measure 33
0010
0001
0010
1000
0100
0010
0100
0001
,  // measure 34
0100
0010
0001
1000
0010
0100
0010
1010
,  // measure 35
0000
1000
0010
0000
0010
0100
0000
0101
,  // measure 36
0000
0101
0000
0010
0000
0001
0010
0000
,  // measure 37
1000
0010
0000
0101
0000
0101
0000
1000
,  // measure 38
0000
0100
0001
0000
0100
1000
0000
0011
,  // measure 39
0000
1100
0000
1000
0000
0010
0001
0000
,  // measure 40
0010
1000
0001
0010
1000
0010
0100
0120
,  // measure 41
0000
0000
0100
0000
1000
1000
0000
0001
,  // measure 42
0000
0130
0000
1010
0000
1000
0010
1000
,  // measure 43
0100
0010
1000
0010
0100
1000
0001
0102
,  // measure 44
0000
0000
1000
0000
0100
0100
0000
0010
,  // measure 45
0000
1003
0000
1020
0000
0000
1000
0000
,  // measure 46
0001
0000
0001
0000
0000
0000
0100
0000
0000
0000
1030
0000
0001
0010
0200
0000
,  // measure 47
0000
0000
0001
0000
1000
1000
0000
0001
,  // measure 48
0000
0310
0000
0010
1000
0010
0100
0010
,  // measure 49
0001
1000
0010
0001
0010
0100
0010
2000
,  // measure 50
0000
0000
0010
0000
0001
0001
0000
0010
,  // measure 51
0000
3100
0000
1002
0000
0000
1000
0000
,  // measure 52
0010
0010
0000
0100
0000
1003
0000
1100
,  // measure 53
0000
1000
0010
0000
0001
0010
0000
0110
,  // measure 54
0000
0101
0000
0110
0000
1000
0010
1000
,  // measure 55
0100
0010
0001
0100
1000
0001
0010
1010
,  // measure 56
0000
1000
0010
0000
0001
0010
0000
0100
,  // measure 57
0000
0101
0000
0011
0000
0010
0100
0000
,  // measure 58
0001
0000
0100
0000
0000
0000
1000
0000
0000
0000
0001
0000
0100
0010
1000
0000
,  // measure 59
0000
0100
1000
0000
0100
0001
0000
1000
,  // measure 60
0000
0010
0000
0100
0001
0100
0010
0001
,  // measure 61
1000
0001
0010
1000
0010
0001
1000
0100
,  // measure 62
0000
0100
0010
2000
0000
0000
3010
1000
,  // measure 63
0010
0001
1000
0100
0001
1000
0001
0100
,  // measure 64
1000
0010
0100
1000
0001
0010
0100
0110
,  // measure 65
0000
0100
0010
0000
1000
0010
0000
1000
,  // measure 66
0000
0010
0000
1010
0000
1000
0010
0100
,  // measure 67
0001
0010
1000
0010
0001
0100
0001
1000
,  // measure 68
0000
1000
0010
0000
0001
0010
0000
0100
,  // measure 69
0000
1100
0000
0101
0000
1000
0100
0000
,  // measure 70
0100
0001
0000
0100
0010
0100
1000
0002
,  // measure 71
0000
1000
1000
0000
0010
0010
0000
0100
,  // measure 72
0000
0100
0000
0013
0000
1000
0010
0001
,  // measure 73
0010
1000
0100
0001
0100
0010
0001
0100
,  // measure 74
0000
1000
0100
0000
0001
1000
0000
0010
,  // measure 75
0000
0001
0000
1000
0000
0100
0001
0000
,  // measure 76
0100
1000
0000
0100
0000
0010
0000
0001
,  // measure 77
0010
1000
0010
0001
0010
1000
0000
0100
,  // measure 78
0000
0010
0000
0001
1000
0100
0001
0100
,  // measure 79
1000
0001
0000
0101
0000
0000
0000
0010
,  // measure 80
0100
0001
1000
0100
0001
0100
0000
1000
,  // measure 81
0000
0010
0000
1000
0010
0001
0010
1000
,  // measure 82
0100
0000
0001
0000
0100
0000
1000
0000
0001
0000
0010
0100
0010
0100
0010
0000
,  // measure 83
0001
0010
0100
0010
1000
0001
0100
0010
,  // measure 84
0001
0000
1000
0000
0010
0100
0010
0000
0100
0000
1000
0000
0100
0000
0001
0000
,  // measure 85
0100
0010
1000
0001
0100
1000
0100
0110
,  // measure 86
0000
0000
0010
0000
0100
1000
0000
0100
,  // measure 87
0000
0010
0000
1001
0000
0000
1000
0000
,  // measure 88
0100
0000
1000
0000
0000
0000
0001
0000
0000
0000
1000
0000
0010
0100
0010
0000
,  // measure 89
0100
0000
0010
0000
1000
0000
0100
0000
0010
0100
0010
0000
0100
0000
1000
0000
,  // measure 90
0001
0000
1000
0000
0001
0100
0001
0000
1000
0000
0001
0000
0100
0000
0001
0000
,  // measure 91
0010
0100
0010
0000
0001
0000
1000
0000
0001
0000
0100
0000
0010
0000
0110
0000
,  // measure 92
0000
0000
0100
0000
0001
0010
0000
0011
,  // measure 93
0001
0100
0010
1001
0000
0110
0100
0010
,  // measure 94
1000
1100
0000
1001
0000
0110
0000
1001
,  // measure 95
0000
0000
0110
0000
1000
0010
0000
1010
,  // measure 96
0010
1000
0001
0101
0000
1001
1000
0010
,  // measure 97
0100
0110
0000
0011
0001
1000
0100
0110
;
