#TITLE:HIMIKO;
#SUBTITLE:;
#ARTIST:SUZAKU vs. GENBU;
#TITLETRANSLIT:;
#SUBTITLETRANSLIT:;
#ARTISTTRANSLIT:;
#GENRE:;
#CREDIT:;
#BANNER:bn.png;
#BACKGROUND:bg.png;
#LYRICSPATH:;
#CDTITLE:;
#MUSIC:Himiko.ogg;
#OFFSET:0.650000;
#SAMPLESTART:7.804000;
#SAMPLELENGTH:17.291000;
#SELECTABLE:YES;
#BPMS:0.000000=92.500000
,13.000000=185.000000
,130.000000=92.500000
,162.000000=185.000000
,303.000000=175.000000
,319.000000=170.000000
,331.000000=164.000000
;
#STOPS:237.000000=0.324000
;
#BGCHANGES:;
#KEYSOUNDS:;
#ATTACKS:;

//---------------dance-single - ----------------
#NOTES:
     dance-single:
     :
     Challenge:
     19:
     1.099442,1.201745,0.454070,0.007696,1.219831,1000.000000,941.000000,59.000000,1.000000,0.000000,0.000000,1.099442,1.201745,0.454070,0.007696,1.219831,1000.000000,941.000000,59.000000,1.000000,0.000000,0.000000:
0000
0000
0000
0000
1001
0000
0000
0000
0110
0000
0000
0000
1000
0010
1000
0001
,
0010
0100
1000
0010
0100
0010
1000
0000
0000
0000
0000
0000
1001
0000
0000
0110
,
0000
0000
0101
0000
0000
0000
0000
0011
0000
0000
0000
0000
0000
0000
0000
0001
,
0010
0100
1000
0001
1001
0000
1000
0000
0100
0000
0010
0000
0001
1000
0001
0000
,
0001
0000
0100
0000
0010
0000
1000
0000
0001
0000
0010
0000
0100
1000
0100
0000
,
1000
0000
0010
0000
0100
0000
0001
0000
0010
0000
0100
0000
0010
0100
0010
0000
,
0001
0000
1000
0000
0010
0000
0100
0000
0001
0000
0010
0000
0100
0010
0100
0000
,
1000
0000
0001
0000
0100
0000
0001
0000
0100
0000
0010
0000
1000
0010
1000
0000
,
0100
0000
1000
0000
0100
0000
0010
0000
0100
0000
0010
0000
0001
0010
0001
0000
,
0010
0000
0100
0000
1000
0000
0001
0000
0100
0000
0001
0000
0100
0001
0100
0000
,
0010
0000
0100
0000
0110
0000
1001
0000
0010
0000
1000
0000
0100
1000
0100
0000
,
0010
0100
0010
0000
1001
0000
0001
0000
0101
0000
0010
0000
0001
0000
1000
0000
,
0100
1000
0101
0100
0110
1000
0100
1000
,
0001
0010
0011
0001
1001
1000
0010
1000
,
0100
1000
1100
0100
0110
0010
0001
0010
,
0001
1000
1001
1001
1010
1010
0010
1000
,
0100
1000
1001
1001
1010
1010
0100
1000
,
0001
0001
0110
0110
1100
1100
0001
0100
,
0001
0100
0101
0101
1001
1001
1000
0100
,
0100
0000
0010
0000
0001
0010
0001
0000
0010
0000
0100
1000
0000
0001
1000
0000
,
0010
1000
0100
0000
1000
0000
0001
0010
0000
0100
1000
0000
0001
0100
0001
0000
,
1000
0000
0010
1000
0000
0100
1000
0000
0001
0010
0001
0000
0010
0000
0100
1000
,
0000
0001
0100
0000
0001
1000
0001
0000
1000
0000
0100
1000
0000
0100
1000
0000
,
0001
0010
0100
0001
0100
0010
0001
0000
1000
0000
0001
0100
0000
0001
1000
0000
,
0010
1000
0010
0000
1000
0000
0100
1000
0000
0001
0010
0000
0100
1000
0001
0000
,
0100
0000
0010
1000
0000
0100
1000
0000
0001
0010
0001
0000
1000
0000
0100
1000
,
0000
0001
0100
0000
0010
1000
0100
0000
0001
0000
0100
1000
0000
0010
0001
0000
,
1000
0100
0001
0000
0001
0000
0100
0010
1000
0100
0001
0100
1000
0100
0010
0000
,
0001
0000
0100
0010
0000
1000
0001
0000
1000
0100
0010
0000
0001
0000
1000
0001
,
0000
0100
0001
0000
1000
0100
1000
0000
0001
0000
0010
0100
0000
1000
0001
0000
,
0100
0010
1000
0000
0001
0000
1000
0100
0000
0010
0001
0000
1000
0100
1000
0000
,
0001
0000
0100
0001
0000
1000
0010
0000
1000
0100
1000
0000
0001
0000
0010
1000
,
0000
0010
0001
0000
0001
0010
0100
0000
1001
0000
0000
0000
1010
0000
0000
0000
,
0110
0000
0101
0000
0011
0000
0011
0110
,
1100
1001
1010
0110
,
0101
0000
0011
0100
1010
0000
0101
0100
,
1010
0000
0010
0000
1001
0000
0000
0000
1001
1000
0100
0001
1000
0010
0001
1000
,
0010
0100
0001
0010
1000
0010
0001
1000
0001
0100
0001
1000
0010
0001
0010
1000
,
0001
0100
0001
0010
0100
0001
1000
0010
0001
1000
0001
0010
0100
0001
0100
1000
,
0100
0010
0100
1000
0010
1000
0001
0100
0010
0000
0000
0000
1000
0000
0100
0000
,
0011
0000
0000
0000
1001
1001
1001
0000
1000
0100
0010
0001
0010
0001
0010
0000
,
0100
0010
0001
0000
0010
0000
0001
0010
0100
0010
0100
1000
0001
0100
0010
0000
,
1000
0001
1000
0100
0010
0001
1000
0000
0100
1000
0001
0000
0100
0000
0001
1000
,
0001
1000
0100
1000
0001
0100
0001
0000
0001
0100
0001
0010
0100
1000
0001
0000
,
0100
0010
1000
0000
0100
0000
1000
0001
0010
0100
1000
0001
0100
0010
1000
0000
,
0001
1000
0100
0010
0001
1000
0010
0000
1000
0001
1000
0000
0100
0000
0010
0001
,
1000
0001
0100
0010
1000
0001
1000
0000
0100
0010
0001
1000
0010
0100
0010
0000
,
0001
0010
0100
0000
0001
0000
1000
0001
0100
0010
1000
0100
0001
0100
1000
0000
,
0001
1000
0100
0010
1000
0010
0100
0000
1000
0100
0010
0000
0001
0000
0100
0010
,
1000
0010
1000
0100
0001
0100
1000
0000
0100
1000
0001
0100
1000
0100
0001
0000
,
1000
0100
1000
0000
0001
0000
0010
1000
0010
0001
1000
0010
1000
0001
0100
0000
,
0001
1000
0100
1000
0001
0010
1000
0000
0010
0000
0001
0000
1000
0000
0010
0000
,
1000
0000
0100
0000
1000
0000
0001
0010
0001
0000
0010
0000
0100
0000
1000
0000
,
0001
0000
0100
0000
0010
0000
1000
0010
1000
0000
0100
0000
1000
0000
0001
0000
,
0010
0000
0100
0000
1000
0000
0001
0100
0001
0010
0001
0100
0001
0010
0100
0001
,
0100
0000
0000
1000
0000
0000
0100
0000
0000
0000
0000
0000
1000
0000
0100
0000
1000
0000
0100
0000
0000
0000
0000
0000
1000
0000
0000
0000
0000
0000
0100
0000
0000
0000
0000
0000
0010
0000
0000
0000
0000
0000
0001
0000
0000
0000
0000
0000
,
0010
0000
0100
0000
1000
0000
0001
0100
0001
0000
1000
0000
0010
0000
1000
0000
,
0100
0000
1000
0000
0001
0000
0010
0100
0010
0000
0001
0000
1000
0000
0100
0000
,
1000
0000
0001
0000
0100
0000
0001
1000
0001
0010
1000
0010
0001
1000
0100
0001
,
0100
1000
0010
0100
0010
0000
0000
0000
1010
0000
0000
0000
0100
0000
1000
0100
,
0010
0000
0001
0010
0100
0000
1000
0001
0100
0000
0010
1000
0001
0000
0010
0100
,
1000
0000
0001
0100
0010
0000
1000
0001
0010
0001
1000
0001
0100
0000
0100
0010
,
1000
0000
0001
1000
0100
0000
0010
0001
1000
0000
0100
1000
0001
0000
0100
0010
,
1000
0000
0001
0010
0100
0000
1000
0001
1000
0001
0010
0100
0010
0000
0010
0100
,
1000
0000
0001
0100
1000
0000
1000
0100
0001
0000
0100
0010
0001
0000
0001
0010
,
1000
0000
0001
0100
0010
0000
1000
0001
0100
0001
0010
0001
1000
0000
1000
0100
,
1000
0000
0001
0100
0010
0000
0010
0100
0001
0000
0001
0010
0100
0000
1000
0001
,
0100
0000
0010
1000
0100
0000
1000
0001
0010
0000
0010
0001
1000
0001
0100
0010
,
1000
0001
0100
0000
0010
1000
0100
0010
0100
1000
0010
0100
0001
0010
0100
1000
,
0001
1000
0100
0000
0010
0001
1000
0100
1000
0010
0100
0001
0010
0001
0100
0010
,
1000
0100
1000
0000
0001
0010
0100
1000
0010
0100
0001
0010
0001
1000
0100
0010
,
0001
1000
0100
0000
1000
0001
0100
0010
1000
0001
1000
0010
1000
0000
0010
1000
,
0001
0000
0000
1000
0000
0000
0010
0000
0000
1000
0000
0000
0001
0000
0000
0000
0000
0000
0010
0000
0001
0000
0010
0000
0001
0000
0000
0000
0000
0000
0010
0000
0001
0000
0010
0000
0001
0000
0000
0000
0000
0000
0010
0000
0000
0001
0000
0000
,
1000
0000
0000
0001
0000
0000
0100
0000
0000
0001
0000
0000
1000
0000
0000
0000
0000
0000
1000
0000
0010
0000
1000
0000
0010
0000
0000
0000
0000
0000
1000
0000
0010
0000
1000
0000
0010
0000
0000
0000
0000
0000
1000
0000
0000
0100
0000
0000
,
1000
0100
0010
0001
0010
0001
1000
0100
0010
0001
0100
0010
0100
0001
0010
0100
,
1000
0000
0000
0001
0000
0000
0100
0000
0000
0001
0000
0000
0100
0000
0010
0000
0100
0000
0010
0000
0100
0000
0010
0000
1000
0000
0100
0000
0010
0000
0001
0000
0010
0000
0100
0000
1000
0000
0000
0000
0000
0000
1000
0000
0000
0000
0000
0000
,
0110
0010
0001
1100
0000
0000
0100
0000
,
0101
0000
0100
0001
1000
0000
0100
0010
1000
0010
0100
0000
1000
0100
0001
0100
,
1000
0000
1000
0010
0100
0010
0001
0000
0000
0000
0000
0000
0010
0100
0001
1000
,
0001
0100
1000
0100
0001
1000
0010
1000
0100
0010
0100
0000
1000
0000
0000
0000
,
0100
0010
1000
0010
0100
0000
0000
0000
1000
0010
0100
0010
0001
0000
0000
0000
,
0010
0100
0010
1000
0001
0000
0000
0000
0010
0100
0010
0001
1000
0100
0010
0100
,
0000
0000
0100
1000
0100
0010
0001
0000
0010
0100
1000
0001
0010
0000
0000
0000
,
0000
0100
1000
0010
0100
0001
0010
0100
1000
0001
0100
0010
0100
0000
0000
0000
,
0000
0000
0000
0000
0001
0010
0100
1000
0001
0010
0100
1000
0001
0100
0010
1000
,
0001
0100
0010
1000
0001
0010
0100
1000
0002
0000
0000
0000
0000
0000
0000
0000
,
0000
0000
0000
0003
;

//---------------dance-single - ----------------
#NOTES:
     dance-single:
     :
     Hard:
     17:
     0.920233,1.101600,0.253971,0.023088,0.769610,837.000000,804.000000,33.000000,3.000000,0.000000,0.000000,0.920233,1.101600,0.253971,0.023088,0.769610,837.000000,804.000000,33.000000,3.000000,0.000000,0.000000:
0000
0000
0000
0000
2000
0000
0000
0000
3002
0000
0000
0000
1003
0001
0010
0100
,
0010
0100
1000
0001
1000
0000
0000
0000
0000
0000
0000
0000
1100
0000
0000
0110
,
0000
0000
0011
0000
0000
0000
0000
1001
0000
0000
0000
0000
0000
0000
0000
1000
,
0100
1000
0100
0010
0001
0000
0010
0000
0100
0000
0010
0000
0100
1000
0001
0000
,
0001
0000
0100
0000
0010
0000
1000
0000
0001
0000
0010
0000
0100
1000
0001
0000
,
0100
0000
0100
0000
0010
0000
1000
0000
0001
0000
0010
0000
0100
1000
0001
0000
,
0100
0000
0100
0000
1000
0000
0100
0000
0010
0000
0100
0000
0001
0100
0001
0000
,
0001
0000
0100
0000
0010
0000
1000
0000
1000
0000
0001
0000
0010
0100
1000
0000
,
0001
0000
0001
0000
0100
0000
0001
0000
1000
0000
0010
0000
0010
1000
0001
0000
,
0010
0000
0100
0000
1000
0000
0001
0000
0100
0000
0010
0000
1000
0010
1000
0000
,
0001
0010
0110
0110
0010
0001
1000
1000
,
0010
0010
1001
1000
0100
0000
0010
0001
,
0010
0000
0110
0010
0001
0000
1000
0010
,
1000
0000
0101
0100
0010
0000
1000
0001
,
0010
0000
1010
0100
0001
0000
1000
0001
,
0010
0000
0011
0001
1001
0000
1000
0010
,
1000
0000
1010
0100
0011
0000
0010
0100
,
1000
0000
0101
0010
1001
0000
1000
0100
,
1000
0000
1100
0001
0110
0000
0100
0010
,
1000
0000
0001
0000
0010
0001
0010
0000
0100
0000
1000
0001
0000
0100
0010
0000
,
1000
0001
1000
0000
0100
0000
0010
0001
0000
1000
0001
0000
1000
0010
1000
0000
,
0001
0000
1000
0100
0000
0010
0001
0000
1000
0100
1000
0000
0001
0000
0010
0100
,
0000
1000
0001
0000
0100
0010
1000
0000
0001
0000
0100
0001
0000
1000
0010
0000
,
1000
0001
0010
0000
0001
1000
0001
0000
0010
0000
0100
1000
0000
1000
0100
0000
,
1000
0001
1000
0000
0100
0000
0010
0001
0000
0001
0010
0000
0100
0010
0100
0000
,
1000
0000
0001
0100
0000
0010
1000
0000
0001
0100
0010
0000
1000
0000
0100
1000
,
0000
0001
0010
0000
0001
0100
0001
0000
0100
0000
0001
1000
0000
0100
0010
0000
,
0100
0001
0100
0000
1000
0000
1000
0100
0010
0001
0010
0000
0001
0010
0100
0000
,
1000
0000
1000
0001
0000
0100
0010
0000
1000
0001
0010
0000
0100
0000
1000
0001
,
0000
0100
0010
0000
1000
0001
0010
0000
0100
0000
1000
0001
0000
1000
0010
0000
,
1000
0001
0100
0000
0010
0000
1000
0001
0000
1000
0100
0000
1000
0001
0010
0000
,
0100
0000
0010
0001
0000
0010
0100
0000
0010
0001
1000
0000
0001
0000
1000
0010
,
0000
1000
0010
0000
0100
0010
0100
0000
0101
0000
0000
0000
1000
0000
0000
0000
,
0110
0000
0010
0000
0011
0000
0011
0010
,
1100
1000
0110
1000
,
0011
0000
1100
0001
0101
0000
0100
0010
,
1100
0000
0100
0000
0010
0000
0000
0000
0001
0010
0100
0010
0100
1000
0100
1000
,
0001
1000
0100
0010
0001
1000
0100
1000
0001
1000
0100
1000
0001
1000
0100
1000
,
0010
1000
0001
0100
0001
1000
0001
0010
0001
0010
0100
1000
0001
0010
0100
1000
,
0001
0100
0010
1000
0001
0010
1000
0010
0001
0000
0000
0000
1000
0000
0100
0000
,
0011
0000
0000
0000
1000
0001
1000
0000
1001
0000
0100
1000
0100
0000
1000
0000
,
0001
0010
0001
0000
0100
0000
0001
1000
0001
0000
0100
0000
0010
0000
1000
0000
,
0001
0000
0010
0100
0010
0000
0001
0000
1000
0001
1000
0000
0100
0000
0010
0100
,
0010
0000
0100
0000
1000
0000
0001
0000
1000
0000
0100
0010
0100
0000
0010
0000
,
0001
0010
0001
0000
0010
0000
0100
0010
0100
0000
1000
0000
0100
0000
1000
0000
,
0010
0000
1000
0001
1000
0000
0010
0000
1000
0001
1000
0000
0100
0000
0010
0001
,
0010
0000
0001
0000
1000
0000
0010
0000
1000
0000
0100
1000
0001
0000
0100
0000
,
0001
1000
0100
0000
0010
0000
0001
1000
0010
0000
0100
0000
0010
0000
1000
0000
,
0010
0000
0100
0001
1000
0000
0100
0000
0010
0001
0100
0000
0010
0000
1000
0001
,
0100
0000
0001
0000
0010
0000
0100
0000
1000
0000
0010
1000
0100
0000
1000
0000
,
0100
0010
0001
0000
0010
0000
0001
0010
0100
0000
0010
0000
0100
0000
1000
0000
,
0001
1000
0001
1000
0001
1000
0001
1000
0001
0000
1000
0000
0010
0000
0001
0000
,
0010
0000
0100
0000
0010
0000
1000
0001
1000
0000
0100
0000
0010
0000
1000
0000
,
0010
0000
0001
0000
0010
0000
0100
0010
0100
0000
1000
0000
0010
0000
0100
0000
,
1000
0000
0100
0000
0010
0000
1000
0010
1000
0000
0001
0010
0001
0000
0100
0010
,
0100
0000
0001
0100
0001
0100
0001
0000
0011
0000
0010
0000
0100
0000
1000
0000
,
0001
0000
0100
0000
0010
0000
0100
0001
0100
0000
0010
0000
1000
0000
0100
0000
,
1000
0000
0001
0000
0010
0000
0100
0010
0100
0000
1000
0000
0010
0000
1000
0000
,
0001
0000
0100
0000
0001
0000
0100
0001
0100
0000
0010
0100
0010
0000
1000
0010
,
1000
0000
0100
1000
0100
0000
0000
0000
0110
0000
0000
0000
0001
0000
0010
0000
,
0100
1000
0001
0100
0010
1000
0001
0010
,
0100
0000
1000
0000
0010
1000
0000
1000
0010
0000
1000
0000
0001
0000
0010
0000
,
0100
1000
0001
0100
0010
1000
0001
0010
,
0100
0000
1000
0000
0001
0100
0000
0100
0001
0000
0010
0000
1000
0000
0010
0000
,
0001
0000
0100
0000
0010
1000
0010
0000
1000
0000
0001
0000
0010
0001
0010
0000
,
0001
0000
0100
0000
0001
1000
0100
0000
0001
0000
0100
0000
1000
0100
1000
0000
,
0001
0000
0010
0000
0100
0000
1000
0000
0100
0000
0010
0000
0001
1000
0001
0000
,
1000
0010
1000
0000
0001
0010
0001
0000
1000
0100
1000
0000
0100
0010
0100
0000
,
1000
0100
1000
0000
0100
0010
0100
0000
0010
0001
0010
0000
0001
0100
0001
0000
,
1000
0010
1000
0000
0010
0100
0001
0000
0100
0001
0100
0000
0001
0010
0100
0000
,
1000
0100
1000
0000
0100
0010
0100
0000
1000
0001
1000
0000
0010
1000
0001
0000
,
0010
0001
1000
0000
0100
0010
0001
0000
1000
0010
1000
0000
0001
0000
0010
0000
,
1000
0000
0000
0010
0000
0000
0001
0000
0000
1000
0001
1000
0001
0000
0000
1000
0001
1000
0001
0000
0000
0010
0000
0000
,
1000
0000
0000
0010
0000
0000
0001
0000
0000
1000
0001
1000
0001
0000
0000
1000
0001
1000
0001
0000
0000
0100
0000
0000
,
0001
0000
1000
0000
0001
1000
0100
0000
0010
0001
1000
0000
0010
0100
0010
0000
,
1000
0010
1000
0000
0010
0100
0010
0100
0001
0010
0100
1000
0100
0000
0010
0000
,
0001
1000
0100
0010
0000
0000
0001
0000
,
0110
0000
0100
1000
0100
0000
0010
0000
0000
0000
0000
0000
0001
0100
0001
0000
,
1000
0000
0010
0100
0010
0000
1000
0000
0000
0000
0000
0000
0100
0001
0100
0000
,
1000
0001
0010
0010
0001
1000
0010
0000
,
1000
0001
0010
0000
0100
1000
0001
0000
,
0010
0100
0010
0001
0010
0000
0000
0000
0100
0010
0001
0010
0100
0010
0001
0010
,
0000
0000
0010
0100
1000
0100
0010
0000
0001
0010
0100
1000
0001
0000
0000
0000
,
0000
1000
0010
0001
0010
1000
0001
0000
,
0000
0000
0000
0000
0001
0010
0001
0010
0100
0010
0100
1000
0100
1000
0001
1000
,
0001
0010
0001
0010
0100
1000
0100
1000
0200
0000
0000
0000
0000
0000
0000
0000
,
0000
0000
0000
0300
;

//---------------dance-single - ----------------
#NOTES:
     dance-single:
     :
     Medium:
     14:
     0.665163,0.734400,0.238579,0.023088,0.130834,605.000000,574.000000,31.000000,3.000000,0.000000,0.000000,0.665163,0.734400,0.238579,0.023088,0.130834,605.000000,574.000000,31.000000,3.000000,0.000000,0.000000:
0000
0000
0000
0000
2000
0000
0000
0000
0002
0000
3003
0000
0010
0100
0010
0001
,
1000
0100
0010
0000
0000
0000
0000
0000
0000
0000
0000
0000
0001
0000
0000
0010
,
0000
0000
0100
0000
0000
0000
0000
1001
0000
0000
0000
0000
0000
0000
0000
0000
,
1000
0001
1000
0100
0010
0001
0010
0100
,
1000
0000
0001
0010
0100
1000
0001
0100
,
0010
0000
1000
0001
0100
0001
1000
0100
,
1000
0000
1000
0100
0010
0001
0100
0001
,
1000
0000
0001
0100
0010
0100
0001
0010
,
0100
0000
1000
0100
0010
0001
0100
0010
,
0100
0000
0100
0001
0100
0010
1000
0100
,
0010
0000
0110
0110
0000
0000
0001
0000
,
1000
0000
1010
0010
0101
0000
0010
0000
,
0100
0000
1100
1000
0011
0000
0100
0000
,
0001
0000
0011
0010
0110
0000
1000
0000
,
0100
0000
1001
0001
0110
0000
1000
0000
,
0100
0000
0011
0001
1100
0000
1000
0000
,
0001
0000
1100
0100
0101
0000
0100
0000
,
1000
0000
1010
0010
0011
0000
0010
0000
,
1000
0000
1010
0100
0101
0000
0000
1000
,
0100
0000
0010
0000
0001
0000
0010
0000
1000
0000
0000
0010
0000
0000
0001
0000
,
1000
0000
0100
0000
1000
0000
0000
0100
0000
0000
0001
0000
0000
0100
0000
0000
,
1000
0000
1000
0000
0001
0000
0010
0000
0100
0000
1000
0000
0001
0000
0000
0100
,
0000
0000
0001
0000
1000
0000
0000
0010
0000
0000
1000
0000
0000
0000
0001
0000
,
0010
0000
0100
0000
1000
0000
0001
0000
0100
0000
0000
0010
0000
0000
1000
0000
,
0001
0000
0010
0000
0100
0000
0000
1000
0000
0000
0001
0000
0100
0000
0001
0000
,
1000
0000
0000
0100
0000
0000
0010
0000
0001
0000
0010
0000
0100
0000
0000
1000
,
0000
0000
1000
0000
0001
0000
0100
0000
0001
0000
0000
1000
0000
0000
0010
0000
,
1000
0001
0010
0100
1000
0100
0001
0100
,
1000
0000
0000
0001
0000
0000
0100
0000
0001
0000
1000
0000
0001
0000
0000
0100
,
0000
0000
1000
0000
0100
0000
0010
0000
0100
0000
0000
0001
0000
0000
0010
0000
,
1000
0000
0010
0000
0001
0000
0000
0100
0000
0000
0001
0000
1000
0000
1000
0000
,
0001
0000
0000
1000
0000
0000
0010
0000
0001
0000
0010
0000
1000
0000
0000
0000
,
1000
0000
0100
0000
0010
0001
0010
0000
1001
0000
0000
0000
0100
0000
0000
0000
,
0010
0000
0001
0000
1000
0000
0010
0100
,
0001
1000
0001
0100
,
0010
0000
1000
0010
0100
0000
0010
0001
,
0010
0100
0010
0000
1000
0100
0010
0001
,
0010
0000
0010
0000
0001
0000
1000
0001
,
0100
0010
0100
0001
,
0010
0000
1000
0010
0001
0000
1000
0100
,
0001
0000
0000
0000
0100
1000
0100
0000
1000
0000
0100
0000
0010
0000
0001
0000
,
0010
0100
1000
0001
0100
0010
1000
0000
,
0001
0010
0100
1000
0001
0100
0010
1000
,
0001
0010
0100
0000
1000
0001
0100
1000
,
0100
0001
0010
1000
0010
0001
0100
0000
,
0001
1000
0100
0010
0001
0010
1000
0010
,
0001
0100
0001
0000
0100
0010
0100
1000
,
0100
0010
0100
0001
0010
1000
0010
0000
,
0100
0010
0001
1000
0010
0100
1000
0100
,
0001
0010
1000
0000
0010
1000
0010
0001
,
0100
0010
1000
0001
1000
0100
1000
0000
,
0001
0000
0010
0000
0100
0010
0001
1000
0100
0000
1000
0000
0001
0000
0010
0000
,
0000
0010
1000
0010
0001
0100
1000
0100
,
0000
0100
0010
1000
0001
0010
1000
0010
,
0000
0001
0100
0001
0100
1000
0100
0001
,
0010
0000
1000
0000
0010
0001
0010
0000
0011
0000
0010
0000
0100
0000
1000
0000
,
0000
0100
0001
0100
0010
0001
1000
0010
,
0000
0100
0010
1000
0010
0001
0010
1000
,
0000
1000
0100
0010
0001
0010
1000
0010
,
0001
0000
0100
0000
0001
0000
0000
0000
1000
0010
0000
0000
0101
0000
0100
0000
,
0010
1000
0100
0010
0001
0010
1000
0010
,
0001
0100
0001
1000
0010
0000
0101
0001
,
0010
1000
0010
0001
0100
0010
0100
1000
,
0100
0010
1000
0001
0010
0000
0110
0010
,
0001
0010
0100
0010
1000
0010
0100
0010
,
0001
0100
0010
0100
1000
0000
0110
0010
,
1000
0100
0010
0001
1000
0010
0011
0110
,
0100
0001
1001
0000
0110
0000
0011
0010
,
1000
0010
0001
0100
1000
0100
0010
1000
,
0100
0010
0001
0100
1000
0100
0010
1000
,
0001
0010
1000
0010
0001
0100
0010
1000
,
0001
0010
0100
0001
0100
0010
1001
1000
,
0010
0000
0100
0000
1000
0000
0100
0010
0100
0000
0010
1000
0010
0000
0001
0000
,
0010
0000
1000
0000
0100
0000
0010
0100
0010
0000
0100
1000
0100
0000
1000
0000
,
0001
0010
0100
0010
1000
0010
0001
0100
,
0001
0000
0100
0000
0010
1000
0010
1000
0100
0010
0001
0100
0010
0000
0000
0000
,
1000
0000
0001
0010
0000
0000
0100
0000
,
1000
0001
0010
0100
0000
0000
1000
0001
,
0100
0000
0010
1000
0000
0000
0001
0010
,
0100
1000
0001
0100
0001
0000
1000
0000
,
0100
0010
0001
0000
0001
0010
1000
0000
,
0010
0100
0001
0000
0100
1000
0001
0010
,
0000
0010
0001
0010
0100
0010
0001
0000
,
0000
1000
0001
0100
0010
1000
0001
0000
,
0000
0000
0001
0010
0100
1000
0001
0010
,
0100
1000
0001
0010
0200
0000
0000
0000
,
0000
0000
0000
0300
;

//---------------dance-single - ----------------
#NOTES:
     dance-single:
     :
     Easy:
     12:
     0.575008,0.567491,0.246275,0.023088,0.061569,523.000000,491.000000,32.000000,3.000000,0.000000,0.000000,0.575008,0.567491,0.246275,0.023088,0.061569,523.000000,491.000000,32.000000,3.000000,0.000000,0.000000:
0000
0000
2002
0000
,
0000
0000
0000
0000
,
0000
0000
0000
0000
,
0000
3003
1000
0000
0001
0000
0010
0100
,
0010
0000
0001
0000
1000
0000
0010
0100
,
0010
0000
1000
0000
0001
0000
0010
0100
,
0010
0000
0001
0000
1000
0000
0010
0100
,
0010
0000
1000
0000
0001
0000
0010
0100
,
0010
0000
0001
0000
1000
0000
0010
0100
,
0010
0000
1000
0000
0001
0000
0010
0100
,
0010
0000
1001
1001
0000
0000
1000
0000
,
0010
0110
0101
0010
,
0100
1010
1001
0010
,
0001
0101
1001
1000
,
0010
1010
0110
0100
,
0001
0011
0110
1000
,
0010
1010
0110
0100
,
0001
0110
0011
1000
,
0010
0000
0110
0000
1001
0000
0000
0010
,
0001
0000
0010
0000
0001
0000
1000
0000
0010
0000
0000
1000
0000
0000
0010
0000
,
1000
0000
0010
0000
1010
0000
0000
1000
0000
0000
0010
0000
0000
1000
0000
0000
,
0010
0000
1000
0000
1010
0000
0010
0000
1000
0000
0000
0000
0010
0000
0000
1000
,
0000
0000
0010
0000
1010
0000
0000
0000
1000
0000
0000
0010
0000
0000
1000
0000
,
0100
0000
1000
0000
0100
0000
0010
0000
0001
0000
0000
0010
0000
0000
0001
0000
,
0010
0000
0100
0000
0010
0000
0000
0100
0000
0000
0010
0000
0100
0000
1000
0000
,
0001
0000
0001
0000
0010
0000
0001
0000
0100
0000
0010
0000
0100
0000
0000
0010
,
0000
0000
0100
0000
0010
0000
1000
0000
0001
0000
0000
1000
0000
0000
0001
0000
,
0010
1000
0010
0100
0010
0001
0100
0001
,
0100
0000
0000
0001
0000
0000
0100
0000
0010
0000
0100
0000
0010
0000
0000
1000
,
0000
0000
0010
0000
1000
0000
0010
0000
0100
0000
0000
0010
0000
0000
0100
0000
,
0001
0000
0100
0000
0001
0000
0000
0100
0000
0000
0001
0000
0100
0000
0001
0000
,
1000
0000
0000
0001
0000
0000
1000
0000
0001
0000
1000
0000
0001
0000
0000
1000
,
0000
0001
1000
0001
1001
0000
1000
0000
,
0100
0000
0010
0000
0100
0000
1000
0010
,
0001
0010
1000
0100
,
0010
0000
0001
0010
1000
0000
0010
0100
,
1000
0010
0100
0000
1010
0000
0100
0000
,
0001
0000
0010
0000
0100
0000
0010
0001
,
1000
0010
1000
0010
,
0100
0000
0000
0000
0001
0000
0010
0100
0010
0000
0000
0000
0010
0000
0100
0000
,
1000
0000
1001
0000
0100
0010
0100
0000
,
1010
0000
1000
0010
0100
0010
1000
0000
,
0001
0010
0100
0010
0001
0000
0100
0001
,
1000
0010
1000
0000
1000
0010
0100
0000
,
0010
0000
1000
0100
0010
0001
0100
0000
,
0001
1000
0010
0000
1000
0000
0100
0010
,
0100
1000
0010
0000
0100
0010
0100
0000
,
0001
0000
0010
0100
1000
0010
0100
0000
,
0010
0100
0001
0000
0010
0000
0100
0010
,
0001
1000
0010
0000
1000
0100
0001
0000
,
0100
0000
1000
0010
0100
0010
1000
0000
,
0100
1000
0100
0010
0001
0010
0001
0100
,
0000
0001
1000
0010
0100
0010
1000
0001
,
0000
0010
0100
0010
0001
0100
0001
1000
,
0000
0010
1000
0100
0010
0001
0100
0010
,
1000
0001
1001
0000
1000
0010
0001
0010
,
0000
1000
0100
0010
0001
0010
0001
0100
,
0000
0010
1000
0001
0100
0010
1000
0100
,
0000
0010
0001
0100
0001
1000
0010
1000
,
0100
0010
0011
0000
1000
0000
0010
0100
,
0010
0000
1000
0100
1000
0000
0001
0010
,
0001
0000
0010
0100
0010
0001
0100
0010
,
0100
0000
0010
0100
0001
0000
0010
0100
,
1000
0000
0010
1000
0100
1000
0010
0100
,
0010
0000
0100
0001
0010
0000
0001
1000
,
0100
0000
1000
0100
1000
0010
1000
0100
,
1000
0000
0001
0100
0001
0000
0010
0010
,
0000
0000
0001
0000
0100
0000
0001
0010
,
0100
1000
0010
0100
0010
1000
0100
0010
,
0001
0100
0001
0010
0100
0010
0001
1000
,
0010
1000
0001
0100
0010
1000
0100
0010
,
0001
0100
0001
1000
0001
0000
1000
0010
,
0001
0010
1000
0000
1100
0000
0110
0000
,
0010
0001
0100
0000
0011
0000
0101
0000
,
0100
0010
1000
0001
0100
0010
1000
0100
,
0010
0001
0100
1000
0100
0010
1000
0000
,
0100
0000
1000
0010
0000
0000
0100
0000
,
0010
0000
0100
0001
0000
0000
1000
1000
,
0010
0100
0100
0001
0000
0000
0100
0001
,
0010
0100
1000
0000
0010
1000
0010
0000
,
0100
0001
0010
0000
0100
0010
0001
0000
,
1000
0010
0100
0000
0010
1000
0100
0010
,
0000
0001
0010
0100
1000
0010
0100
0000
,
0000
0010
1000
0100
0010
0001
0100
0000
,
0000
0000
0001
0010
0100
1000
0001
0100
,
0010
1000
0001
0010
0200
0000
0000
0000
,
0000
0000
0000
0300
;

//---------------dance-single - ----------------
#NOTES:
     dance-single:
     :
     Beginner:
     6:
     0.226485,0.368258,0.192402,0.030784,0.000000,206.000000,181.000000,25.000000,4.000000,0.000000,0.000000,0.226485,0.368258,0.192402,0.030784,0.000000,206.000000,181.000000,25.000000,4.000000,0.000000,0.000000:
// measure 0
0000
0000
2002
0000
,  // measure 1
0000
0000
0000
0000
,  // measure 2
0000
0000
0000
0000
,  // measure 3
3003
0001
0000
1000
,  // measure 4
0000
0010
0000
1000
,  // measure 5
0000
0010
0000
0100
,  // measure 6
0000
0010
0000
0100
,  // measure 7
0001
0100
0000
0001
,  // measure 8
0000
0010
0000
0100
,  // measure 9
0010
0100
0000
1000
,  // measure 10
0000
1001
0000
0000
,  // measure 11
0110
1001
0000
1000
,  // measure 12
0000
0001
0000
0100
,  // measure 13
0000
0001
0000
0010
,  // measure 14
0000
0100
0000
0010
,  // measure 15
0000
1000
0000
0100
,  // measure 16
0000
0010
0000
0001
,  // measure 17
0000
1000
0000
0001
,  // measure 18
0000
1001
0000
0000
,  // measure 19
1000
1001
0000
0000
,  // measure 20
0000
1001
0000
0000
,  // measure 21
0000
1001
0000
0000
,  // measure 22
0000
0110
0000
0110
,  // measure 23
0000
0110
0000
1000
,  // measure 24
0000
0001
0000
0010
,  // measure 25
0000
0001
0000
0010
,  // measure 26
0000
0001
0000
1000
,  // measure 27
0000
0010
0010
0010
,  // measure 28
0000
1000
0000
0010
,  // measure 29
0000
0100
0000
0001
,  // measure 30
0000
0010
0000
0100
,  // measure 31
0000
0010
0000
0001
,  // measure 32
0000
1000
1001
0000
,  // measure 33
1000
0000
0001
0000
,  // measure 34
0010
0000
0100
0000
,  // measure 35
0010
0000
0001
0000
,  // measure 36
1000
0001
1001
0000
,  // measure 37
1000
0000
0010
0000
,  // measure 38
0100
0000
0001
0000
,  // measure 39
0010
0100
0010
0000
,  // measure 40
0100
0110
1001
0000
,  // measure 41
1000
0000
0010
0000
,  // measure 42
0100
0000
0001
0000
,  // measure 43
0010
0000
0100
0000
,  // measure 44
0010
0000
0001
0000
,  // measure 45
1000
0000
0010
0000
,  // measure 46
1000
0000
0100
0000
,  // measure 47
0010
0000
0001
0000
,  // measure 48
1000
0000
0010
0000
,  // measure 49
1000
0000
0001
0000
,  // measure 50
0010
0000
0100
0000
,  // measure 51
0010
0100
0010
0000
,  // measure 52
0000
0000
1001
0000
,  // measure 53
0000
0000
0110
0000
,  // measure 54
0000
0000
1001
0000
,  // measure 55
0000
0000
0110
0000
,  // measure 56
0000
0000
1001
0000
,  // measure 57
0000
0000
0110
0000
,  // measure 58
0000
0000
1001
1000
,  // measure 59
0001
1000
0000
1000
,  // measure 60
0000
0100
0000
0010
,  // measure 61
0000
0100
0010
0100
,  // measure 62
0000
0010
0000
0001
,  // measure 63
0000
1000
0001
1000
,  // measure 64
0000
0010
0000
0100
,  // measure 65
0000
0010
0100
0010
,  // measure 66
0000
0100
0000
0001
,  // measure 67
0000
1000
0000
0001
,  // measure 68
1000
0001
1000
0001
,  // measure 69
0100
0001
0100
0010
,  // measure 70
0100
0010
0100
0010
,  // measure 71
1000
0010
1000
0001
,  // measure 72
1000
0001
1000
0100
,  // measure 73
0010
0100
0010
0001
,  // measure 74
0010
0001
0100
0001
,  // measure 75
0100
0001
0110
1001
,  // measure 76
0000
1000
0000
0010
,  // measure 77
0000
0100
0000
0001
,  // measure 78
0000
0010
0000
0100
,  // measure 79
0000
1000
0000
0010
,  // measure 80
0000
0100
0000
0001
,  // measure 81
0000
0010
0000
0100
,  // measure 82
0000
1000
0000
0001
,  // measure 83
0000
1000
0000
2002
,  // measure 84
0000
0000
0000
0000
,  // measure 85
0000
0000
0000
0000
,  // measure 86
0000
0000
0000
0000
,  // measure 87
3003
0000
0000
0000
;
