#TITLE:Gourmet Race;
#SUBTITLE:Kirby Super Star;
#ARTIST:Jun Ishikawa;
#TITLETRANSLIT:;
#SUBTITLETRANSLIT:;
#ARTISTTRANSLIT:;
#GENRE:;
#CREDIT:;
#BANNER:bn.png;
#BACKGROUND:bg.png;
#LYRICSPATH:;
#CDTITLE:;
#MUSIC:Gourmet Race.ogg;
#OFFSET:-0.254000;
#SAMPLESTART:13.053000;
#SAMPLELENGTH:30.000000;
#SELECTABLE:YES;
#BPMS:0.000000=187.520004
;
#STOPS:
;
#BGCHANGES:;
#KEYSOUNDS:;
#ATTACKS:;

//---------------dance-single - ----------------
#NOTES:
     dance-single:
     :
     Challenge:
     17:
     0.871961,1.016304,0.907809,0.103328,0.236178,827.000000,704.000000,123.000000,14.000000,0.000000,0.000000,0.871961,1.016304,0.907809,0.103328,0.236178,827.000000,704.000000,123.000000,14.000000,0.000000,0.000000:
// measure 0
0000
0000
0000
0000
,  // measure 1
0000
0000
0000
0000
,  // measure 2
1010
1000
0011
0100
,  // measure 3
1010
0101
1010
1000
,  // measure 4
0110
0011
0101
1010
,  // measure 5
1100
0110
1001
1000
,  // measure 6
0110
0001
0101
1000
,  // measure 7
1010
0000
0110
0000
0101
0000
0010
0001
,  // measure 8
0011
0110
1100
1010
,  // measure 9
0110
0101
0011
0010
,  // measure 10
1100
0010
1010
0100
,  // measure 11
0101
0011
0110
1000
,  // measure 12
1001
0101
1010
1100
,  // measure 13
0011
0101
1010
1000
,  // measure 14
0110
0001
0101
1000
,  // measure 15
1010
1100
0101
1010
,  // measure 16
0011
1100
0101
1100
,  // measure 17
0011
0100
0010
0100
,  // measure 18
1000
0100
0001
0100
1000
0100
0001
0100
,  // measure 19
1000
0010
0001
0010
1000
0010
0001
0010
,  // measure 20
1000
0100
0001
0100
1000
0100
0010
0100
,  // measure 21
1000
0001
0010
1000
0020
0000
0000
0030
,  // measure 22
0100
0000
0000
0000
0000
0000
0100
0000
1000
0000
0000
0010
0100
0000
0010
0000
,  // measure 23
1000
0100
0011
0100
,  // measure 24
0001
0000
0000
1000
0100
0000
1000
0000
0010
0000
0000
0000
1000
0000
0001
0000
,  // measure 25
0100
0011
0110
1010
,  // measure 26
1000
0010
0001
0010
1000
0010
0001
0010
,  // measure 27
1000
0100
0001
0100
1000
0100
0001
0100
,  // measure 28
1000
0010
0001
0010
1000
0100
0001
0100
,  // measure 29
1000
0010
0100
0010
0002
0000
0000
0003
,  // measure 30
0011
0000
0000
0000
0000
0000
0100
0000
0001
0000
0000
1000
0100
0000
1000
0000
,  // measure 31
0010
0100
0001
0010
,  // measure 32
0100
0000
0000
1000
0010
0000
0100
0000
0010
0000
0000
0100
0001
0000
0010
0000
,  // measure 33
0002
0010
0100
1000
,  // measure 34
0103
0000
0010
0001
0010
0000
0001
0000
0100
0000
0010
0100
0010
0000
1000
0000
,  // measure 35
0010
0000
1000
0010
1000
0000
0010
0000
0100
0000
0001
0000
0010
0000
0100
0010
,  // measure 36
0001
0000
1000
0100
1000
0000
0001
0000
0100
0000
0010
1000
0100
0000
1000
0000
,  // measure 37
0001
0000
0100
0001
1000
0000
0010
0000
2000
0000
0010
0000
0001
3000
0010
0100
,  // measure 38
0010
0000
0001
0100
0001
0000
0100
0000
0010
0000
1000
0001
1000
0000
0100
0000
,  // measure 39
1000
0000
0001
0010
0100
0000
0010
0000
0011
0000
0000
0000
0110
0000
0000
0000
,  // measure 40
1000
0000
0100
1000
0010
0000
1000
0000
0010
0000
0100
0001
0010
0000
0001
0000
,  // measure 41
0010
0000
0100
1000
0001
0000
0100
0000
0002
0000
0100
0000
1000
0003
0010
0100
,  // measure 42
0010
0000
1000
0010
1000
0000
0001
0000
0001
0000
0010
0001
0100
0000
0001
0000
,  // measure 43
1000
0000
0010
1000
0100
0000
1000
0000
0020
0000
1000
0000
0100
0000
0031
1000
,  // measure 44
0100
0000
1000
0001
0100
0000
0010
0000
1000
0000
0100
1000
0010
0000
0100
0000
,  // measure 45
0001
0000
1000
0100
1000
0000
0001
0000
0020
0000
0100
0000
0031
0000
1000
0100
,  // measure 46
0010
0000
0001
1000
0010
0000
0010
0000
1000
0000
0010
1000
0100
0000
1000
0000
,  // measure 47
0010
0000
0100
0010
1000
0000
0100
0000
1000
0000
0001
0010
0100
0000
0010
0000
,  // measure 48
0011
0001
1001
1000
1010
0010
0110
0100
,  // measure 49
0101
0001
0011
0010
0110
0000
1010
0000
,  // measure 50
0101
0000
1000
0010
1000
0100
0010
0000
,  // measure 51
0001
0100
0010
1000
0001
0000
0100
0000
,  // measure 52
1001
1000
0100
0000
0110
0010
0001
0000
,  // measure 53
0101
0100
0010
1000
1100
0000
0010
0000
,  // measure 54
1010
1000
0100
0010
0011
0010
0001
0100
,  // measure 55
1010
1000
0010
0100
0101
1000
0010
0000
,  // measure 56
1100
1000
0001
0000
0110
0010
1000
0000
,  // measure 57
0101
1000
0010
1000
0100
1000
0001
0100
,  // measure 58
1000
0100
0001
0010
0100
0001
0100
0010
,  // measure 59
1000
0010
0001
0100
1000
0100
1001
0000
,  // measure 60
1010
0010
0100
0000
0101
0100
0010
0000
,  // measure 61
1010
0010
0100
0001
0010
0100
1100
0000
,  // measure 62
0101
1000
0100
1000
1001
0010
0100
1000
,  // measure 63
1010
0100
0001
1000
1010
1000
0001
0000
,  // measure 64
0011
0001
0100
0000
1010
1000
0100
0000
,  // measure 65
1001
0100
0001
0010
0110
1000
0100
1000
,  // measure 66
1010
0100
0010
0100
1001
1000
0100
1000
,  // measure 67
1010
1000
0100
0010
,  // measure 68
0011
0010
0001
0001
1010
1000
0010
0010
,  // measure 69
0101
0100
0001
0001
0110
0010
0100
0100
,  // measure 70
1001
1000
0001
0001
0110
0100
0010
0010
,  // measure 71
1100
1000
0100
0100
0020
0000
0000
0030
,  // measure 72
0010
0000
0000
0000
0000
0000
0001
0000
0010
0000
0000
0100
0010
0000
0100
0000
,  // measure 73
1000
0010
0110
1000
,  // measure 74
0100
0000
0000
0010
0100
0000
0010
0000
0001
0000
0000
0000
1000
0000
0001
0000
,  // measure 75
0100
1001
1010
0110
,  // measure 76
1100
0100
1000
1000
0011
0001
0010
0010
,  // measure 77
1001
0001
1000
1000
0110
0010
0100
0100
,  // measure 78
1010
0010
1000
1000
0101
0001
0100
0100
,  // measure 79
1010
0010
1000
1000
0200
0000
0000
0000
,  // measure 80
0302
0000
0000
0000
0003
0000
0100
0000
1000
0000
0000
0010
1000
0000
0010
0000
,  // measure 81
1000
0100
0010
0100
,  // measure 82
0010
0000
0000
0001
0100
0000
0001
0000
1000
0000
0000
0010
1000
0000
0010
0000
,  // measure 83
1000
0110
0101
1010
,  // measure 84
1000
0000
0100
0001
0100
0000
0010
0000
0001
0000
1000
0001
0100
0000
0010
0000
,  // measure 85
1000
0000
0100
0010
0001
0000
1000
0000
0020
0000
0100
0000
0031
0000
0010
1000
,  // measure 86
0001
0000
0010
0100
0010
0000
0100
0000
0001
0000
0100
1000
0001
0000
0100
0000
,  // measure 87
0010
0000
1000
0100
0001
0000
0100
0000
0020
0000
1000
0000
0130
0000
1000
0001
,  // measure 88
0010
0000
0100
1000
0001
0000
0100
0000
0010
0000
1000
0001
0010
0000
0100
0000
,  // measure 89
1000
0000
0001
0100
1000
0000
0100
0000
0002
0000
0003
0000
1001
0000
0000
0000
,  // measure 90
0100
0000
0001
0010
0100
0000
1000
0000
0001
0000
0100
0010
1000
0000
0100
0000
,  // measure 91
1000
0000
0001
0100
0001
0000
1000
0000
0200
0000
1000
0000
0310
0000
0001
0010
,  // measure 92
1000
0000
0001
0100
1000
0000
0010
0000
1000
0000
0100
0001
0100
0000
1000
0000
,  // measure 93
0010
0000
0100
1000
0100
0000
1000
0000
0100
0000
0010
0000
1000
0000
0010
0001
,  // measure 94
0010
0000
0100
1000
0100
0000
1000
0000
0100
0000
0010
1000
0100
0000
0010
0000
,  // measure 95
0100
0000
0001
0100
0001
0000
0100
0000
0010
0000
0001
0000
0100
0000
0010
0001
,  // measure 96
0010
0000
0100
0010
0100
0000
1000
0000
0100
0000
0010
1000
0010
0000
0010
0000
,  // measure 97
0100
0000
0001
0100
0001
0000
0100
0000
0001
0000
0010
0001
0010
0000
0001
0000
,  // measure 98
0011
0001
1010
1000
0101
0001
1100
1000
,  // measure 99
0101
1100
1010
0011
1001
0000
0110
0000
,  // measure 100
0010
0000
0001
0100
1000
0100
0010
0000
,  // measure 101
0010
1000
0100
0001
1000
0000
0010
0000
,  // measure 102
1001
0000
0000
0000
;

//---------------dance-single - ----------------
#NOTES:
     dance-single:
     :
     Hard:
     13:
     0.730676,0.677536,0.442834,0.125470,0.228797,693.000000,633.000000,60.000000,17.000000,0.000000,0.000000,0.730676,0.677536,0.442834,0.125470,0.228797,693.000000,633.000000,60.000000,17.000000,0.000000,0.000000:
0000
0000
0000
0000
,
0000
0000
0000
0000
,
1000
0100
1000
0100
0010
0001
0010
0001
,
0100
0001
0100
0010
0100
0010
0100
0000
,
0010
1000
0010
1000
0010
0100
0010
0100
,
0001
0100
0001
0100
0001
1000
0001
0000
,
1000
0100
1000
0100
1000
0001
1000
0001
,
0010
0001
0010
0001
0100
0001
0100
0000
,
0001
1000
0001
1000
0010
1000
0010
1000
,
0010
0100
0010
0100
0010
0100
0101
0000
,
1000
0001
1000
0000
0100
0010
0100
0000
,
0010
0001
0010
0001
1000
0100
1000
0000
,
0010
1000
0010
0100
0001
0100
0001
0010
,
0100
1000
0001
0100
0010
1000
0010
0000
,
1000
0100
1000
0000
0100
0010
0100
0000
,
0010
0001
0010
1000
0010
0001
0100
0000
,
0001
1000
0010
0100
0010
1000
0100
0001
,
0200
0000
0000
0000
0000
0000
0000
0000
0000
0000
0000
0000
0000
0300
0000
0000
,
1000
0100
1000
0100
0010
0100
0010
0100
,
0010
0001
0010
0001
0100
0001
0100
0001
,
0100
0010
0100
0010
1000
0010
1000
0010
,
1000
0001
1000
0001
0020
0000
0000
0030
,
0010
0000
0000
0100
0010
0000
0100
0010
,
0001
1000
0011
0000
,
1000
0000
0000
0010
1000
0000
0010
0000
1000
0000
0000
0000
0100
0000
0010
0000
,
0100
0011
0101
1001
,
1000
0010
0100
0010
0100
0001
0100
0001
,
0010
0001
0010
0001
0010
0100
0010
0100
,
1000
0100
1000
0100
1000
0010
1000
0010
,
0100
0010
0100
0001
0200
0000
0000
0300
,
0101
0000
0000
0000
0000
0000
1000
0000
0010
0000
0000
1000
0010
0000
1000
0000
,
0010
1000
0100
0010
,
0001
0000
0000
0100
0001
0000
1000
0000
0001
0000
0000
1000
0100
0000
0010
0000
,
0200
0000
0010
0000
0001
0300
0101
0000
,
1000
0000
0000
0100
0010
0000
0001
0000
0100
0000
0000
0010
1000
0000
0010
0000
,
1000
0000
0000
0100
0010
0000
0001
0000
0100
0000
0001
0000
1000
0000
0000
0010
,
1000
0000
0000
0010
0100
0000
0001
0000
0100
0000
0000
0001
0010
0000
0100
0000
,
1000
0000
0000
0010
1000
0000
0001
0000
0100
0000
0001
0000
1000
0000
0000
0100
,
0010
0000
0000
0100
0010
0000
0001
0000
0010
0000
0000
0001
0100
0000
0001
0000
,
0100
0000
0000
0001
1000
0000
0010
0000
2000
0000
0000
0000
3200
0000
0000
0000
,
1300
0000
0000
0010
0100
0000
0010
0000
0100
0000
0000
0001
0010
0000
0001
0000
,
0010
0000
0000
0100
1000
0000
0010
0000
1000
0000
0010
0000
0100
0000
0000
0001
,
0010
0000
0000
0100
0010
0000
0001
0000
0100
0000
0000
0001
1000
0000
0010
0000
,
1000
0000
0000
0010
0100
0000
0001
0000
0010
0000
0100
0000
1000
0000
0000
0010
,
1000
0000
0000
0100
0010
0000
0001
0000
0100
0000
0000
0001
1000
0000
0100
0000
,
1000
0000
0000
0001
0100
0000
0010
0000
2000
0000
0000
0000
3100
0000
0000
1000
,
0001
0000
0000
0010
0001
0000
0100
0000
0001
0000
0000
1000
0010
0000
0100
0000
,
0010
0000
0000
0100
0001
0000
0010
0000
0100
0000
0000
1000
0001
0000
1000
0000
,
0001
0001
0010
0010
0100
0100
1000
1000
,
0010
0010
1000
0001
1000
0000
1001
0000
,
0001
0000
1000
0010
0001
0010
1000
0000
,
1000
0001
0100
1000
0100
0000
0010
0000
,
1010
0100
1001
0100
,
0011
0101
1010
1000
,
1100
0011
0101
1010
,
1001
0101
1100
1000
,
0011
0100
1010
0100
,
0101
0000
1010
0000
1001
0000
0010
0001
,
0010
0110
1100
1000
,
0110
0001
1001
0000
,
1010
0000
0101
0000
,
0110
1010
0110
1000
,
1001
0011
0110
1001
,
1010
0110
0101
0000
,
1100
0000
1010
0000
,
0101
0011
0110
1100
,
1001
0101
1010
1001
,
0220
0000
0000
0000
0000
0000
0000
0000
0000
0000
0000
0000
0000
0330
0000
0000
,
1000
0100
0010
0100
1000
0100
0001
0100
,
1000
0001
0010
0001
1000
0001
0100
0001
,
1000
0010
1000
0100
0010
0001
0100
0001
,
1000
0010
0001
0010
2000
0000
0000
3000
,
1001
0000
0000
1000
0010
0000
1000
0010
,
1000
0100
0011
0000
,
0100
0000
0000
0001
0010
0000
0100
0000
1000
0000
0000
0000
0010
0000
1000
0000
,
0010
0110
1010
1001
,
0010
0001
0010
0100
0010
1000
0010
0001
,
1000
0010
0100
0010
1000
0010
0001
0010
,
1000
0001
0100
0001
1000
0010
1000
0001
,
1000
0010
1000
0100
0020
0000
0000
0030
,
0110
0000
0000
0000
0000
0000
0010
0000
0001
0000
0000
0010
0001
0000
0010
0000
,
0001
1000
0010
0100
,
0010
0000
0000
1000
0100
0000
1000
0000
0100
0000
0000
0010
0001
0000
0010
0000
,
0002
0100
0010
1003
,
0100
0000
0000
1000
0100
0000
0010
0000
0001
0000
0000
0010
0001
0000
0100
0000
,
0001
0000
0000
0100
0001
0000
1000
0000
0001
0000
1000
0000
0010
0000
0000
1000
,
0100
0000
0000
1000
0100
0000
0100
0000
0010
0000
0000
0100
0010
0000
0010
0000
,
0001
0000
0000
0010
0001
0000
0001
0000
0200
0000
0000
0000
0301
0000
0000
1000
,
0001
0000
0000
0001
1000
0000
1000
0000
0010
0000
0000
0010
1000
0000
1000
0000
,
0100
0000
0000
0100
1000
0000
1000
0000
0200
0000
0000
0000
0320
0000
0000
0000
,
0031
0000
0000
0100
0001
0000
0100
0000
0001
0000
0000
0100
0001
0000
0010
0000
,
0100
0000
0000
1000
0100
0000
1000
0000
0020
0000
0000
0000
1030
0000
0000
0010
,
1000
0000
0000
1000
0100
0000
0010
0000
0100
0000
0000
0010
0001
0000
0100
0000
,
0001
0000
0000
1000
0010
0000
1000
0000
0010
0000
0100
0000
0001
0000
0000
0010
,
0001
0000
0000
0010
0001
0000
0100
0000
0001
0000
0000
1000
0010
0000
1000
0000
,
0010
0000
0000
0100
0010
0000
1000
0000
0020
0000
0000
0000
1030
0000
0000
0100
,
0010
0000
0000
0010
0100
0000
0010
0000
0001
0000
0000
0100
0001
0000
1000
0000
,
0001
0000
0000
1000
0100
0000
1000
0000
0010
0000
0000
1000
0010
0000
1000
0000
,
0100
0100
0001
0001
0100
0100
1000
1000
,
0010
0010
0100
0100
0001
0000
1001
0000
,
1000
0000
0100
0010
0001
0010
0100
0000
,
0001
0100
1000
0100
0001
0000
0100
0000
,
1001
0000
0000
0000
;

//---------------dance-single - ----------------
#NOTES:
     dance-single:
     :
     Medium:
     11:
     0.569358,0.602254,0.531401,0.177134,0.000000,540.000000,468.000000,72.000000,24.000000,0.000000,0.000000,0.569358,0.602254,0.531401,0.177134,0.000000,540.000000,468.000000,72.000000,24.000000,0.000000,0.000000:
0000
0000
0000
0000
,
0000
0000
0000
0000
,
1010
0000
0011
0000
,
1001
1000
1010
0000
,
0110
0010
1001
0001
,
1010
0010
0110
0000
,
0110
0000
1100
0000
,
0110
0000
0010
0000
0011
0000
0001
0010
,
0001
0110
1000
0100
,
1010
1000
0110
0000
,
0011
0000
1010
0000
,
1100
0100
0110
0000
,
0011
0001
1001
1000
,
1010
0010
1100
0000
,
1010
0000
0101
0000
,
0011
0100
1010
0100
,
0101
0001
1100
1000
,
2002
0000
0000
3003
,
1000
0100
1000
0000
0100
0010
0100
0000
,
0010
0001
0010
0000
0001
1000
0001
0000
,
1000
0010
1000
0000
0010
0100
0010
0000
,
0100
0001
0100
0000
1001
0000
0000
0000
,
1000
0000
0000
0100
0010
0000
0001
1000
,
0100
1000
0020
0000
,
0130
0000
0001
0010
0100
0000
1000
0010
,
1000
0010
0101
1001
,
1000
0100
0010
0000
0100
0010
0001
0000
,
0010
0001
0100
0000
0001
0100
0010
0000
,
0100
0010
1000
0000
0010
1000
0100
0000
,
0010
0001
0100
0000
1001
0000
0000
0000
,
1000
0000
0000
0100
1000
0000
0001
0010
,
0100
1000
0010
0100
,
0001
0000
0010
0100
1000
0000
0001
0100
,
0002
0000
0000
1003
,
1000
0100
1000
0000
0100
0010
0100
0000
,
0010
0001
1000
0010
2000
0000
3000
0000
,
0010
1000
0001
0000
0010
0001
1000
0000
,
0010
1000
0010
0100
0020
0000
0030
0000
,
0100
0001
1000
0000
0100
1000
0001
0000
,
0100
0001
0010
0001
2000
0000
3020
0000
,
1030
0010
1000
0000
0001
0010
0001
0000
,
1000
0010
1000
0001
0200
0000
0300
0000
,
0001
0010
0001
0000
0100
0001
1000
0000
,
0010
1000
0100
0010
0002
0000
0003
0000
,
0100
0001
1000
0000
0010
1000
0010
0000
,
0100
0010
1000
0100
0010
0000
0000
0000
,
0100
0010
0001
0000
0100
0001
0010
0000
,
0100
1000
0010
0000
0100
0001
1000
0000
,
0100
1000
0100
1000
0100
0010
0100
0010
,
0001
1000
0001
1000
0001
0000
1001
0000
,
0100
0000
1000
0010
0100
0010
1000
0000
,
0001
0010
0100
1000
0001
0000
1000
0000
,
0110
0000
0011
0000
,
1001
1000
1010
0000
,
1010
0010
0110
0100
,
0101
0001
1001
0000
,
1100
0000
0110
0000
,
0011
0000
0001
0000
1001
0000
1000
0010
,
0100
0110
1000
1010
,
0010
1001
0010
0110
,
1001
0000
0101
0000
,
1010
0100
1010
0000
,
1100
0100
0011
0001
,
0101
0100
1010
0000
,
1010
0000
1100
0000
,
0101
0010
0110
0001
,
1001
0100
0011
0100
,
2002
0000
0000
3003
,
1000
0100
0010
0000
0100
0010
0001
0000
,
1000
0001
0100
0000
0001
1000
0010
0000
,
1000
0001
0010
0000
0100
1000
0001
0000
,
0100
0001
0010
0000
0110
0000
0000
0000
,
0020
0000
0000
0031
1000
0000
0010
0100
,
0010
0100
0002
0000
,
0013
0000
0010
0001
0100
0000
0001
1000
,
0010
1010
0100
0011
,
1000
0100
0010
0000
0100
0010
0001
0000
,
1000
0010
0100
0000
0010
0100
0001
0000
,
0010
0001
1000
0000
0100
1000
0001
0000
,
0100
0001
1000
0000
2002
0000
0000
3003
,
1000
0000
0000
0100
0010
0000
0001
1000
,
0010
0100
0010
1000
,
0001
0000
0010
0001
1000
0000
0010
1000
,
0200
0000
0000
0310
,
0010
0001
0010
0000
0100
0010
0100
0000
,
0010
0100
1000
0100
0020
0000
0030
0000
,
0100
0010
0001
0000
0100
0001
0010
0000
,
0100
1000
0010
0100
0020
0000
0030
0000
,
1000
0001
0010
0000
0001
1000
0010
0000
,
0100
0010
0100
0001
0020
0000
0032
0000
,
0013
0100
1000
0000
0100
1000
0001
0000
,
0100
0001
0010
0100
2000
0000
3000
0000
,
1000
0010
0100
0000
0010
0100
0001
0000
,
0100
0001
1000
0100
2000
0000
3000
0000
,
0100
1000
0001
0000
0010
0001
0100
0000
,
0001
1000
0010
1000
0002
0000
0003
0000
,
0010
0001
0100
0000
0001
1000
0100
0000
,
1000
0001
0100
0000
0001
0010
0100
0000
,
1000
0010
1000
0010
0100
0001
0100
0001
,
1000
0010
0100
0001
0010
0000
1001
0000
,
1000
0000
0010
1000
0010
0100
0010
0000
,
0100
0001
0010
0001
0010
0000
0001
0000
,
1001
0000
0000
0000
;

//---------------dance-single - ----------------
#NOTES:
     dance-single:
     :
     Easy:
     7:
     0.367974,0.526972,0.103328,0.280461,0.000000,349.000000,335.000000,14.000000,38.000000,0.000000,0.000000,0.367974,0.526972,0.103328,0.280461,0.000000,349.000000,335.000000,14.000000,38.000000,0.000000,0.000000:
0000
0000
0000
0000
,
0000
0000
0000
0000
,
2000
0000
3002
0000
,
0013
0100
0110
0000
,
1000
0010
0100
0001
,
0010
0100
1100
0000
,
2000
0000
3020
0000
,
0130
0001
0010
0100
,
0010
0001
1000
0010
,
0100
0010
1010
0000
,
2000
0000
3200
0000
,
0310
0100
0011
0000
,
0010
0001
0100
0010
,
0100
0010
1010
0000
,
2000
0000
3200
0000
,
1300
0001
0100
0001
,
0010
0100
1000
0001
,
2002
0000
0000
3003
,
1000
0010
0100
0001
,
1000
0010
1000
0100
,
0001
0100
1000
0010
,
0001
0010
2000
0000
,
3002
0000
0013
0100
,
1000
0010
0200
0300
,
0010
0100
0001
0010
,
0100
1000
0001
1000
,
0010
0001
0010
1000
,
0100
1000
0100
0010
,
0001
1000
0010
0100
,
0001
0010
0002
0000
,
2003
0000
3010
0000
,
1000
0100
0010
0000
,
0001
0010
0100
1000
,
0002
0000
0000
1003
,
1000
0100
0010
0001
,
0010
0100
1000
0000
,
0001
0100
0010
1000
,
0010
0100
0001
0000
,
0001
0010
1000
0010
,
0001
0100
1000
0000
,
0100
0010
1000
0100
,
0001
0100
1000
0000
,
0010
1000
0100
1000
,
0010
1000
0100
0000
,
0010
0001
0100
0001
,
0010
0001
0100
0000
,
0001
1000
0100
1000
,
0010
0100
0001
0010
,
0100
0010
0100
0001
,
0100
1000
0001
0000
,
1000
0010
1000
0010
,
0100
0001
0010
0000
,
2000
0000
3020
0000
,
0130
0001
0020
0000
,
0130
1000
0001
0100
,
1000
0100
0002
0000
,
2003
0000
3020
0000
,
0031
0010
1000
0100
,
0010
0001
1000
0100
,
0001
0100
2000
0000
,
3020
0000
0230
0000
,
0301
0010
0200
0000
,
1300
0010
0100
1000
,
0100
0010
2000
0000
,
3200
0000
0320
0000
,
0031
0010
0100
0001
,
0100
0010
0001
1000
,
2002
0000
0000
3003
,
1000
0010
1000
0010
,
0100
0010
0100
0001
,
0100
0001
0010
0001
,
0010
0100
2000
0000
,
3020
0030
1000
0100
,
0010
0000
0002
0000
,
1003
0010
0100
0001
,
0010
0100
1000
0000
,
0010
1000
0001
0010
,
0001
1000
0010
1000
,
0100
1000
0001
0100
,
0001
1000
0200
0000
,
2300
3000
0001
0010
,
0100
0010
0001
0100
,
0001
0010
0100
1000
,
2020
0000
0000
3030
,
1000
0010
1000
0001
,
0010
1000
0010
0000
,
0100
0010
0100
0001
,
0100
1000
0001
0000
,
0100
0001
0100
0010
,
0100
1000
0100
0000
,
0010
0100
0001
0010
,
0100
0010
1000
0000
,
0010
0100
1000
0010
,
0100
1000
0100
0000
,
0010
0100
0001
0010
,
0100
0001
0100
0000
,
0010
0100
1000
0001
,
0100
0010
1000
0100
,
0110
0010
1001
0010
,
0110
1010
1001
0000
,
1000
0100
0010
0100
,
0001
0100
1000
0001
,
1001
0000
0000
0000
;

//---------------dance-single - ----------------
#NOTES:
     dance-single:
     :
     Beginner:
     5:
     0.264646,0.301127,0.029522,0.044283,0.000000,251.000000,247.000000,4.000000,6.000000,0.000000,0.000000,0.264646,0.301127,0.029522,0.044283,0.000000,251.000000,247.000000,4.000000,6.000000,0.000000,0.000000:
0000
0000
0000
0000
,
0000
0000
0000
0000
,
1000
0000
0100
0000
,
0010
0001
0010
0000
,
0100
0000
1000
0000
,
0010
1000
0010
0000
,
1000
0000
0001
0000
,
0010
0100
0010
0000
,
0001
1000
0001
0000
,
1000
0010
1000
0000
,
0010
0000
0100
0000
,
0001
1000
0001
0000
,
1000
0100
1000
0000
,
0100
0010
0100
0000
,
0010
0000
0001
0000
,
0100
0001
1000
0000
,
0100
1000
0001
0000
,
1000
0000
0000
0000
,
1000
0000
0010
0000
,
0100
0000
0001
0000
,
1000
0000
0010
0000
,
0100
0000
0001
0000
,
1000
0000
0100
0000
,
0010
0000
0001
0000
,
1000
0001
1000
0000
,
0010
0000
0100
0000
,
0001
0000
0010
0000
,
0100
0000
1000
0000
,
0001
0000
0010
0000
,
0100
0000
1000
0000
,
0100
0000
0010
0000
,
0001
1000
0001
0000
,
1000
0010
1000
0000
,
0220
0000
0000
0330
,
0100
0000
0001
0000
,
1000
0001
1000
0000
,
0010
0000
1000
0000
,
0100
0010
0100
0000
,
0010
0000
0001
0000
,
0010
0001
0010
0000
,
0001
0000
1000
0000
,
0001
0001
1000
0000
,
1000
0000
0010
0000
,
1000
1000
1000
0000
,
0100
0000
0010
0000
,
0001
0001
0001
0000
,
1000
0000
0010
0000
,
0100
0100
0100
0000
,
0001
0001
0001
0000
,
1000
0001
1000
0000
,
0010
0000
0100
0000
,
0001
0000
1000
0000
,
0100
0000
0010
0000
,
0001
1000
0001
0000
,
1000
0000
0010
0000
,
0100
0010
0100
0000
,
0001
0000
1000
0000
,
0001
1000
0001
0000
,
0010
0001
0010
0000
,
0001
1000
0001
0000
,
1000
0000
0010
0000
,
0100
0010
0100
0000
,
0001
1000
0001
0000
,
1000
0100
1000
0000
,
0100
0000
0010
0000
,
0001
0010
0001
0000
,
1000
0010
1000
0000
,
0220
0000
0000
0330
,
0010
0000
0001
0000
,
1000
0000
0010
0000
,
1000
0000
0001
0000
,
0010
0000
0100
0000
,
1000
0000
0100
0000
,
0010
0001
0010
0000
,
0001
1000
0001
0000
,
1000
0010
1000
0000
,
0010
0000
0100
0000
,
0001
0000
1000
0000
,
0100
0000
0010
0000
,
0001
0000
1000
0000
,
0001
0000
0010
0000
,
0100
0010
0100
0000
,
1000
0001
1000
0000
,
2002
0000
0000
3003
,
1000
0000
0010
0000
,
0100
0001
0100
0000
,
0001
0000
1000
0000
,
0100
1000
0100
0000
,
0010
0000
0100
0000
,
0010
0100
0010
0000
,
0001
0000
1000
0000
,
0010
1000
0010
0000
,
1000
0010
1000
0000
,
0001
1000
0001
0000
,
0010
0001
0010
0000
,
0001
1000
0001
0000
,
1000
0010
1000
0000
,
0010
0100
0010
0000
,
0100
0000
0001
0000
,
0010
0001
1000
0000
,
1000
0010
0100
0000
,
0001
0010
0100
0000
,
1001
0000
0000
0000
;
