#TITLE:Force Your Way;
#SUBTITLE:Final Fantasy VIII;
#ARTIST:植松伸夫;
#TITLETRANSLIT:;
#SUBTITLETRANSLIT:;
#ARTISTTRANSLIT:Nobuo Uematsu;
#GENRE:;
#CREDIT:;
#BANNER:bn.png;
#BACKGROUND:bg.png;
#LYRICSPATH:;
#CDTITLE:;
#MUSIC:Force_Your_Way.ogg;
#OFFSET:-0.268000;
#SAMPLESTART:64.378998;
#SAMPLELENGTH:30.000000;
#SELECTABLE:YES;
#BPMS:0.000000=175.009995
;
#STOPS:
;
#BGCHANGES:;
#KEYSOUNDS:;
#ATTACKS:;

//---------------dance-single - ----------------
#NOTES:
     dance-single:
     :
     Hard:
     13:
     0.566509,0.865376,0.376478,0.426675,0.158957,474.000000,429.000000,45.000000,51.000000,0.000000,0.000000,0.566509,0.865376,0.376478,0.426675,0.158957,474.000000,429.000000,45.000000,51.000000,0.000000,0.000000:
0000
0000
0000
0000
,
0000
0000
0000
0000
,
0000
0000
0000
0000
,
0000
0000
0000
0000
,
0011
0000
0000
1010
0000
0000
0110
0000
,
0000
0101
0000
0000
1001
0000
0000
0000
,
1100
0000
0000
0110
0000
0000
0011
0000
,
0000
1001
0000
0000
0110
0000
0101
0000
,
1001
0000
1100
0000
0000
1010
0000
0000
,
1001
0000
0000
0011
0000
0000
0110
0000
,
0000
0000
1001
0000
0000
1010
0000
0000
,
0110
0000
0000
0101
0000
0000
0011
0000
,
0110
0000
1100
0000
0000
1010
0000
0000
,
1001
0000
0000
0101
0000
0000
0011
0000
,
0000
0000
0110
0000
0000
1010
0000
0000
,
1001
0000
0000
0101
0000
0000
0011
0000
,
0010
0000
0000
0100
0010
0000
0100
0000
1000
0000
0000
0000
0010
0000
1000
0000
,
0010
0100
0001
0010
0100
1000
0010
1000
,
0100
1000
0001
1000
0010
1000
0001
0010
,
1000
0010
0001
1000
0010
0100
0010
1000
,
0100
0001
0100
1000
0100
0010
0001
0010
,
0100
1000
0010
1000
0001
0100
0001
1000
,
0001
0010
0001
1000
0001
0100
0001
0010
,
1000
0010
0001
0100
0010
1000
0100
1000
,
0001
0000
0000
0100
0000
0000
0001
0000
0000
1000
0000
0000
0010
0000
0000
1000
0000
0000
0001
0000
0010
0000
0100
0000
,
1000
0010
0100
0001
1000
0010
1000
0100
0010
0001
0010
0100
,
1000
0100
0010
0100
1000
0100
1000
0001
0010
0100
1000
0010
,
0100
0001
0010
0001
1000
0100
1000
0001
0010
0100
0010
0001
,
1000
0010
0100
0001
1000
0100
0010
0001
1000
0001
0000
0000
,
1000
0001
0000
0001
0010
0000
0010
0100
,
0000
0100
1000
0000
1000
0000
0010
0000
,
1000
0001
1000
0001
1000
0001
1000
0001
,
1000
0001
1000
0001
1000
0001
0010
0000
,
0100
0010
0000
0010
0001
0000
0001
1000
,
0000
1000
0010
0000
0100
0000
0010
0000
,
1000
0010
1000
0010
1000
0010
1000
0010
,
1000
0010
1000
0010
1000
0010
1000
0100
,
0010
0001
0100
0001
0010
0100
1000
0010
,
0100
0001
0010
0100
1000
0001
0010
0001
,
0100
0010
1000
0001
0010
0100
1000
0010
,
1000
0001
0100
0010
1000
0001
0020
0000
,
0000
0032
0000
0000
0023
0000
0000
0130
,
1000
0010
0100
0010
1000
0100
0020
0000
,
0000
0032
0000
0000
2003
0000
0000
3020
,
0000
0000
0000
0000
0230
0000
0000
0000
0000
0000
0301
1000
0002
0000
0000
0000
,
1000
1000
1000
1000
,
1000
0000
1000
0000
1000
0000
1003
0100
,
1000
0100
0010
0001
0010
0001
0100
0010
,
0100
0010
1000
0001
0010
0100
2000
0000
,
0001
0001
0001
3002
,
0010
0023
1000
2030
,
0010
3020
0032
0000
0100
0000
0100
0000
,
0100
0203
2300
3002
,
0010
0023
0100
0100
,
0100
0230
0001
0302
,
0010
0023
1000
1000
,
1000
1000
1000
2030
,
0010
0010
0010
3020
,
0100
0230
0001
0302
,
0100
0203
2300
0000
0010
0000
0010
0000
,
0010
3020
0230
0302
,
0100
0203
1000
1000
,
1000
2300
0100
3200
,
0010
0010
0010
0010
,
0010
0000
0000
0000
0310
1000
0100
0010
0001
1000
0100
0010
0002
0000
0000
0000
,
1000
1000
1000
2003
,
0010
3020
0100
0230
,
0010
0320
0032
0000
0010
0000
0010
0000
,
0010
0023
0230
0302
,
1000
2003
0100
0100
,
0100
3200
0001
0302
,
0100
0203
0010
0320
,
0001
0032
0100
0203
,
0310
0001
0020
0000
1000
0000
1000
0000
,
1000
0000
1030
0010
0100
0010
0100
0001
,
0001
0010
0100
0100
1000
0010
0010
0100
,
0001
0001
1000
0100
0010
0100
1000
0000
,
0010
0100
0000
0001
0010
0000
0010
0001
,
0000
0001
0010
0000
0100
1000
1010
0000
,
0000
0110
0000
0000
0101
0000
0000
0110
,
0000
1100
0010
1010
,
0000
0101
0000
0000
0011
0000
0000
1100
,
0000
1010
0101
1001
;

//---------------dance-single - ----------------
#NOTES:
     dance-single:
     :
     Medium:
     10:
     0.419504,0.519225,0.351379,0.501970,0.000000,351.000000,309.000000,42.000000,60.000000,0.000000,0.000000,0.419504,0.519225,0.351379,0.501970,0.000000,351.000000,309.000000,42.000000,60.000000,0.000000,0.000000:
0000
0000
0000
0000
,
0000
0000
0000
0000
,
0000
0000
0000
0000
,
0000
0000
0000
0000
,
1010
0000
0000
0010
0000
0000
0110
0000
,
0000
0100
0000
0000
0101
0000
0000
0000
,
0101
0000
0000
0001
0000
0000
0011
0000
,
0000
0010
0000
0000
0110
0000
1000
0000
,
1010
0000
1001
0000
0000
0100
0000
0000
,
0101
0000
0000
0001
0000
0000
0011
0000
,
0000
0000
1010
0000
0000
0010
0000
0000
,
0110
0000
0000
0100
0000
0000
0101
0000
,
1000
0000
1010
0000
0000
0010
0000
0000
,
0110
0000
0000
0100
0000
0000
0101
0000
,
0000
0000
0011
0000
0000
0010
0000
0000
,
0110
0000
0000
0100
0000
0000
1100
0000
,
1000
0000
0010
0000
0100
0000
0010
1000
,
0100
0010
0100
1000
0020
0000
0230
0000
,
0302
0000
0023
0000
0230
0000
1300
0010
,
0100
0000
0001
0010
0100
0000
1000
0001
,
0100
0010
0100
0001
1000
0000
0010
0100
,
0001
0010
0100
0010
0002
0000
2003
0000
,
3200
0000
0320
0000
0032
0000
0013
0100
,
0010
0000
0001
1000
0010
0000
0100
0010
,
1000
0001
0010
0100
1000
0000
1001
0000
,
0001
0010
0100
1010
,
0010
0100
0001
0110
,
0100
0010
0001
1010
,
0010
0001
0010
1100
,
0100
0010
0000
0100
0010
0000
0010
0100
,
0000
0010
0100
0000
1000
0000
1010
0000
,
0001
1000
0000
0001
1000
0000
1000
0001
,
0000
1000
0001
0000
0010
0000
0101
0000
,
0001
0100
0000
0100
0001
0000
0001
0100
,
0000
0100
0001
0000
0100
0000
0110
0000
,
1000
0010
0000
0010
1000
0000
1000
0010
,
0000
0010
1000
0000
1000
0000
1000
0100
,
0010
0000
0001
0100
0010
0000
1000
0001
,
0010
0100
1000
0010
0100
0000
0001
0010
,
0100
0000
1000
0010
0100
0000
0001
0010
,
0000
0100
1000
0000
0010
0000
0200
0000
,
0000
0302
0000
0000
0023
0000
0000
0130
,
1000
0001
0010
0100
0010
0001
2000
0000
,
0000
3020
0000
0000
0032
0000
0000
0023
,
0000
0000
2030
0000
0000
3001
0202
0000
,
0000
0000
0000
0000
,
0000
0000
0000
0000
0303
0000
1000
0001
,
1000
0000
0010
1000
0010
0000
0100
0010
,
0100
0000
0001
0010
0100
1000
0020
0000
,
1000
0000
1000
0230
,
0000
0320
0000
0032
,
0000
0023
0230
0000
1000
0000
0000
0000
,
1000
0320
0032
2003
,
0010
3020
0100
0000
,
0100
0000
0230
0000
0000
0000
0310
1000
,
0100
0010
0100
1000
0010
0000
0100
0001
,
0010
0001
0100
0010
1000
0000
0020
0000
,
0000
0000
0100
2030
,
0000
3200
0001
0320
,
0000
0032
2003
0000
0010
0000
0000
0000
,
0000
3020
0230
0302
,
0000
2003
0010
0000
,
0000
3200
0001
0320
,
0000
0000
0001
0000
,
0000
0000
0031
0010
0100
1000
0002
0000
,
0100
0000
0100
2003
,
0001
3020
1000
0230
,
0010
0320
0230
0000
0001
0000
0000
0000
,
0010
0302
0023
0230
,
1000
2300
0010
0000
,
0001
3020
1000
2030
,
0001
3002
0010
0023
,
0100
0230
0010
0320
,
0031
1000
0020
0000
0000
0000
0000
0000
,
0000
0000
1030
0010
0100
0000
0011
0000
,
0000
0010
0000
0000
0110
0000
0000
1000
,
0000
1001
0000
1000
,
0000
0100
0000
0000
1000
0000
0000
0010
,
0000
0100
0001
0011
,
0000
1001
0000
0000
1010
0000
0000
1001
,
0000
0101
0001
1100
,
0000
0110
0000
0000
0011
0000
0000
0110
,
0000
1001
0100
0101
;

//---------------dance-single - ----------------
#NOTES:
     dance-single:
     :
     Easy:
     6:
     0.246204,0.311535,0.050197,0.435041,0.000000,206.000000,200.000000,6.000000,52.000000,0.000000,0.000000,0.246204,0.311535,0.050197,0.435041,0.000000,206.000000,200.000000,6.000000,52.000000,0.000000,0.000000:
0000
0000
0000
0000
,
0000
0000
0000
0000
,
0000
0000
0000
0000
,
0000
0000
0000
0000
,
0001
0000
0000
0100
0000
0000
0001
0000
,
0000
0100
0000
0000
0001
0000
0000
0000
,
1000
0000
0000
0010
0000
0000
1000
0000
,
0000
0010
0000
0000
1000
0000
0010
0000
,
1000
0000
0001
0000
0000
0010
0000
0000
,
0001
0000
0000
0010
0000
0000
0001
0000
,
0000
0000
0010
0000
0000
0100
0000
0000
,
0010
0000
0000
0100
0000
0000
0010
0000
,
0100
0000
1000
0000
0000
0001
0000
0000
,
1000
0000
0000
0001
0000
0000
1000
0000
,
0000
0000
0010
0000
0000
0100
0000
0000
,
0010
0000
0000
0100
0000
0000
0010
0000
,
1000
0001
0010
0100
,
0010
0001
1000
0010
,
0100
0010
1000
0001
,
0010
0100
1000
0010
,
0100
0001
0000
1000
,
0100
0010
0001
1000
,
0010
0100
0010
1000
,
0100
0010
0001
0100
,
0010
0100
0010
2000
,
0000
0001
0000
3020
,
0000
0100
0000
2030
,
0000
0010
0000
3200
,
0000
0001
0000
0310
,
0000
0010
0000
0000
0100
0000
0000
1000
,
0000
0010
1000
0001
,
0000
0010
0000
0000
0001
0000
0000
1000
,
0000
0010
1000
0010
,
0000
1000
0000
0000
0001
0000
0000
0010
,
0000
0100
0010
0001
,
0000
1000
0000
0000
0010
0000
0000
1000
,
0000
0001
0010
0100
,
1000
0010
0100
0001
,
1000
0100
0010
0001
,
0000
1000
0000
0000
0010
0000
0000
0100
,
0000
0001
1000
0200
,
0000
0320
0000
0000
0032
0000
0000
0023
,
0000
0230
0000
2300
,
0000
3200
0000
0000
0320
0000
0000
0230
,
0000
1300
0000
2002
,
0000
0000
0000
0000
,
0000
0000
3003
1000
,
0010
1000
0001
0010
,
0100
0010
0001
2000
,
0000
0000
0000
3020
,
0000
0230
0000
0302
,
0000
0203
0000
0000
,
0000
0320
2030
3002
,
0000
0023
0000
0000
,
0000
2030
0000
3020
,
0000
0032
0000
0000
,
0000
0000
0000
0203
,
0000
0000
0000
2300
,
0000
3200
0000
0302
,
0000
0023
0000
0000
,
0000
0230
2300
3020
,
0000
0230
0000
0000
,
0000
0302
0000
2003
,
0000
0000
0000
0000
,
0000
3010
0010
2000
,
0000
0000
0000
3002
,
0000
0023
0000
0230
,
0000
0300
0020
0000
0000
0000
0000
0000
,
0000
0031
0020
0230
,
0000
0320
0000
0000
,
0000
0032
0000
2003
,
0000
3002
0000
0203
,
0000
0320
0000
1030
,
0001
0020
0000
0000
,
0000
0130
0010
0011
,
0000
0001
0000
0000
1000
0000
0000
0010
,
0000
1010
0000
0001
,
0000
0010
0000
0000
0100
0000
0000
0010
,
0000
0001
1000
1001
,
0000
1000
0000
0000
0010
0000
0000
0100
,
0000
0110
0100
0001
,
0000
1000
0000
0000
0001
0000
0000
1000
,
0000
0010
1000
1001
;

//---------------dance-single - ----------------
#NOTES:
     dance-single:
     :
     Beginner:
     2:
     0.129078,0.173075,0.025099,0.326281,0.000000,108.000000,105.000000,3.000000,39.000000,0.000000,0.000000,0.129078,0.173075,0.025099,0.326281,0.000000,108.000000,105.000000,3.000000,39.000000,0.000000,0.000000:
0000
0000
0000
0000
,
0000
0000
0000
0000
,
0000
0000
0000
0000
,
0000
0000
0000
0000
,
1000
0000
0000
0001
,
0000
0000
1000
0000
,
0010
0000
0000
0100
,
0000
0000
0001
0000
,
0000
1000
0000
0000
,
0001
0000
0000
1000
,
0000
0100
0000
0000
,
0010
0000
0000
0100
,
0000
0010
0000
0000
,
0001
0000
0000
1000
,
0000
0010
0000
0000
,
0100
0000
0000
0010
,
0000
1000
0000
0100
,
0000
0000
0100
0000
,
0000
0010
0000
0001
,
0000
0000
1000
0000
,
0000
0010
0000
0100
,
0000
0000
0001
0000
,
0000
1000
0000
0100
,
0000
0000
1000
0000
,
0000
0001
0000
1000
,
0000
0000
0000
0001
,
0000
0000
0000
1000
,
0000
0000
0000
0010
,
0000
0000
0000
0100
,
0000
0000
0001
0000
,
0000
1000
0000
0010
,
0000
0000
0100
0000
,
0000
0100
0000
0001
,
0000
0000
1000
0000
,
0000
0100
0000
0010
,
0000
0000
0010
0000
,
0000
0001
0000
1000
,
0000
0000
0001
0000
,
0000
1000
0000
0100
,
0000
0000
0100
0000
,
0000
0010
0000
0010
,
0000
0000
0000
0000
,
0001
0000
0000
1000
,
0000
0000
0001
0000
,
0000
0000
0000
2002
,
0000
0000
0000
0000
,
0000
0000
0000
0000
,
0000
0000
0000
0000
,
0000
3003
0000
0200
,
0000
0000
0000
0302
,
0000
2003
0000
3020
,
0000
0230
0000
0000
,
0000
0302
0000
2003
,
0000
3002
0000
0000
,
0000
0023
0000
0032
,
0000
2003
0000
0000
,
0000
0000
0000
3002
,
0000
0000
0000
0023
,
0000
0230
0000
2300
,
0000
3002
0000
0000
,
0000
0023
0000
0230
,
0000
0320
0000
0000
,
0000
0032
0000
2003
,
0000
0000
0000
0000
,
0000
0000
0000
3020
,
0000
0000
0000
2030
,
0000
3020
0000
0230
,
0000
0302
0000
0000
,
0000
0023
0000
0230
,
0000
2300
0000
0000
,
0000
3020
0000
2030
,
0000
3002
0000
0203
,
0000
0320
0000
2030
,
0000
0000
0000
0000
,
0000
3001
0000
2002
,
0000
0000
0000
0000
,
0000
0000
3003
0001
,
0000
0000
0010
0000
,
0000
0100
0000
1000
,
0000
0000
0001
0000
,
0000
1000
0000
0010
,
0000
0000
0100
0000
,
0000
0010
0000
0110
;

//---------------dance-single - ----------------
#NOTES:
     dance-single:
     :
     Challenge:
     17:
     0.904742,1.142296,0.501970,0.175690,0.686026,757.000000,697.000000,60.000000,21.000000,0.000000,0.000000,0.904742,1.142296,0.501970,0.175690,0.686026,757.000000,697.000000,60.000000,21.000000,0.000000,0.000000:
// measure 0
0000
0000
0000
0000
,  // measure 1
0000
0000
0000
0000
,  // measure 2
0000
0000
0000
0000
,  // measure 3
0000
0000
0000
0000
,  // measure 4
1000
0000
0001
0010
0100
0000
1000
0001
0100
0000
0010
1000
0100
0000
1000
0001
,  // measure 5
0100
0000
0010
1000
0001
0000
0010
0100
1000
0000
0001
0100
0010
0000
1000
0100
,  // measure 6
0010
0000
0100
1000
0010
0000
0100
0001
0010
0000
0100
0010
0001
0000
0100
0001
,  // measure 7
0010
0000
0100
1000
0010
0000
0100
0010
1000
0000
0100
1000
0001
0000
0100
0001
,  // measure 8
0010
0000
0100
0010
0001
0000
0100
0010
1000
0000
0100
1000
0010
0000
0100
0001
,  // measure 9
0010
0000
0100
1000
0001
0000
0100
0001
1000
0000
0100
1000
0010
0000
0100
0010
,  // measure 10
1000
0000
0100
0010
0001
0000
0010
0001
1000
0000
0010
1000
0001
0000
0010
0100
,  // measure 11
1000
0000
0001
0100
0010
0000
1000
0100
1000
0000
0010
0100
0001
0000
0010
0001
,  // measure 12
0100
0000
0001
1000
0010
0000
1000
0100
1000
0000
0001
0010
0001
0000
1000
0100
,  // measure 13
1000
0000
0001
0100
0010
0000
1000
0001
0010
0000
0100
1000
0100
0000
0010
0001
,  // measure 14
0010
0000
0100
1000
0100
0000
0010
0001
0010
0000
0100
1000
0010
0000
1000
0100
,  // measure 15
0010
0000
0100
0010
0001
0000
1000
0001
0010
0000
0000
0000
0001
0000
0010
0000
,  // measure 16
1000
0000
0000
0010
0001
0000
0010
0000
0100
0000
0000
0000
0010
0000
0100
0000
,  // measure 17
1000
0010
0100
0010
1000
0001
0010
0100
,  // measure 18
0010
1000
0010
0001
0010
1000
0001
0100
,  // measure 19
1000
0010
0001
0010
0100
0001
0010
0100
,  // measure 20
0010
1000
0010
0100
1000
0010
0100
0001
,  // measure 21
0010
0100
1000
0010
0100
0001
0100
0010
,  // measure 22
0100
1000
0100
0001
0100
1000
0100
0010
,  // measure 23
1000
0010
1000
0100
0010
0001
0100
0010
,  // measure 24
1000
0000
0000
0100
0000
0000
1000
0000
0000
0010
0000
0000
0100
0000
0000
0010
0000
0000
1000
0000
0010
0000
1000
0000
,  // measure 25
0100
0010
0100
1000
0001
0010
0100
1000
0100
0001
0100
1000
,  // measure 26
0010
0100
0010
0001
0010
1000
0100
1000
0010
0110
0100
0010
,  // measure 27
1000
0010
0100
0010
0001
1000
0100
0001
0010
1000
0010
0001
,  // measure 28
0100
1000
0100
0010
1000
0010
0001
0010
1000
1001
0000
0000
,  // measure 29
1001
0001
0000
0100
0110
0000
1010
0010
,  // measure 30
0000
0100
0110
0000
0101
0000
0010
0000
,  // measure 31
1001
0001
0001
0001
1001
0001
0001
0001
,  // measure 32
1001
0001
0001
0001
1001
0001
1100
0000
,  // measure 33
0110
0100
0000
0010
1010
0000
0100
0010
,  // measure 34
0000
1000
0100
0000
0110
0000
0100
0000
,  // measure 35
1010
1000
1000
1000
1010
1000
1000
1000
,  // measure 36
1010
1000
1000
1000
1010
0010
0101
1000
,  // measure 37
0010
0001
0010
1000
0100
1000
0001
0010
,  // measure 38
0100
1000
0010
0100
0001
1000
1001
1000
,  // measure 39
0001
0011
0010
0100
0010
1000
0010
0101
,  // measure 40
0100
0001
0010
0100
0110
0001
0102
0000
,  // measure 41
0000
0023
0000
0000
2030
0000
0000
3010
,  // measure 42
0001
1000
0100
0001
1000
0010
0200
0000
,  // measure 43
0000
2300
0000
0000
3020
0000
0000
0230
,  // measure 44
0000
0000
0000
0000
0302
0000
0000
0000
0000
0000
1003
0010
2020
0000
0000
0000
,  // measure 45
0000
0000
0000
0000
,  // measure 46
0000
0000
0000
0000
0000
0000
0000
0000
0000
0000
3030
0000
1000
0100
1000
0100
,  // measure 47
0010
0100
0010
0100
0010
0001
0010
0001
0100
0001
0100
0001
0100
0010
0100
0010
,  // measure 48
1000
0010
1000
0010
1000
0001
1000
0001
0010
0001
0010
0100
2000
0000
0001
0000
,  // measure 49
0001
0000
0100
0100
0001
0000
3020
1000
,  // measure 50
1000
0000
0032
1000
1000
0000
0023
0001
,  // measure 51
0100
2030
3200
0001
0001
0000
0010
0010
,  // measure 52
1000
0000
0320
1000
2030
0010
3020
0100
,  // measure 53
1000
0000
0032
0010
1000
0000
1000
1000
,  // measure 54
0100
0000
0000
0000
0023
0000
0100
0000
1000
0000
0000
0000
0031
0100
0001
0100
,  // measure 55
0010
0100
0010
0100
0010
1000
0010
1000
0100
1000
0100
1000
0100
0010
0100
0010
,  // measure 56
0001
0010
0001
0010
0001
1000
0001
1000
0001
1000
0010
1000
0010
0000
0100
0001
,  // measure 57
1000
0000
0010
1000
0010
1000
0001
0100
0001
0000
0010
0001
0010
0000
0100
1000
,  // measure 58
0100
0000
0010
0001
1000
0010
0100
0001
1000
0000
0001
0100
0001
0000
0010
0001
,  // measure 59
1000
0000
0100
0010
0001
1000
0010
0100
0001
0000
0010
0001
1000
0000
0100
0010
,  // measure 60
0001
0000
1000
0010
0100
0001
1000
0010
0100
0000
0001
0010
0001
0000
1000
0100
,  // measure 61
0010
0000
0001
1000
0010
0100
0001
1000
0001
0000
0010
0100
1000
0000
0001
0010
,  // measure 62
0001
0000
1000
0010
0100
0001
1000
0010
0100
0000
0001
0010
0001
0000
1000
0100
,  // measure 63
0010
0000
0001
0100
0010
0100
0010
1000
0100
0000
0010
0100
1000
0000
0010
0100
,  // measure 64
0010
0000
1000
0010
1000
0010
0100
0001
0010
0001
0100
0001
0010
0000
0100
0000
,  // measure 65
1000
0010
1000
0100
0010
0001
1001
0001
,  // measure 66
1000
0010
0110
0001
0100
0001
0011
0010
,  // measure 67
0001
1000
1100
0100
0010
0001
1000
0010
,  // measure 68
0101
0000
0100
0000
0001
0000
1000
0000
0010
0000
0001
0000
1000
0000
0100
0010
,  // measure 69
1000
0000
0001
0010
0100
0000
1000
0000
1001
0000
0001
0010
0100
0000
1000
0001
,  // measure 70
0010
0000
0001
1000
0010
0000
0100
0000
0101
0000
0001
0010
0001
0000
1000
0100
,  // measure 71
0010
0000
0001
1000
0010
0000
0100
0000
1010
0000
0010
0100
0001
0000
0010
0001
,  // measure 72
1000
0000
0100
0010
0001
0000
1000
0000
1010
0000
0001
0000
1001
0000
0000
0000
,  // measure 73
0001
0010
0001
0100
0100
0001
1000
1000
,  // measure 74
0010
0010
0100
0001
0100
1000
1100
0100
,  // measure 75
0001
0101
0100
0010
0110
0100
0010
0011
,  // measure 76
0001
0100
0101
0001
1100
1000
0110
0000
,  // measure 77
0101
0100
0000
0010
0011
0000
0001
1000
,  // measure 78
1001
0001
0100
0010
1010
0100
1100
0000
,  // measure 79
0000
0110
0000
0000
0011
0000
0000
1001
,  // measure 80
0000
1010
1001
0101
,  // measure 81
0000
0110
0000
0000
0101
0000
0000
0011
,  // measure 82
0000
0110
1001
0110
;
