#VERSION:0.83;
#TITLE:Flight of the Zinger;
#SUBTITLE:Donkey Kong Country 2;
#ARTIST:David Wise;
#TITLETRANSLIT:;
#SUBTITLETRANSLIT:;
#ARTISTTRANSLIT:;
#GENRE:;
#ORIGIN:;
#CREDIT:;
#BANNER:dkc2-bn.jpg;
#BACKGROUND:dkc2-bg.jpg;
#PREVIEWVID:;
#JACKET:;
#CDIMAGE:;
#DISCIMAGE:;
#LYRICSPATH:;
#CDTITLE:;
#MUSIC:Flight_of_the_Zinger.mp3;
#OFFSET:-1.598000;
#SAMPLESTART:60.798000;
#SAMPLELENGTH:20.000000;
#SELECTABLE:YES;
#BPMS:0.000=150.000;
#STOPS:;
#DELAYS:;
#WARPS:;
#TIMESIGNATURES:0.000=4=4;
#TICKCOUNTS:0.000=4;
#COMBOS:0.000=1;
#SPEEDS:0.000=1.000=0.000=0;
#SCROLLS:0.000=1.000;
#FAKES:;
#LABELS:0.000=Song Start;
#BGCHANGES:;
#KEYSOUNDS:;
#ATTACKS:
;

//---------------dance-single - ----------------
#NOTEDATA:;
#CHARTNAME:;
#STEPSTYPE:dance-single;
#DESCRIPTION:;
#CHARTSTYLE:;
#DIFFICULTY:Hard;
#METER:11;
#RADARVALUES:0.422983,0.499648,0.241490,0.115495,0.052498,282.000000,259.000000,23.000000,11.000000,0.000000,0.000000,0.000000,0.000000,0.000000,0.422983,0.499648,0.241490,0.115495,0.052498,282.000000,259.000000,23.000000,11.000000,0.000000,0.000000,0.000000,0.000000,0.000000;
#CREDIT:Raikou Rider;
#OFFSET:-1.598000;
#BPMS:0.000000=150.000000
;
#STOPS:;
#DELAYS:;
#WARPS:;
#TIMESIGNATURES:0.000000=4=4
;
#TICKCOUNTS:0.000000=4
;
#COMBOS:0.000000=1
;
#SPEEDS:0.000000=1.000000=0.000000=0
;
#SCROLLS:0.000000=1.000000
;
#FAKES:;
#LABELS:0.000000=Song Start
;
#NOTES:
0000
0000
0000
0000
,
0000
0000
0000
0000
,
0000
0000
0000
0000
,
2000
0001
0100
0001
,
0010
0100
0010
0001
,
0010
0100
0001
0100
,
0010
0100
0001
3010
,
0002
0100
1000
0100
,
0010
1000
0100
1000
,
0010
1000
0100
1000
,
0010
0100
0010
1003
,
1000
0100
0010
0000
0100
0010
0001
0000
,
0001
0100
0010
0000
0100
0010
1000
0000
,
1000
0001
0100
0000
0010
0100
0001
0000
,
1000
0100
1000
0000
0001
0100
0010
0000
,
1000
0100
0010
0001
0010
0100
1000
0000
,
0001
0010
0100
1000
0100
0010
0001
0000
,
1000
0010
0100
0001
0010
0100
1000
0000
,
0001
0100
0010
1000
0100
0010
0001
0000
,
1001
0000
0010
0000
0100
0001
0010
0000
,
1010
1010
0100
0000
0001
0010
0100
0000
,
0011
0000
1000
0000
0010
0100
0001
0000
,
1001
1001
0100
0000
1000
0001
0100
0000
,
1002
0000
0100
0000
1000
1000
1000
0000
,
0100
0000
1000
0000
0010
0010
0010
0000
,
0100
0000
0010
0000
1000
1000
1000
0000
,
0100
0000
1000
0000
0100
0100
0103
0000
,
2001
0000
0100
0000
0001
0001
0001
0000
,
0010
0000
0100
0000
0001
0001
0001
0000
,
0010
0000
0001
0000
0010
0010
0010
0000
,
0100
0000
0001
0000
0100
0100
3100
0000
,
1001
0010
0101
1000
,
1100
0000
1100
0000
0010
0000
0000
0000
1001
0000
0000
0000
0010
0100
0010
0100
,
0010
0100
0101
1000
,
1010
0000
1010
0000
0100
0000
0000
0000
0101
0000
0000
0000
1000
0010
1000
0010
,
2000
0000
0000
0000
0000
0000
0000
0000
0000
0000
0200
0000
0000
3000
0020
0000
,
0000
0000
0000
0330
,
0010
0001
0010
0100
1000
0000
0101
0000
,
0001
0000
0100
0000
0001
0000
1000
0000
0010
0000
0000
0000
1000
0000
0010
0100
,
0010
0100
0001
0110
,
1001
1000
0010
0100
,
0001
1000
0100
0010
0001
0000
0110
0000
,
0001
0000
0010
0000
0100
0000
1000
0000
0001
0000
0000
0000
0100
0000
0001
0100
,
0001
1000
0001
1010
,
0101
1000
0100
1000
,
0100
0000
0001
0200
0010
0000
0010
0000
,
0310
0000
0100
0000
0000
0000
0010
0000
0010
0000
0000
0001
0000
0000
0010
0000
,
0100
0000
0010
0002
1000
0000
1000
0000
,
1003
0000
0010
0000
0000
0000
1000
0000
1000
0000
0000
0010
0000
0000
0001
0000
,
0010
2000
0001
0001
,
3001
0000
0010
0000
0000
0000
1000
0000
0010
0000
0000
0001
0000
0000
0100
0000
,
0010
0002
0010
0010
,
0013
0000
0001
0000
0000
0000
0010
0000
1000
0000
0000
0100
0000
0000
0010
0000
;

//---------------dance-single - ----------------
#NOTEDATA:;
#CHARTNAME:;
#STEPSTYPE:dance-single;
#DESCRIPTION:;
#CHARTSTYLE:;
#DIFFICULTY:Challenge;
#METER:14;
#RADARVALUES:0.643474,0.832747,0.808467,0.083997,0.362235,429.000000,352.000000,77.000000,8.000000,0.000000,0.000000,0.000000,0.000000,0.000000,0.643474,0.832747,0.808467,0.083997,0.362235,429.000000,352.000000,77.000000,8.000000,0.000000,0.000000,0.000000,0.000000,0.000000;
#CREDIT:Raikou Rider;
#NOTES:
// measure 0
0000
0000
0000
0000
0000
0000
0000
0000
0000
0000
0000
0000
0000
0000
0010
0001
,  // measure 1
0010
0000
0000
0000
0000
0000
0000
0000
0000
0000
0000
0000
0000
0000
0100
0010
,  // measure 2
0100
0000
0000
0000
0000
0000
1000
0100
1000
0000
0000
0000
0000
0000
0000
0000
,  // measure 3
2000
0010
0100
0001
,  // measure 4
0010
0100
0001
0010
,  // measure 5
0100
0001
0100
0010
,  // measure 6
0100
0001
0010
3100
,  // measure 7
1000
0100
0010
0001
0010
0100
1000
0001
,  // measure 8
0100
0010
1000
0001
0010
0100
0010
1000
,  // measure 9
0010
0100
0010
0001
0100
0010
0100
1000
,  // measure 10
0100
0010
0100
0001
0010
0100
1000
0001
,  // measure 11
1000
0010
1000
0000
0100
0000
1000
0000
0100
0010
0100
0000
0010
0000
0001
0000
,  // measure 12
0100
0001
0100
0000
0001
0000
0010
0000
0100
1000
0100
0000
1000
0000
0010
0000
,  // measure 13
0100
0001
0010
0000
0100
0000
1000
0000
0010
1000
0001
0000
0100
0000
0001
0000
,  // measure 14
0010
0100
1000
0000
0010
0000
1000
0000
0010
1000
0100
0000
0010
0000
0001
0000
,  // measure 15
0100
0001
0010
0100
1000
0010
0100
0000
0001
0010
0100
1000
0001
0100
0010
0000
,  // measure 16
1000
0100
1000
0001
0010
0100
1000
0000
0010
0100
0001
1000
0010
1000
0100
0000
,  // measure 17
0010
0001
0100
0001
1000
0100
1000
0000
0010
1000
0100
0010
0001
0010
0100
0000
,  // measure 18
1000
0001
0100
0010
1000
0001
0100
0000
0010
1000
0100
1000
0001
0010
0100
0000
,  // measure 19
1001
0000
0000
0000
1000
0000
0000
0000
0001
0010
0100
1000
0100
0000
0000
0000
,  // measure 20
1100
0000
1001
0000
0100
0000
0000
0000
0001
0100
0010
1000
0010
0000
0000
0000
,  // measure 21
1100
0000
0000
0000
1000
0000
0000
0000
0010
1000
0100
0010
0001
0000
0000
0000
,  // measure 22
1100
0000
1001
0000
0100
0000
0000
0000
0100
0001
0100
0010
1000
0000
0000
0000
,  // measure 23
1010
0000
0000
0000
1000
0000
0000
0000
0100
0010
0001
1000
0100
0000
0000
0000
,  // measure 24
1001
0000
1010
0000
1000
0000
0000
0000
0001
0100
0001
1000
0100
0000
0000
0000
,  // measure 25
1100
0000
0000
0000
1000
0000
0000
0000
0010
1000
0001
0010
0001
0000
0000
0000
,  // measure 26
1010
0000
1001
0000
0010
0000
0000
0000
0010
0001
1000
0010
0100
0000
0000
0000
,  // measure 27
1010
0000
0000
0000
1000
0000
0000
0000
0100
1000
0010
0100
0001
0000
0000
0000
,  // measure 28
0101
0000
0110
0000
1000
0000
0000
0000
0100
1000
0010
1000
0001
0000
0000
0000
,  // measure 29
0101
0000
0000
0000
0100
0000
0000
0000
0100
0001
0010
0001
1000
0000
0000
0000
,  // measure 30
1010
0000
0110
0000
1000
0000
0000
0000
0010
1000
0100
1000
0001
0000
0000
0000
,  // measure 31
0101
0010
0101
1000
,  // measure 32
1010
0000
0011
0000
1000
0000
0000
0000
0101
0000
0000
0000
1000
0100
0001
0100
,  // measure 33
1000
1000
0101
1000
,  // measure 34
1010
0000
1001
0000
0100
0000
0000
0000
0011
0000
0000
0000
0001
0010
1000
0010
,  // measure 35
0002
0000
0000
0000
0000
0000
0000
0000
0000
0000
2000
0003
0000
0000
0020
0000
,  // measure 36
0000
0000
0000
0000
0000
0000
0000
3030
,  // measure 37
1001
0100
0010
0001
0100
0000
0110
0000
,  // measure 38
1001
0000
0100
0000
0010
0000
0001
0000
1001
0000
0000
0000
1000
0000
0010
1000
,  // measure 39
0001
0101
0110
1010
,  // measure 40
0110
0101
0110
1001
,  // measure 41
1010
1000
0001
0010
0110
0000
0011
0000
,  // measure 42
0101
0000
1000
0000
0010
0000
1000
0000
1100
0000
0000
0000
1000
0000
0010
0001
,  // measure 43
0010
1000
0100
1010
,  // measure 44
0110
0101
0011
1010
,  // measure 45
0110
0000
1100
1000
0001
0000
0100
0000
,  // measure 46
0001
0000
0011
0000
0000
0000
0011
0000
0011
0000
0000
0110
0000
0000
0011
0000
,  // measure 47
0110
0000
0011
1000
0100
0000
1000
0000
,  // measure 48
1010
0000
0110
0000
0000
0000
0110
0000
1010
0000
0000
1001
0000
0000
0010
0000
,  // measure 49
0101
2002
0000
3003
,  // measure 50
1010
0000
0110
0000
0000
0000
0110
0000
0110
0000
0000
1100
0000
0000
0110
0000
,  // measure 51
0011
0000
0000
0000
0202
0000
0000
0000
0000
0000
0000
0000
0000
0303
0000
0000
,  // measure 52
1000
0000
1010
0000
0000
0000
1010
0000
1010
0000
0000
0110
0000
0000
1010
0000
;

//---------------dance-single - ----------------
#NOTEDATA:;
#CHARTNAME:;
#STEPSTYPE:dance-single;
#DESCRIPTION:;
#CHARTSTYLE:;
#DIFFICULTY:Medium;
#METER:9;
#RADARVALUES:0.346486,0.388615,0.199492,0.052498,0.020999,231.000000,212.000000,19.000000,5.000000,0.000000,0.000000,0.000000,0.000000,0.000000,0.346486,0.388615,0.199492,0.052498,0.020999,231.000000,212.000000,19.000000,5.000000,0.000000,0.000000,0.000000,0.000000,0.000000;
#CREDIT:;
#NOTES:
0000
0000
0000
0000
,
0000
0000
0000
0000
,
0000
0000
0000
0000
,
2000
0100
0001
0100
,
0001
0100
0001
0100
,
0010
0001
0010
0001
,
0010
0001
0010
0001
,
3002
0100
1000
0100
,
1000
0100
1000
0100
,
0010
1000
0010
1000
,
0010
0000
1000
0000
0010
0000
1000
0003
,
1000
0100
0010
0001
,
0100
0010
1000
0100
,
1000
0100
0001
0100
,
1000
0010
0001
0010
,
1000
0100
1000
0000
0001
0100
0001
0000
,
1000
0010
1000
0000
0001
0010
0001
0000
,
1000
0100
1000
0000
0001
0100
0001
0000
,
1000
0010
1000
0000
0001
0010
0001
0000
,
1100
0000
0000
0000
1000
0100
0010
0000
,
0010
0001
0000
0000
0100
0001
1000
0000
,
1100
0000
0000
0000
1000
0100
0010
0000
,
0001
0010
0000
0000
0010
0001
0010
0000
,
0110
0000
0000
0000
0010
0100
1000
0000
,
1000
0010
0000
0000
1000
0010
0100
0000
,
0101
0000
0000
0000
0100
0001
0010
0000
,
0001
0100
0000
0000
0001
1000
0001
0000
,
1001
0000
0000
0000
0001
0010
0100
0000
,
1000
0010
0000
0000
1000
0100
0010
0000
,
0101
0000
0000
0000
1000
0100
1000
0000
,
0001
0010
0000
0000
0100
0001
0100
0000
,
0110
0000
1010
0000
,
1000
0100
0000
0000
0110
0000
1010
0000
,
0011
0000
0101
0000
,
1000
0010
0000
0000
0110
0000
1000
0010
,
2000
0000
0000
0000
0000
3200
0000
0020
,
0000
0000
0000
0000
0000
0000
0000
0300
,
0030
1000
0100
0010
0001
0000
0000
0000
,
0000
0010
0100
1000
0001
0000
0000
1000
,
0001
0001
0100
0110
,
1010
0001
0010
0100
,
0000
1000
0100
0010
0001
0000
0000
0000
,
0000
1000
0010
0100
0001
0000
0000
0010
,
0001
0001
0010
0110
,
0011
1000
0100
0010
,
0011
0000
0100
0001
0000
0000
0000
0000
,
0000
0000
0010
0000
0000
0000
0001
0000
1000
0000
0000
0010
0000
0000
0010
0000
,
1000
0000
0100
0010
0000
0000
0000
0000
,
0101
0000
0000
0000
0000
0000
0010
0000
1000
0000
0000
0100
0000
0000
1000
0000
,
0010
1000
0100
0010
,
0001
0000
0100
0000
0000
0000
0001
0000
1000
0000
0000
0100
0000
0000
1000
0000
,
0010
1000
0001
0010
,
0100
0000
1000
0000
0000
0000
0001
0000
1000
0000
0000
0001
0000
0000
1000
0000
;

//---------------dance-single - ----------------
#NOTEDATA:;
#CHARTNAME:;
#STEPSTYPE:dance-single;
#DESCRIPTION:;
#CHARTSTYLE:;
#DIFFICULTY:Easy;
#METER:6;
#RADARVALUES:0.226491,0.276926,0.125995,0.031499,0.000000,151.000000,139.000000,12.000000,3.000000,0.000000,0.000000,0.000000,0.000000,0.000000,0.226491,0.276926,0.125995,0.031499,0.000000,151.000000,139.000000,12.000000,3.000000,0.000000,0.000000,0.000000,0.000000,0.000000;
#CREDIT:;
#NOTES:
0000
0000
0000
0000
,
0000
0000
0000
0000
,
0000
0000
0000
0000
,
1000
0100
0010
0100
,
1000
0010
0100
0001
,
0100
0010
0100
0001
,
0010
0100
1000
0000
,
0001
0100
0010
1000
,
0100
0001
0100
1000
,
0010
1000
0001
0010
,
0100
1000
0010
0000
,
1000
0001
0010
0001
,
1000
0010
1000
0010
,
0100
0001
0100
0001
,
1000
0010
1000
0000
,
0100
0010
0001
1000
,
0010
0100
0010
1000
,
0001
0010
0100
1000
,
0010
1000
0001
0100
,
0110
0000
1000
0000
,
0101
0000
0010
0000
,
0110
0000
1000
0000
,
1010
0000
0001
0000
,
0102
0000
1000
0000
,
0010
0000
0100
0000
,
0010
0000
1000
0000
,
1000
0000
0003
0000
,
2010
0000
0100
0000
,
0010
0000
0001
0000
,
0010
0000
0100
0000
,
0001
0000
0100
3000
,
1010
0000
0100
0000
,
0101
0000
0011
0000
,
1001
0000
0010
0000
,
1010
0000
1100
1000
,
0200
0000
0000
0000
,
0000
0000
0000
0300
,
0001
0010
0001
0000
,
1000
0010
1000
0000
,
0001
0000
0010
0100
,
1000
0000
0010
0000
,
1000
0100
0001
0000
,
1000
0010
0001
0000
,
0010
0000
0100
0010
,
0001
0000
0001
0000
,
0100
1000
0100
0000
,
0010
1000
0100
0000
,
0010
0001
0010
0000
,
1000
0010
0100
1000
,
0010
0100
0000
0000
,
0000
0001
0010
0100
,
1000
0010
0000
0000
,
0000
1000
0001
1000
;

//---------------dance-single - ----------------
#NOTEDATA:;
#CHARTNAME:;
#STEPSTYPE:dance-single;
#DESCRIPTION:;
#CHARTSTYLE:;
#DIFFICULTY:Beginner;
#METER:2;
#RADARVALUES:0.157494,0.222591,0.188992,0.000000,0.000000,105.000000,87.000000,18.000000,0.000000,0.000000,0.000000,0.000000,0.000000,0.000000,0.157494,0.222591,0.188992,0.000000,0.000000,105.000000,87.000000,18.000000,0.000000,0.000000,0.000000,0.000000,0.000000,0.000000;
#CREDIT:;
#NOTES:
0000
0000
0000
0000
,
0000
0000
0000
0000
,
0000
0000
0000
0000
,
1000
0000
0001
0000
,
1000
0000
0010
0000
,
1000
0000
0001
0000
,
0010
0000
0000
0000
,
0001
0000
1000
0000
,
0100
0000
0010
0000
,
0001
0000
1000
0000
,
0010
0000
0000
0000
,
1000
0000
0100
0000
,
1000
0000
0001
0000
,
0100
0000
0001
0000
,
1000
0000
0000
0000
,
0010
0000
1000
0000
,
0100
0000
0010
0000
,
0001
0000
1000
0000
,
0010
0000
0100
0000
,
1001
0000
0000
0000
,
1010
0000
0000
0000
,
0110
0000
0000
0000
,
0011
0000
0000
0000
,
1010
0000
0010
0000
,
1010
0000
1000
0000
,
1010
0000
0010
0000
,
1010
0000
0000
0000
,
0101
0000
0100
0000
,
0101
0000
0001
0000
,
0101
0000
0100
0000
,
0101
0000
0001
0000
,
1001
0000
0000
0000
,
0110
0000
0000
0000
,
1010
0000
0000
0000
,
0011
0000
1000
0000
,
1100
0000
0000
0000
,
0000
0000
0000
0000
,
1000
0000
0100
0000
,
0010
0000
0001
0000
,
1000
0000
0010
0000
,
1000
0000
0100
0000
,
1000
0000
0001
0000
,
0100
0000
0001
0000
,
0010
0000
0100
0000
,
1000
0000
0001
0000
,
0010
0000
0100
0000
,
1000
0000
0001
0000
,
0100
0000
0010
0000
,
1000
0000
0100
0000
,
0010
0000
0001
0000
,
0100
0000
0010
0000
,
1000
0000
0100
0000
,
0010
0000
0001
0000
,
1001
0000
0000
0000
;
