#TITLE:Fear Factory;
#SUBTITLE:Donkey Kong Country;
#ARTIST:David Wise;
#TITLETRANSLIT:;
#SUBTITLETRANSLIT:;
#ARTISTTRANSLIT:;
#GENRE:;
#CREDIT:;
#BANNER:bn.jpg;
#BACKGROUND:bg.jpg;
#LYRICSPATH:;
#CDTITLE:;
#MUSIC:Fear Factory.ogg;
#OFFSET:-0.062000;
#SAMPLESTART:21.617001;
#SAMPLELENGTH:30.000000;
#SELECTABLE:YES;
#BPMS:0.000000=133.610001
,126.000000=66.805000
,138.000000=133.610001
;
#STOPS:92.000000=0.898000,
190.000000=0.898000
;
#BGCHANGES:;
#KEYSOUNDS:;
#ATTACKS:;

//---------------dance-single - ----------------
#NOTES:
     dance-single:
     :
     Challenge:
     15:
     0.776384,0.729204,0.388796,0.050713,0.963538,643.000000,597.000000,46.000000,6.000000,51.000000,0.000000,0.776384,0.729204,0.388796,0.050713,0.963538,643.000000,597.000000,46.000000,6.000000,51.000000,0.000000:
// measure 0
0000
0000
0000
0000
,  // measure 1
0000
0000
0000
0000
,  // measure 2
0001
0000
1000
0000
0001
0000
0010
0000
0100
0010
0000
0010
0100
0000
1000
0000
,  // measure 3
0010
0001
0010
1000
0100
0010
0001
0100
,  // measure 4
0001
0010
0001
0000
1000
0100
1000
0000
0010
0000
0000
0000
1000
0000
0000
0000
,  // measure 5
0100
1000
0100
0000
1000
0001
1000
0000
0001
0000
0000
0000
0100
0000
0000
0000
,  // measure 6
0001
0010
0001
0000
0010
0100
0010
0100
0000
0010
0000
0010
0100
1000
0100
0000
,  // measure 7
1000
0010
1000
0000
0010
0100
0010
0000
0100
0000
0000
0000
0010
0000
0000
0000
,  // measure 8
1000
0010
1000
0000
0001
0100
0001
0000
0010
0000
0000
0000
0001
0000
0000
0000
,  // measure 9
1000
0010
1000
0000
0010
0100
0010
0000
0100
0000
0000
0000
1000
0000
0000
0000
,  // measure 10
0100
0001
0100
0000
0001
0010
0001
1000
0000
0001
0000
0100
0010
1000
0100
0000
,  // measure 11
1000
0001
1000
0000
0001
0010
0001
0000
0010
0000
0000
0000
0010
0000
0000
0000
,  // measure 12
0100
0000
0010
0000
0001
0000
1000
0000
0010
1000
0000
1000
0010
0000
1000
0000
,  // measure 13
0100
0001
0100
1000
0010
0001
0010
0100
,  // measure 14
0010
0000
1000
0000
0100
0000
0010
0000
0001
0100
0000
0100
0001
0000
0010
0000
,  // measure 15
0100
1000
0010
0100
0001
0010
0001
0100
,  // measure 16
0010
0000
0000
0000
0101
0000
0001
0010
0100
0010
0100
0010
0001
1000
0001
0100
,  // measure 17
0001
0000
0000
0000
1010
0000
0010
1000
0010
0100
0001
0100
0001
0100
0010
1000
,  // measure 18
0010
0000
0000
0000
1100
0000
1000
0100
1000
0100
0010
0100
0010
0001
1000
0001
,  // measure 19
0010
0000
0000
0000
0101
0000
0001
0100
0010
0100
0010
0100
0010
1000
0001
1000
,  // measure 20
0100
0000
0000
0000
1100
0000
0010
0001
1000
0001
0100
0001
1000
0010
0100
0010
,  // measure 21
1000
0000
0000
0000
1010
0000
1000
0100
0010
0001
0010
0001
0100
0010
0100
0001
,  // measure 22
0100
0000
0000
0000
1001
0000
0100
0010
0001
0100
0010
1000
0100
0010
0001
0010
,  // measure 23
0200
0000
0300
0000
1001
0000
0000
0000
0001
0000
0000
0000
0110
0000
0100
0010
,  // measure 24
0100
0010
1000
0100
1000
0100
0010
0100
1000
0000
0000
0000
1100
0000
0100
0010
,  // measure 25
0001
0010
0001
0100
0010
0100
0001
0100
0010
0000
0000
0000
1010
0000
1000
0001
,  // measure 26
1000
0001
0010
0100
0010
0100
1000
0001
0100
0000
0000
0000
0101
0000
0001
0100
,  // measure 27
0010
1000
0010
1000
0010
0100
0001
1000
0010
0000
0000
0000
0101
0000
0100
0001
,  // measure 28
0010
0100
0010
0100
0010
0001
0010
0100
1000
0000
0000
0000
0101
0000
1000
0010
,  // measure 29
0100
0010
1000
0010
1000
0100
1000
0100
0010
0000
0000
0000
0101
0000
0010
0100
,  // measure 30
0010
0100
1000
0100
1000
0010
0100
0001
0100
0000
0000
0000
0110
0000
0001
0010
,  // measure 31
0100
0010
0100
1000
0001
0010
0100
0010
0001
0000
0000
0001
0020
0000
1030
0020
,  // measure 32
0000
0000
0000
0031
0200
0000
1300
0200
0000
0000
0000
0300
0010
1000
0100
0001
,  // measure 33
1000
0010
0001
0100
0010
0001
1000
0100
0010
1000
0010
0001
1000
0000
0100
0001
,  // measure 34
0000
0000
0000
0010
0100
0000
0001
0100
1000
0000
0000
0000
0010
0000
0000
0000
,  // measure 35
0001
0010
1000
1100
,  // measure 36
1000
0010
0000
0000
1010
0000
0000
0000
0100
0000
0000
0000
0011
0000
0000
0000
,  // measure 37
0010
0001
0000
0000
0101
0000
0000
0000
0100
0000
0000
0000
1001
0000
0000
0000
,  // measure 38
1000
0010
0000
0000
1010
0000
0000
0000
1000
0000
0000
0000
0110
0000
0000
0000
,  // measure 39
0100
0001
0000
0000
0011
0000
0000
0000
1000
0000
0000
0000
1010
0000
0000
0000
,  // measure 40
0010
1000
0000
0000
1100
0000
0000
0000
0100
0000
0000
0000
0110
0000
0100
0010
,  // measure 41
0100
0010
0100
1000
0001
0100
0010
0100
0001
0000
0000
0000
1100
0000
0100
0010
,  // measure 42
0001
0010
0001
0010
0100
0010
0100
1000
0100
0000
0000
0000
1010
0000
1000
0010
,  // measure 43
0100
0010
0100
0001
0010
0001
0010
0100
0010
0000
0000
0000
0101
0000
1000
0010
,  // measure 44
1000
0010
0100
0010
0100
0010
1000
0010
1000
0000
0000
0000
0011
0000
0100
0010
,  // measure 45
0001
0010
0001
0100
0010
1000
0100
1000
0100
0000
0000
0000
1010
0000
0100
0010
,  // measure 46
1000
0001
1000
0001
0010
0100
0010
0001
0010
0000
0000
0000
0011
0000
0100
0010
,  // measure 47
0100
0010
0001
1000
0100
1000
0001
1000
0020
0000
0030
0000
0110
0000
0000
0000
,  // measure 48
0001
0000
0000
0000
0011
0000
0010
0100
0010
0100
0010
0001
0010
0001
1000
0100
,  // measure 49
0010
0000
0000
0000
0101
0000
0010
0100
0010
0100
0001
0010
0001
0010
0001
1000
,  // measure 50
0100
0000
0000
0000
0011
0000
0010
0001
0010
0001
0100
0010
0100
0010
1000
0100
,  // measure 51
1000
0000
0000
0000
1010
0000
0100
0010
0100
0010
0100
0001
0100
0001
0010
0001
,  // measure 52
0010
0000
0000
0000
1100
0000
0100
1000
0001
0010
0001
0010
0100
0010
0100
0010
,  // measure 53
0001
0000
0000
0000
1010
0000
0010
1000
0001
1000
0001
0010
0001
0010
0100
1000
,  // measure 54
0100
0000
0000
0000
0101
0000
0001
0010
0001
0010
0100
1000
0010
1000
0010
0100
,  // measure 55
0010
0000
0000
0000
0101
0000
0001
0010
0100
0010
0001
1000
0100
1000
0010
1000
,  // measure 56
0010
0000
0000
0000
0110
0000
0100
0001
0010
0001
0010
0100
1000
0010
0100
0010
,  // measure 57
1000
0000
0000
0000
1010
0000
1000
0010
0100
0010
0100
0010
0100
0001
0010
0001
,  // measure 58
0010
0000
0000
0000
0110
0000
0010
0100
0010
0100
1000
0010
1000
0010
0100
0010
,  // measure 59
0100
0000
0000
0000
0101
0000
1000
0001
1000
0100
0010
0001
1000
0100
0001
0100
,  // measure 60
1000
0000
0000
0000
MMM0
M00M
MMMM
M0M0
M00M
0000
0MM0
M00M
MMMM
M00M
M00M
0000
,  // measure 61
MMM0
M00M
MMMM
M0M0
M00M
0000
MMMM
M000
MMM0
M000
MMMM
0000
0000
0000
0000
0000
;

//---------------dance-single - ----------------
#NOTES:
     dance-single:
     :
     Hard:
     12:
     0.560252,0.633906,0.439508,0.084521,0.287371,464.000000,412.000000,52.000000,10.000000,0.000000,0.000000,0.560252,0.633906,0.439508,0.084521,0.287371,464.000000,412.000000,52.000000,10.000000,0.000000,0.000000:
0000
0000
0000
0000
,
0000
0000
0000
0000
,
0000
0000
0000
0000
,
0000
0000
0000
0000
,
2010
0001
0100
0001
,
0010
0001
0100
0001
,
0010
0000
0000
0000
3100
0000
1000
0010
0000
1000
0000
0010
1000
0000
0100
0000
,
0100
0010
0010
0001
,
1002
0010
1000
0010
,
1000
0100
1000
0010
,
0100
0000
0000
0000
0013
0000
0001
0010
0000
0100
0000
0010
0001
0000
1000
0000
,
0001
0001
0010
0100
,
1000
0000
0010
0000
1000
0000
0001
0000
0100
0010
0000
0000
0101
0000
0001
0000
,
0010
0100
1000
0010
1000
0001
1000
0100
,
0001
0000
0100
0000
0010
0000
0001
0000
0100
0001
0000
0000
0011
0000
0001
0000
,
0010
1000
0010
0001
0100
0010
1000
0100
,
0010
0000
0000
0000
0011
0000
0010
0001
0010
0000
0001
0000
1000
0000
0010
0000
,
1000
0000
0000
0000
1010
0000
1000
0010
1000
0000
0010
0000
0100
0000
0001
0000
,
0010
0000
0000
0000
0110
0000
0010
0100
0010
0000
0100
0000
1000
0000
0010
0000
,
1000
0000
0000
0000
1001
0000
1000
0001
1000
0000
0001
0000
0100
0000
0001
0000
,
1000
0000
0000
0000
1100
0000
1000
0100
0010
0000
0100
0000
0010
0000
0001
0000
,
0100
0000
0000
0000
0101
0000
0001
0100
0010
0000
1000
0000
0010
0000
1000
0000
,
0100
0000
0000
0000
1100
0000
0100
1000
0001
0000
0100
0000
0001
0010
0100
1000
,
0002
0000
0003
0000
1001
0000
0000
0000
1000
0000
0000
0000
0110
0000
1000
0010
,
1000
0000
0100
0000
0010
0000
0001
0000
0100
0000
0000
0000
0101
0000
0100
0001
,
0100
0000
0010
0000
1000
0000
0100
0000
0010
0000
0000
0000
1010
0000
0010
1000
,
0100
0000
0010
0000
0001
0000
0100
0000
0001
0000
0000
0000
0101
0000
0100
0001
,
0010
0000
0001
0000
1000
0000
0010
0000
0100
0000
0000
0000
1010
0000
0010
1000
,
0100
0000
0010
0000
0001
0000
0100
0000
0001
0000
0000
0000
1001
0000
0001
1000
,
0010
0000
0100
0000
0001
0000
0100
0000
0010
0000
0000
0000
0011
0000
0010
0001
,
0100
0000
0001
0000
0010
0000
0001
0000
0100
0000
0000
0000
0101
0000
0100
0001
,
0010
0000
0001
0000
1000
0000
0010
0000
1000
0000
0000
0100
0020
0000
0130
2000
,
0000
0000
3000
0010
2000
0000
3010
0200
0000
0000
0000
0000
0301
0100
0001
0100
,
0010
1000
0010
1000
0100
0010
0100
0010
0001
0100
0001
0100
0020
0000
1030
0200
,
0000
0000
0300
1000
0010
0000
0010
1000
0100
0000
0000
0000
0100
0000
0000
0000
,
0010
0010
0001
1001
,
1000
0010
0000
0000
1010
0000
0000
0000
1000
0000
0000
0000
1100
0000
0000
0000
,
1000
0100
0000
0000
1100
0000
0000
0000
0100
0000
0000
0000
0110
0000
0000
0000
,
0100
0010
0000
0000
0110
0000
0000
0000
0010
0000
0000
0000
0011
0000
0000
0000
,
0000
1001
0000
0000
1010
0000
0000
0000
0000
0000
0000
0000
1100
0000
0000
0000
,
0000
0101
0000
0000
1001
0000
0000
0000
1000
0000
0000
0000
1100
0000
1000
0100
,
1000
0000
0010
0000
0100
0000
0001
0000
0010
0000
0000
0000
0011
0000
0010
0001
,
0010
0000
0001
0000
0100
0000
0001
0000
1000
0000
0000
0000
1100
0000
1000
0100
,
1000
0000
0010
0000
1000
0000
0010
0000
0100
0000
0000
0000
1001
0000
1000
0001
,
1000
0000
0001
0000
0100
0000
0001
0000
0010
0000
0000
0000
1001
0000
1000
0001
,
0100
0000
0001
0000
1000
0000
0010
0000
1000
0000
0000
0000
1010
0000
1000
0010
,
0100
0000
0001
0000
0010
0000
0100
0000
1000
0000
0000
0000
1100
0000
1000
0100
,
1000
0000
0001
0000
1000
0100
0010
0001
2000
0000
3000
0000
1001
0000
0000
0000
,
0001
0000
0000
0000
0110
0000
0100
0010
1000
0000
0100
0000
0010
0000
0001
0000
,
0010
0000
0000
0000
1100
0000
0100
1000
0010
0000
1000
0000
0010
0000
0100
0000
,
0001
0000
0000
0000
0101
0000
0100
0001
1000
0000
0010
0000
1000
0000
0100
0000
,
1000
0000
0000
0000
1001
0000
0001
1000
0100
0000
1000
0000
0100
0000
0010
0000
,
0001
0000
0000
0000
0011
0000
0010
0001
1000
0000
0010
0000
1000
0000
0001
0000
,
1000
0000
0000
0000
1010
0000
0010
1000
0001
0000
0010
0000
0001
0000
0100
0000
,
0001
0000
0000
0000
1010
0000
0100
1000
0010
0000
0100
0000
0001
0000
1000
0000
,
0100
0000
0000
0000
1001
0000
1000
0001
0010
0000
0100
0000
1000
0000
0001
0000
,
0100
0000
0000
0000
0101
0000
0100
0001
1000
0000
0100
0000
1000
0000
0010
0000
,
1000
0000
0000
0000
1001
0000
0001
0010
0100
0000
1000
0000
0100
0000
1000
0000
,
0001
0000
0000
0000
0101
0000
0001
0010
0100
0000
1000
0000
0010
0000
0100
0000
,
0010
0000
0000
0000
1010
0000
1000
0010
0100
0010
0000
0100
0001
0000
0010
0000
,
0001
0000
0000
0000
;

//---------------dance-single - ----------------
#NOTES:
     dance-single:
     :
     Medium:
     10:
     0.417774,0.405700,0.321179,0.016904,0.033808,346.000000,308.000000,38.000000,2.000000,0.000000,0.000000,0.417774,0.405700,0.321179,0.016904,0.033808,346.000000,308.000000,38.000000,2.000000,0.000000,0.000000:
0000
0000
0000
0000
,
0000
0000
0000
0000
,
0000
0000
0000
0000
,
0000
0000
0000
0000
,
1002
0100
1000
0010
,
1000
1000
0010
1000
,
0100
0000
0000
0000
1003
0000
0000
0010
0000
0010
0000
0000
1000
0000
0100
0000
,
1000
0010
1000
0001
,
2001
0100
0001
0010
,
0100
0001
0100
0100
,
3001
0000
0000
0000
0010
0000
0000
0001
0000
0001
0000
0000
1000
0000
0100
0000
,
1000
0010
1000
0100
,
1000
0010
1000
0100
0010
0000
0011
0000
,
0010
0001
0100
0010
1000
0000
1010
0000
,
0001
1000
0100
0010
0001
0000
1001
0000
,
1000
0010
1000
0001
0100
0000
0101
0000
,
1000
0000
0000
0001
1000
0100
0010
0001
,
0000
0000
0000
0010
0001
1000
0001
0010
,
0000
0000
0000
0001
0100
0001
0010
0100
,
0000
0000
0000
1000
0100
1000
0010
0100
,
0000
0000
0000
1000
0010
0100
0010
1000
,
0000
0000
0000
0001
0100
0010
0100
0001
,
0000
0000
0000
0100
0001
1000
0001
0010
,
0100
1001
1000
1010
,
1000
0100
0010
0001
0100
0000
0101
0000
,
0100
0001
0010
0100
1000
0000
1010
0000
,
0010
1000
0100
0010
0001
0000
0011
0000
,
0010
0001
0100
0010
1000
0000
1001
0000
,
0001
0100
0010
0100
0010
0000
0110
0000
,
0100
0010
0100
0010
1000
0000
1010
0000
,
1000
0001
0010
0001
0010
0000
0011
0000
,
0010
0100
0010
0100
1000
0000
0010
0000
,
1000
0000
0100
0000
0010
0000
0001
0010
,
0100
0010
0001
0000
0100
0000
0010
0000
0100
0001
1000
0000
0100
0000
0000
0000
,
0010
0001
0010
0100
,
0010
0100
1000
1010
,
0000
1010
1000
1100
,
0000
1001
0100
0011
,
0000
0011
0010
0110
,
0000
0001
0000
0000
0101
0000
0000
0000
0000
0000
0000
0000
0110
0000
0000
0000
,
0000
1000
0000
0000
1100
0000
0000
0000
0100
0000
0000
0000
0010
0000
0001
0000
,
0100
0010
1000
0100
0010
0000
0100
0010
,
0001
0001
0010
0100
1000
0000
0010
1000
,
0010
0100
0001
0100
0010
0000
1000
0001
,
1000
1000
0100
0010
0100
0000
0010
0001
,
0001
1000
0100
0010
0001
0000
1000
0010
,
0010
0100
0001
0100
0010
0000
0100
0001
,
0001
1000
0010
0100
0001
0000
0101
0000
,
1000
0000
1010
0000
1000
0100
0010
0100
,
1000
0000
1010
0000
0100
0010
0100
0001
,
0100
0000
0110
0000
0100
0001
0010
0001
,
0100
0000
0101
0000
1000
0100
1000
0010
,
1000
0000
1100
0000
1000
0001
0100
0001
,
1000
0000
1001
0000
1000
0010
1000
0001
,
0010
0000
0011
0000
0010
0100
0010
0001
,
0100
0000
0101
0000
0100
0001
0010
0100
,
1000
0000
1010
0000
0100
0010
1000
0100
,
0010
0000
0011
0000
0100
0010
0100
0001
,
0010
0000
0110
0000
0010
0100
1000
0010
,
0100
0000
0101
0000
0100
0001
0010
0100
,
1000
0000
0000
0000
;

//---------------dance-single - ----------------
#NOTES:
     dance-single:
     :
     Easy:
     8:
     0.268052,0.354988,0.143685,0.143685,0.000000,222.000000,205.000000,17.000000,17.000000,0.000000,0.000000,0.268052,0.354988,0.143685,0.143685,0.000000,222.000000,205.000000,17.000000,17.000000,0.000000,0.000000:
0000
0000
0000
0000
,
0000
0000
0000
0000
,
0000
0000
0000
0000
,
0000
0000
0000
0000
,
0020
0000
0001
0000
,
0001
0000
1000
0000
,
1000
0000
0100
0000
,
0100
0000
0001
0000
,
0032
0000
0100
0000
,
0100
0000
1000
0000
,
1000
0000
0010
0000
,
0010
0000
1000
0000
,
1003
0101
0010
1010
,
1000
0110
0010
0101
,
1000
1010
0100
0110
,
0001
0101
0010
0110
,
1000
0000
0001
0000
1000
0000
0100
0010
,
0000
0000
0010
0000
0001
0000
0010
0100
,
0000
0000
1000
0000
0001
0000
0001
1000
,
0000
0000
0010
0000
0100
0000
0100
0010
,
0000
0000
0010
0000
1000
0000
1000
0010
,
0000
0000
0100
0000
0010
0000
0010
0100
,
0000
0000
0001
0000
1000
0000
0001
0100
,
0001
0110
0020
0000
,
1030
0000
0100
0000
0020
0000
0000
0031
,
0000
0100
0020
0000
,
1030
0000
1000
0001
0000
0000
0000
0001
,
0010
0000
0010
0001
0000
0000
0001
0000
,
1000
0000
1000
0100
0020
0000
0130
0020
,
0000
0030
0010
0002
0000
0003
0010
0000
,
0010
0000
0100
1000
0000
0000
1000
0000
,
0010
0000
0100
0001
0001
0000
0010
0000
,
0100
0000
1000
0000
0010
0000
0100
0001
,
0010
0100
1000
0100
0010
0001
1000
0000
,
0010
0100
0001
0001
,
0010
0100
1000
1010
,
0000
1010
0000
0101
,
0000
0101
0000
0110
,
0000
0110
0000
1000
,
0000
0001
0000
1000
,
0000
0010
0000
0000
,
1000
0000
0100
1000
0000
0000
0001
0000
,
1000
0000
0010
1000
0000
0000
0010
0000
,
0100
0000
0010
0100
0000
0000
0001
0000
,
0010
0000
0001
0010
0000
0000
0100
0000
,
1000
0000
0010
1000
0000
0000
0001
0000
,
1000
0000
0100
1000
0000
0000
1000
0000
,
0001
0000
0010
0100
1000
0000
1001
0000
,
0200
0000
0301
0010
,
0200
0000
0000
1300
0000
0000
0010
0000
,
0200
0000
0000
0000
0301
0000
0001
1000
,
0000
0000
0000
1000
0100
0000
0100
1000
,
0000
0000
1000
0000
0001
0000
0001
0010
,
0200
0000
0310
0200
0000
0300
0100
0000
,
2000
0000
3100
0000
0100
0000
0010
0001
,
0010
0000
0001
0000
0100
0000
0010
1000
,
0010
0000
1000
0000
0001
0000
0100
0010
,
2000
0000
3001
0020
0000
0030
0100
2000
,
0010
0001
0100
0001
,
3100
0010
1000
0001
,
1001
0000
0000
0000
;

//---------------dance-single - ----------------
#NOTES:
     dance-single:
     :
     Beginner:
     3:
     0.130404,0.177494,0.025356,0.059165,0.000000,108.000000,105.000000,3.000000,7.000000,0.000000,0.000000,0.130404,0.177494,0.025356,0.059165,0.000000,108.000000,105.000000,3.000000,7.000000,0.000000,0.000000:
0000
0000
0000
0000
,
0000
0000
0000
0000
,
0000
0000
0000
0000
,
0000
0000
0000
0000
,
0002
0000
0000
0000
,
0000
0000
0000
0000
,
0000
0000
0000
0000
,
0000
0000
0000
0000
,
2003
0000
0000
0000
,
0000
0000
0000
0000
,
0000
0000
0000
0000
,
0000
0000
0000
0000
,
3001
0100
0000
0010
,
1000
0000
0100
0010
,
0000
0001
1000
0000
,
0010
1000
0000
0100
,
0010
0000
0010
0000
,
0001
0000
1000
0000
,
0010
0000
0100
0000
,
0001
0000
1000
0000
,
0010
0000
1000
0000
,
0100
0000
0010
0000
,
0001
0000
1000
0001
,
1001
0000
1000
0000
,
1000
0000
0100
0000
,
0010
0000
0001
0000
,
1000
0000
0010
0000
,
0100
0000
0001
0000
,
1000
0000
0001
0000
,
0010
0000
0100
0000
,
1000
0000
0001
0000
,
1000
0000
0002
0000
,
0023
0000
0230
0000
,
0000
0000
2300
0000
,
3002
0000
1003
0000
,
0001
0000
0001
0000
,
0010
0000
0100
0000
,
1000
0000
0010
0000
,
0100
0000
0001
1000
,
0000
0100
0000
0010
,
0000
0001
0000
0001
,
1000
0000
0010
0000
,
0100
0000
0010
0000
,
1000
0000
0100
0000
,
0010
0000
0100
0000
,
1000
0000
0001
0000
,
0100
0000
0010
0000
,
1000
0001
1001
0000
,
0010
0000
0100
0000
,
0010
0000
0001
0000
,
1000
0000
0100
0000
,
0010
0000
0001
0000
,
0010
0000
0100
0000
,
1000
0000
0010
0000
,
0100
0000
0001
0000
,
0010
0000
0100
0000
,
1000
0000
0010
0000
,
1000
0000
0001
0000
,
0100
0000
0010
0000
,
0100
0000
0001
1000
,
1001
0000
0000
0000
;
