#TITLE:Facility;
#SUBTITLE:GoldenEye 007;
#ARTIST:Graeme Norgate;
#TITLETRANSLIT:;
#SUBTITLETRANSLIT:;
#ARTISTTRANSLIT:;
#GENRE:;
#CREDIT:;
#BANNER:bn.png;
#BACKGROUND:bg.png;
#LYRICSPATH:;
#CDTITLE:;
#MUSIC:Facility.ogg;
#OFFSET:-0.138000;
#SAMPLESTART:28.052999;
#SAMPLELENGTH:30.000000;
#SELECTABLE:YES;
#BPMS:0.000000=119.980003
,144.000000=59.990002
,192.000000=119.980003
;
#STOPS:
;
#BGCHANGES:;
#KEYSOUNDS:;
#ATTACKS:;

//---------------dance-single - ----------------
#NOTES:
     dance-single:
     :
     Hard:
     11:
     0.392450,0.486552,0.097310,0.097310,0.348072,367.000000,354.000000,13.000000,13.000000,0.000000,0.000000,0.392450,0.486552,0.097310,0.097310,0.348072,367.000000,354.000000,13.000000,13.000000,0.000000,0.000000:
0000
0000
0000
0000
,
0000
0000
0000
0000
,
0000
0000
0000
0000
,
0000
0000
0000
0000
,
1001
0000
0000
0000
1000
0000
0000
0010
2000
0000
0010
0000
0001
0000
0000
0000
,
3010
0000
0000
0000
0100
0000
0010
0100
0010
0000
1000
0000
0001
1000
0000
0000
,
0100
0000
0000
0000
0010
0000
0000
0001
0010
0000
0010
0000
0001
0000
0000
0000
,
0010
0000
0001
1000
0000
0010
0100
0010
,
1000
0000
0000
0000
0011
0000
0000
0010
0002
0000
0010
0000
1000
0000
0000
0000
,
0013
0000
0000
0000
0100
0000
1000
0100
1000
0000
0001
0000
0100
0001
0100
0000
,
0010
0000
0000
0000
0110
0000
0000
0100
0010
0000
1000
0000
0001
0000
0000
0000
,
1000
0000
0000
0000
0100
0000
0010
0000
0000
0000
0001
0000
1000
0010
0000
0001
,
0010
0000
1000
0000
0100
0000
0000
0010
0002
0000
0100
0000
1000
0000
0000
0000
,
0103
0000
0000
0000
0010
0000
1000
0010
1000
0000
0001
0000
1000
0010
0000
0000
,
1000
0000
1000
0100
0010
0000
0001
0000
0000
0000
0010
0000
0001
0000
0010
0000
,
0001
0000
0001
0010
0100
0000
1000
0000
0000
0000
0100
0000
1000
0000
0010
0000
,
0100
0000
0000
0000
0101
0000
0000
0100
0020
0000
1000
0000
0100
0000
0000
0000
,
1030
0000
0000
0000
0100
0000
0010
1000
0010
0000
0100
0000
0001
0000
0010
0000
,
0100
0000
0000
0000
0010
0000
0000
0100
0010
0000
0001
0000
1000
0000
0000
0000
,
0011
0000
0000
0000
0010
0000
0100
0000
0000
0000
1000
0000
0010
1000
0000
0010
,
0001
0000
0010
0000
1000
0000
0000
1000
0002
0000
0010
0000
1000
0000
0000
0000
,
0103
0000
0000
0000
0001
0000
0010
0001
1000
0000
0010
0000
1000
0000
0000
0000
,
0010
0000
0010
1000
0001
0000
0100
0000
0000
0000
0001
0000
0010
0000
0100
0000
,
1000
0000
0100
1000
0001
0000
0100
0000
0000
0000
0010
0000
1000
0000
0001
0000
,
0101
0000
0000
0000
1000
0000
0000
0100
0020
0000
0001
0000
0100
0000
0000
0000
,
0031
0000
0000
0000
0010
0000
0100
1000
0001
0000
1000
0000
0010
0100
0010
0000
,
1000
0000
0000
0000
1010
0000
0000
0100
0010
0000
0100
0000
0001
0000
0000
0000
,
0011
0000
0000
0000
0010
0000
0100
0000
1000
0000
0010
0000
0100
0010
0000
0010
,
0001
0000
0010
0000
1000
0000
0000
0100
2000
0000
0010
0000
0001
0000
0000
0000
,
3010
0000
0100
0010
1000
0001
1000
0000
,
1000
0000
0010
1000
0010
0000
1000
0000
0000
0000
0010
0000
0100
0000
0001
0000
,
0010
0000
0001
0010
0001
0000
0010
0000
0000
0000
0100
0000
1000
0000
0010
0000
,
0110
0000
0000
0000
0100
0000
0000
0001
0020
0000
0001
0000
0100
0000
0000
0000
,
2030
0000
0000
0000
0000
0000
0000
0000
3002
0000
0000
0000
0000
0000
0000
0003
,
0010
0000
0000
0000
0110
0000
0000
0010
0001
0000
1000
0000
0010
0000
0000
0000
,
0110
0000
1000
0001
0000
0010
0100
1000
,
2000
0000
0000
0200
0000
0000
3000
1000
1000
0000
0300
0100
0100
0000
0000
0010
,
0010
0000
0000
0001
0001
0000
0000
1000
1000
0000
0000
0010
0010
0000
0000
0001
,
0001
0000
0000
0010
0010
0000
0000
1000
1000
0000
0000
0100
0100
0000
0000
0001
,
0001
0000
0000
0100
0100
0000
0000
1000
1000
0000
0000
0010
0010
0000
0000
0100
,
0100
0000
0000
0001
0001
0000
0000
0010
0010
0000
0000
0100
0100
0000
0000
1000
,
1000
0000
0000
0010
0010
1000
0001
0100
0100
0001
0010
0100
0100
0000
0000
0010
,
0010
0000
0000
0001
0001
0000
0000
1000
1000
0010
1000
0001
0001
0000
0000
1000
,
1000
0100
0000
0100
0001
0000
0000
0100
0100
0000
0000
0100
0100
0000
0000
0010
,
0011
0001
1000
0010
0100
0010
1000
0001
0001
0000
0000
1000
1000
0000
0000
1000
,
1000
0100
0010
0001
0001
0000
0000
0100
0100
0000
0000
1000
1000
0000
0000
0100
,
0100
0000
0000
0001
0001
0000
0000
0100
0100
0000
0000
1000
1000
0000
0000
0100
,
0100
0000
0000
0010
0010
0000
0000
1000
1000
0000
0000
0001
0001
0000
0000
0010
,
0010
0000
0000
0000
0100
0000
0000
0010
0200
0000
0010
0000
1000
0000
0000
0000
,
0301
0000
0000
0000
0010
0000
0001
0010
0001
0000
0100
0000
0010
0000
0000
0000
,
1000
0000
0000
0000
0010
0000
0000
0100
0010
0000
1000
0000
0010
0000
0000
0000
,
1000
0000
0001
0010
0000
0100
0010
0100
,
1001
0000
0000
0000
;

//---------------dance-single - ----------------
#NOTES:
     dance-single:
     :
     Medium:
     9:
     0.340052,0.467090,0.134738,0.014971,0.198364,318.000000,300.000000,18.000000,2.000000,0.000000,0.000000,0.340052,0.467090,0.134738,0.014971,0.198364,318.000000,300.000000,18.000000,2.000000,0.000000,0.000000:
0000
0000
0000
0000
,
0000
0000
0000
0000
,
0000
0000
0000
0000
,
0000
0000
0000
0000
,
1001
0000
0100
0000
0010
0010
0100
0000
,
1000
0000
0100
0000
0010
0010
0001
1000
,
1000
0000
0010
0000
1000
1000
0010
0000
,
0100
0000
0001
0000
0100
0100
0010
1000
,
0001
0000
0001
0000
0011
0010
0001
0000
,
1000
0000
0010
0010
0100
0100
0010
0000
,
1000
0000
0100
0000
0010
0010
0100
0000
,
1000
0000
0010
0010
0000
0100
0110
0000
,
1001
0000
0010
1000
0001
0000
0010
0000
,
0001
0000
0010
0001
0010
0000
0100
0000
,
0010
0100
0100
1000
0000
0010
1000
0010
,
0100
0010
0010
0100
0000
0001
1000
0100
,
0010
0100
0110
0001
,
1000
0000
0010
0100
0010
0000
1000
0010
,
1000
0000
0100
0000
1000
0001
0100
0000
,
0001
0000
0010
0100
0000
1000
1010
0000
,
0101
0000
0010
1000
0010
0000
0100
0000
,
0010
0000
0100
0001
0100
0000
0001
0000
,
1000
0100
0100
0100
0000
0010
0100
0010
,
0001
0001
1000
1000
0000
0010
1000
0010
,
0100
0000
0110
0000
0100
0001
1000
0000
,
0100
1100
1000
1010
,
1000
0000
0011
0000
0010
0100
0010
0000
,
0100
0000
1000
0010
0000
0010
1000
0001
,
1000
0000
0001
0000
0010
0001
0010
0000
,
0100
0000
0010
0100
1000
0000
0110
0000
,
1000
0010
0100
0001
0000
0100
0001
0100
,
0010
1000
0100
0010
0000
0001
0010
0100
,
1000
0000
1010
0000
1000
0001
0010
0000
,
0001
0011
1000
1010
,
0001
0101
1000
1100
,
1000
0000
0010
0100
0000
0001
0010
0100
,
0200
0000
0000
0020
0000
0330
0000
0001
0001
0000
0000
0010
0010
0000
0000
0100
,
0100
0000
0000
0010
0010
0000
0000
0001
0001
0000
0000
1000
1000
0000
0000
0010
,
0010
0000
0000
1000
1000
0000
0000
0100
0100
0000
0000
0010
0010
0000
0000
0001
,
0001
0000
0000
0100
0100
0000
0000
0010
0010
0000
0000
1000
1000
0000
0000
0010
,
0010
0000
0000
0100
0100
0000
0000
0001
0001
0000
0000
0010
0010
0000
0000
0100
,
0100
0000
0000
1000
1000
0000
0000
0001
0001
0000
0000
0100
0100
0000
0000
0010
,
0010
0000
0000
1000
1000
0000
0000
0001
0001
0010
0001
0010
0010
0000
0000
0010
,
0010
0100
0000
0100
1000
0000
0000
1000
1000
0000
0000
0010
0010
0000
0000
0100
,
0100
0001
0010
0100
0010
0001
1000
0001
0001
0000
0000
1000
1000
0000
0000
0010
,
1000
0100
1000
0100
0100
0000
0000
0010
0010
0000
0000
0001
0001
0000
0000
0010
,
0010
0000
0000
0100
0100
0000
0000
1000
1000
0000
0000
0010
0010
0000
0000
0100
,
0100
0000
0000
0001
0001
0000
0000
1000
1000
0000
0000
0100
0100
0000
0000
1000
,
1000
0000
0001
0000
0010
0100
0010
0000
,
0100
0000
1000
0010
0100
0000
0010
0000
,
0100
0000
0001
0000
0010
0100
0010
0000
,
0001
0000
1000
0010
0000
0100
0001
0010
,
1001
0000
0000
0000
;

//---------------dance-single - ----------------
#NOTES:
     dance-single:
     :
     Easy:
     5:
     0.223493,0.330856,0.097310,0.029942,0.000000,209.000000,196.000000,13.000000,4.000000,0.000000,0.000000,0.223493,0.330856,0.097310,0.029942,0.000000,209.000000,196.000000,13.000000,4.000000,0.000000,0.000000:
0000
0000
0000
0000
,
0000
0000
0000
0000
,
0000
0000
0000
0000
,
0000
0000
0000
0000
,
0110
0010
0001
1000
,
0010
1000
0001
0010
,
0001
0010
0100
0010
,
0001
1000
0010
0100
,
0010
1000
0001
0010
,
0100
0010
0001
0000
,
1000
0010
0100
0010
,
1000
0100
0010
0011
,
1100
1000
0010
0100
,
0001
0010
0100
0010
,
0001
0000
0000
1000
0000
0000
0010
0000
,
1000
0000
0000
0001
0000
0000
0010
0000
,
0100
0010
0110
1000
,
0010
1000
0010
0100
,
0001
1000
0100
1000
,
0001
0100
0001
0110
,
1001
1000
0010
0100
,
0010
1000
0001
0000
,
1000
0000
0000
0001
0000
0000
0010
0000
,
0100
0000
0000
0010
0000
0000
0001
0000
,
1000
1001
1000
0010
,
0200
0010
2300
0100
,
0001
3100
1000
0010
,
1000
0001
0010
0011
,
1100
1000
0010
0100
,
0010
1000
0001
0000
,
0001
0000
0000
1000
0000
0000
0010
0000
,
0010
0000
0000
0100
0000
0000
0001
0000
,
1000
0001
1001
1000
,
0020
0100
0032
1000
,
0100
1003
0010
0100
,
0010
0000
0000
0001
0000
0000
1000
0000
,
1001
0000
1000
0100
,
0010
0001
1000
0010
,
0001
0010
1000
0100
,
0010
0001
0010
1000
,
0010
0001
0100
0010
,
1000
0000
0100
0100
0010
0001
0001
0000
,
1000
0000
0010
0000
0100
0010
0100
0000
,
0001
1000
0100
0010
,
0011
0001
0010
0100
0010
0000
0100
0000
,
1000
0100
1000
0000
0010
0000
0100
0000
,
0001
1000
0100
1000
0001
0100
0001
0010
,
0001
1000
0010
1000
0001
0010
0001
1000
,
0001
1000
0010
0100
,
0010
1000
0100
0010
,
0001
0010
0100
1000
,
0010
0100
0001
0010
,
0110
0000
0000
0000
;

//---------------dance-single - ----------------
#NOTES:
     dance-single:
     :
     Beginner:
     3:
     0.115489,0.175159,0.059883,0.000000,0.000000,108.000000,100.000000,8.000000,0.000000,0.000000,0.000000,0.115489,0.175159,0.059883,0.000000,0.000000,108.000000,100.000000,8.000000,0.000000,0.000000,0.000000:
0000
0000
0000
0000
,
0000
0000
0000
0000
,
0000
0000
0000
0000
,
0000
0000
0000
0000
,
1001
0000
0001
0000
,
1000
0000
0010
0000
,
1000
0000
0001
0000
,
0010
0000
0001
0000
,
1000
0000
0010
0000
,
0100
0000
0010
0000
,
1000
0000
0100
0000
,
0010
0000
0001
0000
,
1001
0000
1000
0000
,
0010
0000
0100
0000
,
0010
0000
1000
0000
,
0100
0000
0010
0000
,
0001
0000
1001
0000
,
1000
0000
0100
0000
,
0010
0000
0100
0000
,
1000
0000
0010
0000
,
0110
0000
0100
0000
,
0010
0000
0010
0000
,
1000
0000
0001
0000
,
0010
0000
0100
0000
,
0010
0000
0001
0000
,
1000
0000
0010
0000
,
0000
0000
0010
0000
,
0100
0000
0010
0000
,
0100
0000
0001
0000
,
0010
0000
0100
0000
,
1000
0000
0100
0000
,
1000
0000
0001
0000
,
0010
0000
0001
0000
,
1001
0000
1000
0000
,
0010
0000
0100
0000
,
0010
0000
0000
0000
,
1001
0000
1000
0000
,
1000
0000
0001
0000
,
0001
0000
0010
0000
,
0010
0000
0100
0000
,
0100
0000
1000
0000
,
0001
0000
0100
0000
,
0001
0000
1000
0000
,
0010
0000
0100
0000
,
1001
0000
0100
0000
,
0001
0000
1000
0010
,
1000
0001
0010
0001
,
1000
0010
1000
0100
,
0010
0000
0100
0000
,
1000
0000
0001
0000
,
0100
0000
0010
0000
,
0100
0000
0001
0000
,
1001
0000
0000
0000
;

//---------------dance-single - ----------------
#NOTES:
     dance-single:
     :
     Challenge:
     13:
     0.494038,0.797946,0.254504,0.134738,0.523980,462.000000,428.000000,34.000000,18.000000,0.000000,0.000000,0.494038,0.797946,0.254504,0.134738,0.523980,462.000000,428.000000,34.000000,18.000000,0.000000,0.000000:
// measure 0
0000
0000
0000
0000
,  // measure 1
0000
0000
0000
0000
,  // measure 2
0000
0000
0000
0000
,  // measure 3
0000
0000
0000
0000
,  // measure 4
1001
0000
0000
0000
1000
0000
0000
0010
0200
0000
0010
0000
1000
0000
0300
0000
,  // measure 5
0110
0000
0000
0000
0010
0000
0001
0100
0001
0000
1000
0000
0010
0100
0010
0000
,  // measure 6
1000
0000
0000
0000
0110
0000
0000
1000
0010
0000
0100
0000
0010
0000
0000
0000
,  // measure 7
1000
0000
0000
0000
0100
0000
0010
0001
0010
0000
1000
0000
0010
0100
0010
0000
,  // measure 8
0001
0000
0000
0000
0011
0000
0000
0001
0200
0000
1000
0000
0010
0000
0300
0000
,  // measure 9
1000
0000
0000
0000
0001
0000
0010
0100
0010
0000
1000
0000
0010
0001
0010
0000
,  // measure 10
0100
0000
0000
0000
0001
0000
0000
0100
0010
0000
0010
0000
0001
0000
0000
0000
,  // measure 11
1010
0000
0000
0000
0100
0000
0000
0010
1000
0000
0010
0000
0001
1000
0000
0100
,  // measure 12
0001
0000
1000
0000
0100
0000
0000
0010
0200
0000
0010
0000
0001
0000
0300
0000
,  // measure 13
0001
0000
0000
0000
1000
0000
0010
0100
0001
0000
1000
0000
0010
0100
0000
0000
,  // measure 14
0100
0000
1000
0001
0010
0000
0010
0001
0100
0000
1000
0000
1000
0000
1000
0000
,  // measure 15
0100
0000
1000
0100
0001
0000
0100
0001
1000
0000
0100
0000
0010
0100
1000
0000
,  // measure 16
0010
0000
0000
0000
0110
0000
0000
0010
2000
0000
0100
0000
0010
0000
3000
0000
,  // measure 17
1000
0000
0000
0000
0001
0000
0100
0010
1000
0000
0010
0000
1000
0100
0010
0000
,  // measure 18
0001
0000
0000
0000
1001
0000
0000
0100
1000
0000
0010
0000
0100
0000
0000
0000
,  // measure 19
1000
0000
0000
0000
0100
0000
0010
1000
0010
0000
0001
0000
0010
1000
0000
0010
,  // measure 20
0100
0000
1000
0000
0100
0000
0000
0010
2000
0000
0100
0000
0001
0000
3000
0000
,  // measure 21
0001
0000
0000
0000
0010
0000
0100
0010
0001
0000
0010
0000
0001
1000
0000
0000
,  // measure 22
0010
0000
1000
0010
0100
0000
0010
0100
1000
0000
0100
0000
0010
0000
1000
0000
,  // measure 23
0100
0000
0010
0100
0001
0000
1000
0010
0001
0000
0100
0000
0010
1000
0001
0000
,  // measure 24
0100
0000
0000
0000
1010
0000
0000
0010
0200
0000
0010
0000
1000
0000
0300
0000
,  // measure 25
1100
0000
0000
0000
0010
0000
0100
1000
0010
0000
0100
0000
0010
1000
0010
0000
,  // measure 26
0100
0000
0000
0000
0101
0000
0000
0100
0001
0000
1000
0000
0100
0000
0000
0000
,  // measure 27
0110
0000
0000
0000
1000
0000
0001
0010
1000
0000
0010
0000
1000
0010
0000
0001
,  // measure 28
0100
0000
0010
0000
0110
0000
0000
0010
0002
0000
0010
0000
1000
0000
0003
0000
,  // measure 29
0110
0000
0000
0000
1000
0000
0010
1000
0100
0000
0010
0000
0001
0010
0000
0000
,  // measure 30
0001
0000
0010
1000
0010
0000
0001
0100
1000
0000
0100
0000
0001
0000
1000
0000
,  // measure 31
0100
0000
0010
0001
0100
0000
0010
1000
0100
0000
0010
0000
0100
1000
0001
0000
,  // measure 32
1000
0000
0000
0000
0011
0000
0000
0010
0200
0000
1000
0000
0010
0000
0300
0000
,  // measure 33
0110
0000
0000
0000
1000
0000
0001
1000
0100
0000
0010
0000
0100
0010
0001
0000
,  // measure 34
0100
0000
0000
0000
0101
0000
0000
1000
0010
0000
1000
0000
0110
0000
0000
0000
,  // measure 35
0101
0000
0000
0000
1000
0000
0010
0001
0010
0000
1000
0000
0100
0001
0100
0000
,  // measure 36
2100
0000
3000
0210
0010
0000
0320
0001
0001
0032
0000
1000
1003
0000
0000
0100
,  // measure 37
0100
0000
0000
0001
0021
0000
0000
1000
1000
0000
0000
0100
0130
0000
0000
1000
,  // measure 38
1000
0000
0000
0100
0210
0000
0000
0001
0001
0000
0000
1000
1000
0000
0000
0010
,  // measure 39
0310
0000
0000
0001
0001
0000
0000
0100
0120
0000
0000
0001
0001
0000
0000
1000
,  // measure 40
1030
0000
0000
0001
0001
0000
0000
1000
1000
0000
0000
0100
0210
0000
0000
0010
,  // measure 41
0010
0000
0000
0010
0010
0001
0010
1000
0010
0001
0010
0001
0301
0000
0000
1000
,  // measure 42
1000
0000
0000
0000
0000
0000
0010
0000
0010
0000
0000
0000
0000
0000
0100
0000
0100
0000
0001
0010
0100
0000
1000
0000
1000
0000
0000
0000
0000
0000
0010
0000
,  // measure 43
0010
0000
0100
0000
0000
0000
0100
0000
0001
0000
0000
0000
0000
0000
0001
0000
0001
0000
0000
0000
0000
0000
0100
0000
0200
0000
0000
0000
0000
0000
0010
0300
,  // measure 44
1010
1000
0010
1000
0100
0001
0100
1000
0001
0000
0000
0001
0001
0000
0000
1000
,  // measure 45
0100
0000
0010
0100
1000
0000
0010
0000
0100
0000
1010
0000
0000
0110
0000
0000
0101
0000
0000
0000
0000
0000
0001
0000
0001
0000
0000
0000
1000
0010
0100
0010
,  // measure 46
1000
0000
0000
0000
0100
0010
0001
0010
0100
0000
0000
0000
1000
0010
0100
0001
0010
0000
0000
0000
0100
0010
0001
0100
0010
0000
0000
0000
1000
0010
0100
0001
,  // measure 47
0010
0000
0000
0000
0100
1000
0100
0001
0100
0000
0000
0000
1000
0010
0001
0010
1000
0000
0000
0000
0010
1000
0100
0010
0001
0000
0000
0000
0010
0001
1000
0010
,  // measure 48
0001
0000
0000
0000
1010
0000
0000
1000
0020
0000
0100
0000
0001
0000
0030
0000
,  // measure 49
0100
0000
0000
0000
0001
0000
0010
0100
1000
0000
0010
0000
0100
1000
0000
0000
,  // measure 50
1010
0000
0000
0000
1100
0000
0000
1000
0001
0000
0010
0000
0011
0000
0000
0000
,  // measure 51
1010
0000
0000
0000
1000
0000
0010
0001
0100
0000
1000
0000
0100
0010
1000
0000
,  // measure 52
1001
0000
0000
0000
;
