#TITLE:Evans;
#SUBTITLE:;
#ARTIST:DJ YOSHITAKA;
#TITLETRANSLIT:;
#SUBTITLETRANSLIT:;
#ARTISTTRANSLIT:;
#GENRE:;
#CREDIT:;
#BANNER:bn.png;
#BACKGROUND:bg.png;
#LYRICSPATH:;
#CDTITLE:;
#MUSIC:Evans.ogg;
#OFFSET:-0.065000;
#SAMPLESTART:61.009998;
#SAMPLELENGTH:10.378000;
#SELECTABLE:YES;
#BPMS:0.000000=185.000000
,249.000000=92.500000
,264.750000=185.000000
;
#STOPS:180.000000=0.973000,
264.750000=0.243000
;
#BGCHANGES:;
#KEYSOUNDS:;
#ATTACKS:;

//---------------dance-single - ----------------
#NOTES:
     dance-single:
     :
     Hard:
     14:
     0.739992,1.170205,0.903696,0.074532,0.456506,556.000000,459.000000,97.000000,8.000000,0.000000,0.000000,0.739992,1.170205,0.903696,0.074532,0.456506,556.000000,459.000000,97.000000,8.000000,0.000000,0.000000:
0000
0000
0000
0000
,
1001
1000
0100
0010
0000
0000
0000
0000
,
0000
0011
0000
0000
1100
0000
1010
0000
,
0101
1000
0001
0010
0000
0000
0000
0000
,
0000
0000
0000
0000
,
0110
0000
0011
1000
0001
0000
0000
0000
,
0000
0110
0000
0000
1010
0000
1100
0000
,
0011
0010
0100
1000
0110
0000
0000
0000
,
0110
0000
0101
0000
0000
0000
0000
0000
1001
0000
0000
1100
0000
0000
0110
0000
,
0000
0000
0011
0000
0010
0100
1000
0010
,
0100
0000
0001
0000
0010
0000
0100
0000
1000
0001
1000
0000
0001
0000
0100
0000
,
0010
1000
0100
1000
0001
0010
0100
0010
,
0011
0110
0000
0000
1001
0000
0110
0000
,
0101
0000
1001
1000
0001
0000
0100
0000
,
0110
0000
0000
0000
0001
0000
1000
0000
0100
0010
0100
0000
0010
0000
0001
0000
,
1010
0000
0100
0010
1010
0000
1000
0010
,
1010
0110
0000
0000
0100
0000
0101
0000
,
2002
0000
0000
0000
,
0000
0000
0000
3003
,
1000
0000
0000
0100
0000
0000
0010
0000
0000
0001
0000
0000
0010
0000
0100
0000
,
1000
0000
0000
0010
0000
0000
0100
0000
0000
0010
0000
0000
1000
0000
0100
0000
,
0010
0000
0000
0001
0000
0000
0100
0000
0000
0001
0000
0000
0010
0000
0100
0000
,
1000
0000
0000
0010
0000
0000
0100
0000
0000
0010
0000
0000
1000
0000
0001
0000
,
0100
0000
0000
0001
0000
0000
0010
0000
0000
0100
0000
0000
1000
0000
0100
0000
,
1000
0000
0000
0010
0000
0000
0100
0000
0000
0001
0000
0000
1000
0000
0100
0000
,
1000
0000
0000
0001
0000
0000
0010
0000
0000
0100
0000
0000
1000
0000
0001
0000
,
0100
0000
0000
0010
0000
0000
1000
0000
0000
0010
0000
0000
0100
0000
0010
0000
,
1010
0000
0000
1000
0000
0000
0001
0000
0000
0010
0000
0000
0100
0000
0010
0000
,
0001
0000
0000
0100
0000
0000
0001
0000
0000
1000
0000
0000
0010
0000
0100
0000
,
0010
0000
0000
1000
0000
0000
0100
0000
0000
0010
0000
0000
0001
0000
1000
0000
,
0100
0000
0000
0001
0000
0000
0100
0000
0000
1000
0000
0000
0010
0000
0100
0000
,
0010
0000
0000
0001
0000
0000
0010
0000
0000
1000
0000
0000
0010
0000
1000
0000
,
0100
0000
0000
0010
0000
0000
0001
0000
0000
0100
0000
0000
0001
0000
0100
0000
,
1000
0000
0000
0100
0000
0000
0001
0000
0000
0010
0000
0000
0100
0000
1000
0000
,
0010
0000
0000
0100
0000
0000
0010
0000
0000
1000
0000
0000
0100
0000
0010
0000
,
0011
0000
1000
0000
0010
0000
1000
0010
,
0000
0000
0100
0000
0010
0000
0100
0010
,
0101
0000
1100
0000
0001
0000
1000
0100
,
0000
0000
1000
0000
0010
0000
0100
0010
,
0011
0000
0100
0001
0000
0000
1000
0001
,
1100
0000
1000
0010
0000
0000
1000
0010
,
0110
0100
0101
0001
,
0011
0010
0110
0100
,
1100
1000
0010
0100
0101
0001
0010
0100
,
0010
0100
0010
0000
0100
1000
0100
0000
0010
0001
0010
0000
0001
1000
0001
0000
,
2200
0000
3300
0000
1000
0000
0001
0000
0010
0000
0000
0100
0000
0000
1000
0000
,
0010
0000
0100
0000
0110
0000
1000
0100
0000
0000
1000
0000
0100
0010
0000
0000
,
0001
0000
0010
0000
0001
0000
0100
0001
0000
0000
1000
0000
0010
1000
0000
0000
,
0010
0000
0100
0000
0010
0000
1000
0100
0000
0000
1000
0000
0001
0010
0000
0000
,
0100
0000
0010
0000
0011
0000
0000
0000
0100
0000
0000
0000
0101
0000
0000
1001
,
0000
0000
1010
0000
1000
0000
0000
0000
1001
0000
1000
0000
0010
0100
0000
0000
,
0001
0000
0011
0000
0110
0000
0010
0001
0000
0000
1000
0000
0001
0010
0000
0000
,
0010
0000
0100
0000
0110
0000
1000
0100
0000
0000
0001
0000
0100
1000
0000
0000
,
1000
0000
0001
0000
0101
0000
1000
0001
0000
0000
1010
0000
0010
0100
0000
0000
,
0110
0000
1010
0000
0001
0000
0100
0001
0000
0000
0010
0000
0001
1000
0000
0000
,
0001
0000
0100
0000
0010
0000
1000
0010
0000
0000
0100
0000
0010
1000
0000
0000
,
0100
0000
0010
0000
0001
0000
1000
0001
0000
0000
0100
0000
0001
1000
0000
0000
,
0010
0000
1000
0000
0110
0000
0000
0100
0010
0000
0000
0000
1001
0000
0000
1100
,
0000
0000
1001
0000
0011
0000
1000
0001
0000
0000
0010
0000
0001
1000
0000
0000
,
0010
0000
0100
0000
0101
0000
0001
1000
0000
0000
0010
0000
1000
0001
0000
0000
,
0010
0000
0100
0000
0011
0000
1000
0001
0000
0000
0100
0000
1001
0000
0000
0000
,
0100
0000
0100
0000
1100
0000
0000
1010
0000
0000
0011
0000
0000
0101
0000
0000
,
1010
0000
1000
0000
1100
0000
2000
0020
0000
0000
0000
0000
3030
0000
0110
0000
,
0101
0000
1001
0000
1100
0000
1000
0000
0110
0000
1000
0010
1010
0000
0101
0000
,
1001
0000
0000
1010
0000
0000
0110
0000
0101
0000
0000
0000
1000
0000
0100
0000
1000
0000
0000
0000
1100
0000
0000
0000
0110
0000
0000
0000
0010
0000
0001
0000
,
0100
0000
0000
0000
0101
0000
0000
0000
1001
0000
0000
0000
0000
0000
0000
0000
1010
0000
0000
0000
0000
0000
0000
0000
0100
0010
0000
0000
1000
0000
0000
0010
,
0000
1000
0100
0020
0030
0000
0001
0000
0010
0000
0001
0010
0000
0000
0100
0000
,
1000
0000
0010
0000
0100
0010
0000
0000
1000
0000
0100
0010
0000
0000
0001
0000
,
1000
0000
0010
0000
0100
0001
0000
0000
1000
0000
0100
1000
0000
0000
0001
0000
,
0100
0000
1001
0000
1000
0010
0000
0000
0100
0000
0010
1000
0000
0000
1010
0000
,
1000
0000
1001
0000
0010
0001
0000
0000
0001
0000
1000
0001
0000
0000
1001
0000
,
1000
0000
0101
0000
0001
1000
0000
0000
0110
0000
1000
0010
0000
0000
0100
0000
,
0010
0000
1001
0000
0001
0100
0000
0000
0110
0000
0001
0010
0000
0000
0110
0000
,
0100
0000
1100
0000
0010
0100
0000
0100
0010
0000
0010
1000
0000
1000
0100
0010
,
0100
0010
0002
0000
0000
0000
0000
0000
0000
0000
0000
0000
0000
0000
0000
0000
,
0000
0000
0000
0000
,
0000
0003
0000
0000
0000
0000
0000
0000
;

//---------------dance-single - ----------------
#NOTES:
     dance-single:
     :
     Challenge:
     17:
     0.946285,1.207645,0.782582,0.037266,0.894379,711.000000,627.000000,84.000000,4.000000,0.000000,0.000000,0.946285,1.207645,0.782582,0.037266,0.894379,711.000000,627.000000,84.000000,4.000000,0.000000,0.000000:
0000
0000
0000
0000
,
1001
0001
0010
0100
0000
1000
0010
0000
,
1000
1010
0000
0001
1001
0000
0011
0000
,
0110
1000
0010
0100
0010
0000
1000
0000
,
0100
0000
0000
0000
0000
0000
0001
0000
0000
0100
0000
0000
0000
0000
0000
1000
0100
1000
0100
0000
0000
0010
0100
0010
,
0100
1000
1010
1000
0010
0000
1000
0001
,
0010
0110
0000
0010
0101
0000
1001
0000
,
1010
1000
0100
0000
0011
0010
0001
0000
,
0101
0000
1001
0000
0000
0000
0000
0000
1010
0000
0000
0101
0000
0000
0110
0000
,
0000
0000
1001
0000
1000
0100
0010
0001
,
0100
0000
0010
0000
1000
0000
0100
0000
0001
0100
1000
0000
0010
0000
0100
0000
,
0010
1000
0100
0010
0001
1000
0010
1000
,
1010
0110
0100
0001
0011
0000
0110
0000
,
1100
0000
1010
1000
0010
0000
0100
0001
,
0011
0000
0010
0000
0001
0000
0100
0000
1000
0100
0001
0000
0010
0000
1000
0000
,
0110
0100
0010
0001
1001
1000
0100
1000
,
0110
0000
0000
0110
0000
0000
0001
0000
0000
0010
0000
0000
1000
0000
0000
0010
0001
0010
0001
0000
0000
1000
0010
1000
,
0020
0000
0000
0000
,
0000
0000
0000
0030
,
1000
0000
0010
0100
0000
0000
0010
0000
1000
0010
0000
0000
0100
0000
0010
0000
,
1000
0000
0100
0010
0000
0000
0100
0000
0010
0001
0000
0000
0010
0000
0100
0000
,
1000
0000
0001
0100
0000
0000
0001
0000
1000
0100
0000
0000
1000
0000
0010
0000
,
0100
0000
0010
1000
0000
0000
0001
0000
0010
0001
0000
0000
1000
0000
0010
0000
,
0100
0000
0001
1000
0000
0000
0100
0000
1000
0001
0000
0000
0100
0000
0001
0000
,
0010
0000
0100
0010
0000
0000
0001
0000
1000
0010
0000
0000
0100
0000
0010
0000
,
1000
0000
0010
0100
0000
0000
0001
0000
1000
0100
0000
0000
1000
0000
0001
0000
,
0100
0000
0001
0010
0000
0000
0001
0000
0010
0100
0000
0000
1000
0000
0010
0000
,
1010
0000
1000
0010
0000
0000
0100
0000
0010
0100
0000
0000
0001
0000
0010
0000
,
0001
0000
0010
1000
0000
0000
0010
0000
0001
1000
0000
0000
0010
0000
0100
0000
,
0001
0000
1000
0001
0000
0000
1000
0000
0100
0010
0000
0000
0100
0000
0010
0000
,
0001
0000
0100
0001
0000
0000
1000
0000
0001
1000
0000
0000
0100
0000
1000
0000
,
0010
0000
0001
0010
0000
0000
1000
0000
0010
1000
0000
0000
0100
0000
0010
0000
,
0001
0000
0100
0001
0000
0000
0010
0000
0001
1000
0000
0000
0010
0000
1000
0000
,
0010
0000
0100
0001
0000
0000
1000
0000
0100
1000
0000
0000
0001
0000
0010
0000
,
0100
0010
0100
0010
0100
0010
0100
0010
0001
1000
0001
1000
0001
1000
0001
1000
,
1001
0000
1010
0000
1000
0000
0010
0100
,
0010
0000
0101
0000
1001
0000
1000
0100
,
0110
0000
0000
0000
0011
0000
0000
0000
1000
0000
0000
0000
0001
0000
0100
0001
,
0100
0000
0010
0000
1000
0000
0010
0100
,
0110
0000
1000
0010
0000
0000
1000
0100
,
0110
0000
0010
0001
0000
0000
0100
0001
,
1001
1000
1100
0100
,
0110
0010
0011
0001
,
0101
0100
0110
0010
1010
1000
1100
1000
,
0100
0010
0001
0100
0010
1000
0100
0010
0001
0100
0010
1000
0100
0010
0001
0100
,
0020
0030
0000
0000
1000
0001
1000
0001
0100
0000
0010
1000
0000
1000
0001
0100
,
0001
0000
1000
0000
1001
0000
0010
0001
0000
0100
0001
0000
1000
0001
0000
0100
,
0010
0100
0001
0000
1000
0000
0100
0010
0000
0010
0100
0000
0100
1000
0000
0001
,
0010
0100
1000
0000
0100
0000
1000
0001
0000
0100
0001
0000
0001
1000
0000
0010
,
1000
0100
0010
0001
1000
0000
1000
0100
0000
0010
0100
0000
0011
0000
0000
1100
,
0000
0000
0011
0000
0001
0000
1000
0010
0000
0010
1000
0000
0100
0010
0000
0010
,
0001
1000
0010
0000
0110
0000
0100
0001
0000
1000
0010
0000
0100
0010
0000
0100
,
0001
1000
0010
0000
1100
0000
1000
0010
0000
0100
0010
0000
0100
0001
0000
0001
,
0010
0000
0100
0000
0110
0000
1000
0010
0000
1000
0010
0000
0000
1000
0100
0000
,
0110
0000
0010
0000
0011
0000
0001
0100
0000
0010
1000
0000
0010
1000
0000
0001
,
0100
0010
1000
0100
0010
0000
0100
1000
0000
0001
0010
0000
0100
0010
0000
0001
,
0100
0010
1000
0000
0010
0000
1000
0010
0000
1000
0001
0000
0100
0010
0000
1000
,
0100
0010
0100
0000
1001
0000
0001
0000
0101
0000
0000
0000
1010
0000
0000
0110
,
0000
0000
0101
0000
1100
0000
0010
0001
0000
0100
0001
0000
1000
0010
0000
0010
,
0100
0001
0010
0000
1001
0000
1000
0001
0000
0001
0100
0000
0010
0100
0000
0001
,
0100
0001
0010
0000
1001
0000
1000
0001
0000
0001
1000
0000
1100
0000
0010
0001
,
0000
0001
0010
0000
1010
0000
1000
0010
0000
1000
0100
0000
0010
0100
0000
0000
,
0011
0000
0101
0000
1001
0000
1000
0100
0000
0000
0000
0000
1000
0000
1010
0000
,
0110
0000
0011
0000
1100
0000
1000
0000
1001
0000
1000
0100
0110
0000
1010
0001
,
0101
0000
0000
1001
0000
0000
1010
0000
0110
0000
0000
0000
1000
0000
0010
0000
1000
0000
0000
0000
0110
0000
0000
0000
1001
0000
0000
0000
1000
0000
0100
0000
,
0010
0000
0000
0000
0110
0000
0000
0000
0011
0000
0000
0000
0100
0000
0000
0000
1001
0000
0000
0000
1000
0000
0000
0000
0010
0001
0010
0001
0100
0000
0010
0100
,
0000
1000
0100
0000
0010
0000
1000
0000
0000
0000
0000
0000
1000
0000
0000
0000
0100
0000
0000
0000
0010
0000
0001
0000
0000
0000
0010
0000
0001
0000
0100
0000
,
0010
1000
0100
0000
0001
0100
0000
1000
0100
0000
1000
0010
0000
0100
1000
0100
,
0001
0000
0010
0000
0100
1000
0000
1000
0001
0000
0100
0001
0000
0100
1000
0100
,
0001
0100
0010
0000
0010
1000
0000
1000
0001
0000
0100
0010
0000
1000
0010
0001
,
0010
0100
0001
0000
0010
0100
0000
0001
0100
0000
0100
1000
0000
1000
0001
1000
,
0100
0000
0010
0000
0100
1000
0000
0010
0100
0000
0010
0001
0000
0010
1000
0100
,
0010
0000
0001
0000
0100
0001
0000
1000
0010
0000
0100
0001
0000
0001
0010
1000
,
0010
0000
0001
0010
0100
1000
0001
0010
0100
1000
0001
0100
0010
1000
0100
1000
,
0001
0100
0202
0000
0000
0000
0000
0000
0000
0000
0000
0000
0000
0000
0000
0000
,
0000
0000
0000
0000
,
0000
0303
0000
0000
;

//---------------dance-single - ----------------
#NOTES:
     dance-single:
     :
     Medium:
     10:
     0.521721,0.815597,0.642835,0.037266,0.265519,392.000000,323.000000,69.000000,4.000000,0.000000,0.000000,0.521721,0.815597,0.642835,0.037266,0.265519,392.000000,323.000000,69.000000,4.000000,0.000000,0.000000:
// measure 0
0000
0000
0000
0000
,  // measure 1
1000
0100
0010
0001
0000
0000
0000
0000
,  // measure 2
0000
1001
0000
0000
1010
0000
0110
0000
,  // measure 3
0001
0010
0100
1000
0000
0000
0000
0000
,  // measure 4
0000
0000
0000
0000
,  // measure 5
1001
0110
0000
0000
,  // measure 6
0000
1100
0000
0000
0110
0000
0011
0000
,  // measure 7
1001
0000
1010
0000
,  // measure 8
0110
0000
0110
0000
0000
0000
0000
0000
0100
0000
0000
0001
0000
0000
1000
0000
,  // measure 9
0000
0011
0010
0100
,  // measure 10
1000
0000
0010
0000
1000
0001
0010
0000
,  // measure 11
0100
1000
0010
0100
,  // measure 12
0101
0101
0000
0000
1100
0000
1010
0000
,  // measure 13
0110
0101
0010
0001
,  // measure 14
0011
0000
0010
0000
0100
1000
0001
0000
,  // measure 15
1010
0000
0110
0000
,  // measure 16
0101
0101
0000
0000
0000
0000
0011
0000
,  // measure 17
0220
0000
0000
0000
,  // measure 18
0000
0000
0000
0330
,  // measure 19
1000
0000
0000
0100
0000
0000
0010
0000
0000
0001
0000
0000
0000
0000
0000
0000
,  // measure 20
1000
0000
0000
0010
0000
0000
0100
0000
0000
0001
0000
0000
0000
0000
0000
0000
,  // measure 21
0010
0000
0000
0001
0000
0000
0010
0000
0000
0100
0000
0000
0000
0000
0000
0000
,  // measure 22
0010
0000
0000
0100
0000
0000
1000
0000
0000
0010
0000
0000
0000
0000
0000
0000
,  // measure 23
0100
0000
0000
0010
0000
0000
0100
0000
0000
0001
0000
0000
0000
0000
0000
0000
,  // measure 24
1000
0000
0000
0001
0000
0000
1000
0000
0000
0100
0000
0000
0000
0000
0000
0000
,  // measure 25
1000
0000
0000
0010
0000
0000
0100
0000
0000
0010
0000
0000
0000
0000
0000
0000
,  // measure 26
0100
0000
0000
0010
0000
0000
1000
0000
0000
0100
0000
0000
0000
0000
0000
0000
,  // measure 27
1000
0100
0001
0100
,  // measure 28
1000
0010
0100
0001
,  // measure 29
0010
1000
0010
0001
,  // measure 30
0100
0010
1000
0100
,  // measure 31
0010
0001
0010
1000
,  // measure 32
0010
0100
1000
0010
,  // measure 33
0100
0001
0100
0001
,  // measure 34
0010
0001
0010
0000
0100
1000
0100
0000
,  // measure 35
1100
0000
1000
0000
0100
0000
1000
0100
,  // measure 36
0000
0000
0010
0000
0100
0000
0010
0100
,  // measure 37
0000
0000
0010
0000
0001
0000
0010
0001
,  // measure 38
0000
0000
1000
0000
0001
0000
1000
0001
,  // measure 39
0000
0000
1000
0010
0000
0000
0010
0100
,  // measure 40
0000
0000
0100
0001
0000
0000
0001
1000
,  // measure 41
0001
0001
0010
0010
,  // measure 42
0100
0100
1000
1000
,  // measure 43
0100
1000
0100
0000
0010
0100
0010
0000
,  // measure 44
0001
0010
0001
0010
0100
1000
0100
1000
,  // measure 45
1010
0000
0000
0000
,  // measure 46
0000
0000
0000
0000
1000
0000
0000
0100
0000
0000
0010
0000
0000
0001
0000
0000
,  // measure 47
0100
0000
0001
0000
1000
0000
0000
0010
0000
0000
1000
0000
0000
0100
0000
0000
,  // measure 48
1000
0000
0001
0000
0100
0000
0000
0001
0000
0000
0010
0000
0000
0100
0000
0000
,  // measure 49
1000
0000
0001
0000
1001
0000
0000
0000
0000
0000
0000
0000
1010
0000
0000
1010
,  // measure 50
0000
0000
0110
0000
0000
0000
0000
0000
0101
0000
0100
0000
0000
0001
0000
0000
,  // measure 51
0010
0000
0100
0000
0110
0000
0000
1000
0000
0000
0100
0000
0000
1000
0000
0000
,  // measure 52
0010
0000
1000
0000
1010
0000
0000
1000
0000
0000
0010
0000
0000
0100
0000
0000
,  // measure 53
0001
0000
0100
0000
0001
0000
0000
0010
0000
0000
0001
0000
0000
0010
0000
0000
,  // measure 54
0100
0000
1000
0000
1010
0000
0000
1000
0000
0000
0010
0000
0000
0100
0000
0000
,  // measure 55
0001
0000
1000
0000
0100
0000
0000
0010
0000
0000
0100
0000
0000
1000
0000
0000
,  // measure 56
0010
0000
0100
0000
0001
0000
0000
1000
0000
0000
0100
0000
0000
1000
0000
0000
,  // measure 57
0001
0000
1000
0000
0011
0000
0000
0000
0011
0000
0000
0000
0110
0000
0000
1100
,  // measure 58
0000
0000
1010
0000
0110
0000
0000
1000
0000
0000
0001
0000
0000
0100
0000
0000
,  // measure 59
0010
0000
1000
0000
1010
0000
0000
1000
0000
0000
0010
0000
0000
1000
0000
0000
,  // measure 60
0100
0010
0110
0000
0000
0000
0011
0000
,  // measure 61
0000
0000
0000
0000
0011
0000
0000
0110
0000
0000
1100
0000
0000
0000
0000
0000
,  // measure 62
1010
0000
0000
0000
0110
0000
1000
0001
0000
0000
0000
0000
1000
0000
1100
0000
,  // measure 63
0110
0011
1001
0000
1010
0000
0110
0101
,  // measure 64
1001
0000
1001
0000
0000
1100
0110
0000
,  // measure 65
0000
0011
0110
0000
1001
0000
1001
0000
,  // measure 66
0000
0000
0000
0000
0000
0000
1000
0000
0100
0000
0000
0010
0000
0000
0010
0000
,  // measure 67
0100
0000
0010
0000
0000
0001
0000
0000
0010
0000
0000
0100
0000
0000
1000
0000
,  // measure 68
0010
0000
0100
0000
0000
0010
0000
0000
1000
0000
0000
0100
0000
0000
1000
0000
,  // measure 69
0001
0000
0101
0000
0000
1000
0000
0000
0001
0000
0000
1000
0000
0000
1000
0000
,  // measure 70
0100
0000
0110
0000
0000
0010
0000
0000
0100
0000
0000
0010
0000
0000
0001
0000
,  // measure 71
0010
0000
0011
0000
0000
1000
0000
0000
0010
0000
0000
0100
0000
0000
0010
0000
,  // measure 72
0001
0000
0010
0000
0000
1000
0000
0000
0100
0000
0000
0010
0000
0000
0001
0000
,  // measure 73
1000
0100
0010
0001
0010
1000
0010
0001
,  // measure 74
1000
2002
0000
0000
0000
0000
0000
0000
,  // measure 75
0000
0000
0000
0000
,  // measure 76
0000
3003
0000
0000
0000
0000
0000
0000
;

//---------------dance-single - ----------------
#NOTES:
     dance-single:
     :
     Easy:
     6:
     0.342047,0.460990,0.409924,0.037266,0.000000,257.000000,213.000000,44.000000,4.000000,0.000000,0.000000,0.342047,0.460990,0.409924,0.037266,0.000000,257.000000,213.000000,44.000000,4.000000,0.000000,0.000000:
0000
0000
0000
0000
,
1001
0000
0000
0000
,
0000
1100
0000
0000
0110
0000
0011
0000
,
1001
0000
0000
0000
,
0000
0000
0000
0000
,
0110
0110
0000
0000
,
0000
1010
0000
0000
1001
0000
0101
0000
,
1001
0000
1010
0000
,
1001
0000
0000
0000
0110
0000
0000
0011
,
0000
1001
1000
0010
,
0100
0010
1000
0100
,
0010
0001
0010
1000
,
0010
0001
1000
0010
,
0100
0110
0000
0000
,
1001
1000
0100
0010
,
0011
0000
0011
0000
,
1001
0000
0000
1010
,
2002
0000
0000
0000
,
0000
0000
0000
3003
,
1000
0000
0000
0001
0000
0000
0000
0000
,
0010
0000
0000
0100
0000
0000
0000
0000
,
0010
0000
0000
0001
0000
0000
0000
0000
,
1000
0000
0000
0010
0000
0000
0000
0000
,
0100
0000
0000
0010
0000
0000
0000
0000
,
0100
0000
0000
0001
0000
0000
0000
0000
,
1000
0000
0000
0100
0000
0000
0000
0000
,
0001
0000
0000
0100
0000
0000
0000
0000
,
1000
0010
0100
0001
,
0100
0010
1000
0100
,
0010
0001
0010
0100
,
1000
0001
0100
0001
,
0010
0100
0010
0001
,
1000
0010
0100
0010
,
1000
0100
0010
0001
,
0010
0100
1000
0001
,
1001
1000
0001
1000
,
0000
0100
0010
0100
,
1001
1001
0010
0001
,
0000
1000
0010
1000
,
1010
0010
0100
0010
,
1001
0001
1000
0010
,
0101
0000
0101
0000
,
0110
0000
0110
0000
,
1000
1000
0100
0100
,
0010
0010
0001
0001
,
1001
0000
0000
0000
,
0000
0000
1000
0000
0000
0010
0000
0000
,
0100
0000
0001
0000
0000
0010
0000
0000
,
0100
0000
1000
0000
0000
0001
0000
0000
,
0100
0000
0010
0000
0000
1000
0000
0000
,
0010
0000
1000
0000
0000
0001
0000
0000
,
0010
0000
0011
0000
0000
0100
0000
0000
,
0100
0000
0010
0000
0000
0001
0000
0000
,
1000
0000
1000
0000
0000
0010
0000
0000
,
0110
0000
0100
0000
0000
0010
0000
0000
,
1000
0000
0100
0000
0000
0010
0000
0000
,
0001
0000
1000
0000
0000
0001
0000
0000
,
0100
0101
1000
0010
,
0010
0000
1000
0000
0000
0100
0000
0000
,
0010
0000
0001
0000
0000
0010
0000
0000
,
0100
0000
1000
0000
0000
0010
0000
0000
,
0100
0000
0010
0000
0000
1000
0000
0000
,
0100
0000
0010
0000
0000
0000
0000
1000
,
0010
1000
0010
0000
1000
0000
0100
0100
,
0010
0000
0001
0000
0000
1000
1001
0000
,
0000
0010
1010
0000
0101
0000
1000
0000
,
0001
0000
0000
0000
0000
0000
0000
0001
,
0000
1000
0000
0000
0100
0000
0000
0010
,
0000
0001
0000
0000
1000
0000
0000
0010
,
0000
0100
0000
0000
0010
0000
0000
1000
,
0000
0011
0000
0000
0010
0000
0000
0100
,
0000
1010
0000
0000
1000
0000
0000
0001
,
0000
1010
0000
0000
0010
0000
0000
0100
,
0000
0110
0000
0000
1000
0000
0000
0010
,
0000
2002
0000
0000
0000
0000
0000
0000
,
0000
0000
0000
0000
,
0000
3003
0000
0000
0000
0000
0000
0000
;

//---------------dance-single - ----------------
#NOTES:
     dance-single:
     :
     Beginner:
     3:
     0.186329,0.354607,0.260861,0.037266,0.000000,140.000000,112.000000,28.000000,4.000000,0.000000,0.000000,0.186329,0.354607,0.260861,0.037266,0.000000,140.000000,112.000000,28.000000,4.000000,0.000000,0.000000:
0000
0000
0000
0000
,
1001
0000
0000
0000
,
0000
0000
0000
0000
,
0110
0000
0000
0000
,
0000
0000
0000
0000
,
1001
1001
0000
0000
,
0000
0000
0000
0000
,
0110
0000
0000
0000
,
1001
0000
0000
0000
,
0000
1001
0000
0000
,
0100
0000
0010
0000
,
0001
0000
1000
0000
,
0001
0000
1000
0000
,
0001
0000
1000
0000
,
0010
0000
0100
0000
,
0010
0000
1000
0000
,
0100
0000
0010
0000
,
2002
0000
0000
0000
,
0000
0000
0000
3003
,
1000
0000
0000
0000
,
0100
0000
0000
0000
,
0010
0000
0000
0000
,
0001
0000
0000
0000
,
1000
0000
0000
0000
,
0010
0000
0000
0000
,
0100
0000
0000
0000
,
0001
0000
0000
0000
,
1001
0000
0000
0000
,
1000
0000
0000
0000
,
0010
0000
0000
0000
,
0100
0000
0000
0000
,
0001
0000
0000
0000
,
0010
0000
0000
0000
,
0100
0000
0000
0000
,
1000
0000
0000
0000
,
1001
0000
0000
0000
,
0000
0000
0000
0000
,
0110
0110
0000
0000
,
0000
0000
0000
0000
,
1001
0000
0000
0000
,
0110
0000
0000
0000
,
1001
0000
1001
0000
,
0110
0000
0110
0000
,
1001
0000
1001
0000
,
0110
0000
0110
0000
,
1001
0000
0000
0000
,
0000
1000
0000
0100
,
0000
0010
0000
0001
,
0000
0010
0000
0100
,
0000
1000
0000
0001
,
0000
0100
0000
0010
,
0000
1000
0000
0010
,
0000
1000
0000
0100
,
0000
0010
0000
0001
,
0000
1000
0000
0010
,
0000
0100
0000
0010
,
0000
1000
0000
0100
,
0000
0010
0000
0001
,
0000
1001
0000
0001
,
0000
1000
0000
0010
,
0000
1000
0000
0010
,
0000
0100
0000
0010
,
0000
0110
0000
0010
,
0100
0001
1000
0100
,
0010
1001
0000
0110
,
0000
0001
1000
0100
,
0010
0000
0000
0000
,
0000
0001
0000
0000
0000
0010
0000
0000
,
0000
0100
0000
0000
0000
1000
0000
0000
,
0000
0010
0000
0000
0000
0100
0000
0000
,
0000
0001
0000
0000
0000
1000
0000
0000
,
0000
0100
0000
0000
0000
0010
0000
0000
,
0000
0001
0000
0000
0000
0100
0000
0000
,
0000
0010
0000
0000
0000
0100
0000
0000
,
0000
2002
0000
0000
0000
0000
0000
0000
,
0000
0000
0000
0000
,
0000
3003
0000
0000
0000
0000
0000
0000
;
