#TITLE:Disco Train;
#SUBTITLE:Donkey Kong Country 2;
#ARTIST:David Wise;
#TITLETRANSLIT:;
#SUBTITLETRANSLIT:;
#ARTISTTRANSLIT:;
#GENRE:;
#CREDIT:;
#BANNER:bn.png;
#BACKGROUND:bg.png;
#LYRICSPATH:;
#CDTITLE:;
#MUSIC:Disco_Train.ogg;
#OFFSET:-0.048000;
#SAMPLESTART:28.052999;
#SAMPLELENGTH:30.000000;
#SELECTABLE:YES;
#BPMS:0.000000=137.119995
;
#STOPS:
;
#BGCHANGES:;
#KEYSOUNDS:;
#ATTACKS:;

//---------------dance-single - ----------------
#NOTES:
     dance-single:
     :
     Hard:
     12:
     0.571884,0.577119,0.558797,0.000000,0.229015,437.000000,376.000000,61.000000,0.000000,0.000000,0.000000,0.571884,0.577119,0.558797,0.000000,0.229015,437.000000,376.000000,61.000000,0.000000,0.000000,0.000000:
0000
0000
0000
0000
,
0000
0000
0000
0000
,
0000
0000
0000
0000
,
0000
0000
0000
0000
,
1000
1000
0001
0001
,
0010
0010
0100
0100
,
1000
1000
0001
0001
,
1000
1000
0010
0010
,
1000
0001
1000
0001
0010
0001
0010
0100
,
0010
0100
1000
0100
1000
0001
1001
0000
,
0001
0100
0001
0010
0001
0010
0100
1000
,
0100
1000
0010
1000
0010
0100
0110
0000
,
0100
0010
1000
0001
1000
0100
0001
0100
,
1000
0010
0001
0010
1000
0001
0011
0000
,
0001
0010
1000
0010
0001
0100
1000
0100
,
0001
0000
0000
0000
0010
0000
0000
0100
0010
0000
0100
0000
1000
0010
1000
0010
,
0100
0000
0100
0000
0010
1000
1010
0000
,
0001
1001
0000
1100
0000
0101
0000
0110
,
0100
0000
0001
0000
1000
0010
1010
0000
,
1000
1010
0000
0110
0000
0101
0000
0010
,
0011
0000
0100
0000
1000
0010
0110
0000
,
0000
0101
0000
0011
0000
1100
0000
1010
,
1000
0000
0011
0000
0100
0001
1001
0000
,
0100
0110
0000
1010
0000
1001
0000
0011
,
0000
0110
0000
1100
0000
1010
0000
0101
,
0000
0110
0000
1001
0000
1100
0000
0110
,
0000
0011
0000
0101
0000
1010
0000
0110
,
0000
1010
0000
1001
0000
0011
0000
0110
,
0000
0000
1000
0000
0001
0000
0100
0010
0000
0000
0100
0000
0010
0000
1000
0010
,
0000
0000
1000
0000
0001
0000
0010
0001
0000
0000
0010
0000
0001
0000
0100
0001
,
0000
1000
0010
0100
0010
1000
0010
1000
,
0000
1000
0100
0010
0100
0010
0001
0100
,
0010
0000
1000
0000
0001
0010
0001
0000
1000
0000
0001
0000
0100
0001
0100
0000
,
0010
0000
1000
0000
0100
0010
0100
0000
1000
0000
0010
0000
0100
0001
0100
0000
,
0010
0000
0100
0000
0010
1000
0010
0000
1000
0000
0001
0000
0100
0010
0100
0000
,
0001
0000
0010
0000
0100
1000
0100
0000
1000
0000
0010
0000
0100
0001
0100
0000
,
1000
0000
0100
0000
0001
0010
0001
0000
0010
0000
1000
0000
0010
0100
0010
0000
,
0001
0000
0100
0000
0010
0100
0010
0000
0100
0000
0001
0000
1000
0100
1000
0000
,
0100
0000
0001
0000
0100
0010
0100
0000
1000
0000
0100
0000
0010
0001
0010
0000
,
0100
0000
0000
0000
0010
0000
0000
0100
0010
0000
0100
0000
1000
0000
0010
0000
,
0100
0000
0001
0000
1001
0000
0000
1010
0000
0000
0101
0000
0000
0000
0100
0000
,
0010
0000
0100
0000
0001
0000
0010
0000
0000
0001
0010
0000
0001
0010
0000
0000
,
0001
0000
0010
0000
0110
0000
0000
0101
0000
0000
1100
0000
0000
0000
1000
0000
,
0010
0000
1000
0000
0001
0000
1000
0000
0000
0100
0010
0000
0100
0010
0000
0000
,
0100
0000
1000
0000
1001
0000
0000
1010
0000
0000
0101
0000
0000
0000
1000
0000
,
0010
0000
1000
0000
0001
0000
0100
0000
0000
0001
0010
0000
0010
0001
0000
0000
,
0100
0000
0001
0000
0110
0000
0000
1010
0000
0000
0011
0000
0000
0000
0001
0000
,
1000
0000
0010
0000
1000
0000
0100
0000
0000
0100
0010
0000
0010
0100
0000
0000
,
0110
1001
1010
0110
,
0010
0000
0001
0000
0100
0001
0000
0000
0001
1000
0000
0000
1000
0010
0000
0000
,
0000
0000
0010
0000
1000
0000
0100
0010
0000
0000
0100
0000
0010
0000
0001
0010
,
0000
0000
0001
0000
0010
0001
0000
0000
0100
0010
0000
0000
1000
0100
0000
0000
,
0110
0000
1010
0000
0100
0001
0011
0000
,
0010
0000
0001
0000
1000
0001
0000
0000
0001
0010
0000
0000
0010
0100
0000
0000
,
0100
0000
0010
0000
0001
0000
0010
0001
0000
0000
1000
0000
0100
0000
0010
0100
,
0010
0000
0001
0000
0100
0001
0000
0000
0001
1000
0000
0000
1000
0100
0000
0000
,
1001
1000
0000
0000
0010
0100
0000
0010
,
1000
0000
0100
0010
0001
0100
0001
0000
,
0100
0001
0000
0000
0100
1000
0000
0100
,
0001
0000
0100
0001
0010
0100
1000
0000
,
1001
0000
0000
0000
;

//---------------dance-single - ----------------
#NOTES:
     dance-single:
     :
     Challenge:
     15:
     0.827073,0.879419,0.650403,0.000000,0.668725,632.000000,561.000000,71.000000,0.000000,0.000000,0.000000,0.827073,0.879419,0.650403,0.000000,0.668725,632.000000,561.000000,71.000000,0.000000,0.000000,0.000000:
0000
0000
0000
0000
,
0000
0000
0000
0000
,
0000
0000
0000
0000
,
0000
0000
0000
0000
,
0001
1000
0001
0000
1000
0010
1000
0100
,
0001
0000
0000
0000
0001
0000
0100
0000
1000
0100
0010
0001
1000
0010
0100
0001
,
1000
0000
0001
0000
0010
0000
0001
1000
0001
0000
0010
0000
0100
0000
0010
0100
,
0010
0000
0100
0000
1000
0000
0010
0100
0001
0100
0010
1000
0100
0010
0100
1000
,
0001
0010
0100
0000
1000
0010
0100
0001
0100
0010
1000
0000
0010
1000
0100
0000
,
0010
0001
0010
0000
0001
0010
0100
0010
0001
1000
0010
0000
0100
0001
1000
0000
,
0001
1000
0001
0000
1000
0001
0100
0010
0100
0001
1000
0000
0010
1000
0100
0000
,
0010
0001
0010
0000
0001
0010
0100
1000
0001
1000
0001
0000
1000
0001
0010
0000
,
0001
1000
0010
0000
0100
0010
1000
0001
0100
0010
1000
0000
0100
0010
0001
0000
,
1000
0100
1000
0000
0001
0010
0100
1000
0100
0010
0001
0000
0100
0001
1000
0000
,
0010
0100
0001
0000
0100
0001
1000
0100
0010
0100
1000
0000
0100
1000
0001
0000
,
1000
0000
0000
0000
1100
0000
0000
1000
0010
0000
0100
0000
0010
1000
0001
0100
,
0001
0000
0011
0000
1001
0010
0011
0000
,
0010
0110
1000
1010
0010
1001
1000
0011
,
0110
0000
0011
0000
1001
0100
1100
0000
,
0001
1001
1000
0101
0001
1010
1000
1100
,
0011
0000
0011
0000
0110
1000
1010
0000
,
1000
1010
0001
0101
1000
1001
0001
0110
,
0011
0000
0101
0000
1000
0010
1010
0000
,
0100
1010
1000
0011
0100
0011
0100
1001
,
0010
1100
0010
0101
0010
1001
0100
1010
,
0100
1001
0100
0011
0100
1001
1000
1010
,
0010
0110
0100
0101
0001
0011
0010
0110
,
0100
1001
0100
1001
0010
1100
0010
0101
,
1000
0000
0001
0000
1000
0000
0100
0010
0100
0000
0010
0000
0001
0000
1000
0001
,
1000
0000
0001
0000
1000
0000
0001
0100
0001
0000
0010
0000
0100
0000
1000
0010
,
1000
0010
0100
0001
0010
1000
0010
0001
,
0000
1000
0001
0100
0010
1000
0001
0010
,
0100
0010
0001
0010
0100
0010
0001
0010
0100
1000
0100
0010
0100
1000
0100
0000
,
1000
0010
1000
0001
1000
0010
1000
0001
0100
0010
1000
0010
0100
0010
1000
0000
,
0100
0010
0100
1000
0100
0010
0100
1000
0010
0100
0010
1000
0010
0100
0010
0000
,
0100
0001
0100
0010
0100
0001
0100
0010
1000
0001
1000
0100
1000
0001
1000
0000
,
0010
0100
0010
1000
0010
0100
0010
1000
0100
0010
0100
1000
0100
0010
0100
0000
,
0010
0001
0010
0100
0010
0001
0010
0100
1000
0001
1000
0010
1000
0001
1000
0000
,
0001
0100
0010
0100
0001
0100
0010
0100
0001
1000
0010
1000
0001
1000
0010
1000
,
0001
0000
0000
0000
1001
0000
0000
1000
0010
0000
1000
0000
0010
0100
0010
0100
,
0001
0000
0010
0000
0110
0000
0010
0001
0000
0100
0001
0000
1000
0000
0010
0000
,
1000
0000
0100
0000
1000
0001
0100
0000
0001
0010
0100
0000
1000
0010
0100
0000
,
1100
0000
1000
0000
0110
0000
0100
0010
0000
1000
0001
0000
1000
0000
0100
0000
,
0010
0000
0001
0000
0100
0001
1000
0000
0100
0010
0001
0000
1000
0010
0100
0000
,
0011
0000
1000
0000
1010
0000
0100
0010
0000
0010
0001
0000
1000
0000
0100
0000
,
1000
0000
0010
0000
0100
0010
1000
0000
0010
0100
0001
0000
0010
0100
1000
0000
,
0110
0000
0010
0000
0101
0000
0100
0001
0000
0001
1000
0000
1000
0000
0100
0000
,
0010
0000
0100
0000
0010
0001
1000
0000
0001
0100
0010
0000
1000
0010
0100
0000
,
1010
1000
0110
0010
1000
0001
0011
0010
,
0100
0000
1000
0000
0010
1000
0010
0000
0100
0010
0100
0000
0001
0100
0001
0000
,
0010
0000
0001
0000
0010
0000
0100
0010
0100
0000
0010
0000
0100
0000
1000
0010
,
1000
0000
0010
0000
0100
0010
0100
0000
0001
0100
0001
0000
0010
0001
0010
0000
,
0110
0000
1001
0000
1010
0100
1001
0000
,
1100
0000
1000
0000
0001
0010
0100
0000
0010
0001
0100
0000
0001
1000
0010
0000
,
0110
0000
1001
0000
1100
0010
0110
0000
,
0011
0000
1000
0000
0001
0010
0100
0000
1000
0001
0100
0000
0010
1000
0001
0000
,
0110
0010
0000
0000
0001
1000
0000
0010
,
1000
0000
0010
0100
0010
1000
0100
0000
,
0011
0000
0100
0000
0001
0000
1000
0001
1000
0000
0001
0000
0100
0000
0010
0100
,
0010
0000
0100
0000
0001
0000
1000
0100
0010
0001
0100
0010
1000
0100
0010
0000
,
0011
0000
0000
0000
;

//---------------dance-single - ----------------
#NOTES:
     dance-single:
     :
     Medium:
     9:
     0.422697,0.412228,0.265658,0.000000,0.036642,323.000000,294.000000,29.000000,0.000000,0.000000,0.000000,0.422697,0.412228,0.265658,0.000000,0.036642,323.000000,294.000000,29.000000,0.000000,0.000000,0.000000:
0000
0000
0000
0000
,
0000
0000
0000
0000
,
0000
0000
0000
0000
,
0000
0000
0000
0000
,
1000
0001
1000
0001
,
1000
0010
1000
0001
,
0100
0001
0100
0010
,
1000
0010
1000
0010
,
1000
0100
1000
0000
0010
0100
0010
0000
,
0100
0001
0100
0000
0001
1000
0001
0000
,
1000
0100
0010
0000
0100
0010
0001
0000
,
0100
0001
0100
0000
0010
0100
0010
0000
,
1000
0010
1000
0000
0100
0010
0001
0000
,
0100
0001
1000
0000
0100
1000
0010
0000
,
0100
0001
0010
0000
0100
0010
0001
0000
,
1001
0000
1010
0000
0010
0100
0001
0100
,
0010
0000
0101
0000
1000
0001
1000
0000
,
0000
1100
0000
1010
0000
0110
0000
0100
,
0001
0000
0011
0000
0100
0001
1000
0000
,
0000
1010
0000
0110
0000
0101
0000
0001
,
1000
0000
1010
0000
1000
0100
0010
0000
,
0000
1100
0000
0110
0000
0011
0000
0001
,
1000
0000
0110
0000
0100
0010
1000
0000
,
0000
0011
0000
0110
0000
1100
0000
0010
,
0000
0001
0000
1000
0000
0010
0000
0100
,
0000
0010
0000
1000
0000
0100
0000
0010
,
0000
0001
0000
1000
0000
0010
0000
0100
,
0000
0010
0000
1000
0000
0001
0000
0010
,
0000
0000
0100
0000
0010
0000
0000
0001
0000
0000
0010
0000
0100
0000
0000
1000
,
0000
0000
0001
0000
0100
0000
0000
0010
0000
0000
0100
0000
0001
0000
0000
0000
,
0000
0010
0000
0100
0000
1000
0000
0100
,
0000
0001
0000
0100
0000
1000
0000
0000
,
1000
0100
0010
0001
0001
0010
0100
0000
,
1000
0010
0100
0010
0010
0100
0001
0000
,
0001
0010
0100
0100
0010
0100
1000
0000
,
0001
1000
0100
0100
0010
0001
0100
0000
,
0010
1000
0010
0010
0100
0010
1000
0000
,
0001
0100
0001
0001
1000
0100
0010
0000
,
0100
1000
0010
0010
0100
0001
0010
0000
,
0100
0000
1000
0000
0010
1000
0100
0010
,
0001
0000
0000
0000
0101
0000
0000
0001
0000
0000
1000
0000
0000
0000
0100
0000
,
1000
0010
0000
0000
0000
1000
0010
0000
,
1000
0000
0100
0000
0110
0000
0000
0010
0000
0000
0100
0000
0000
0000
1000
0000
,
0001
0100
0000
0000
0000
0010
1000
0000
,
1000
0000
0010
0000
0110
0000
0000
0010
0000
0000
1000
0000
0000
0000
0001
0000
,
0100
0001
0000
0000
0000
0010
0001
0000
,
0010
0000
0100
0000
1100
0000
0000
0100
0000
0000
1000
0000
0000
0000
0010
0000
,
0100
0010
0000
0000
0000
0100
0001
0000
,
0010
0110
1000
1010
,
0100
0001
0010
0000
0100
0010
0100
0000
,
0000
0000
1000
0000
0010
0000
0000
0100
0000
0000
0010
0000
0100
0000
0000
0000
,
0001
0010
0100
0000
1000
0010
0100
0000
,
1010
0000
1001
0000
0001
0010
0100
0000
,
0010
0100
1000
0000
0010
1000
0010
0000
,
0110
0000
1100
0000
0001
0010
0100
0000
,
1000
0001
0100
0000
0001
1000
0100
0000
,
1000
0010
0000
0000
1000
0001
0000
0010
,
0100
0000
0010
0001
0010
0100
0010
0000
,
0100
0010
0000
0000
0001
1000
0000
0010
,
0100
0000
0001
0010
0100
1000
0001
0000
,
1001
0000
0000
0000
;

//---------------dance-single - ----------------
#NOTES:
     dance-single:
     :
     Easy:
     6:
     0.276127,0.274818,0.054964,0.000000,0.000000,211.000000,205.000000,6.000000,0.000000,0.000000,0.000000,0.276127,0.274818,0.054964,0.000000,0.000000,211.000000,205.000000,6.000000,0.000000,0.000000,0.000000:
0000
0000
0000
0000
,
0000
0000
0000
0000
,
0000
0000
0000
0000
,
0000
0000
0000
0000
,
0001
0010
0100
0010
,
0100
1000
0100
1000
,
0010
0100
0001
0100
,
0001
0100
0010
0000
,
0100
0001
1000
0001
,
0010
0100
0001
0100
,
1000
0010
0100
0010
,
0100
1000
0100
0000
,
0010
1000
0001
0100
,
0001
1000
0100
0001
,
0100
0010
0100
1000
,
1010
0000
0011
0000
,
0110
0100
0010
0100
,
0000
1000
0000
0001
0000
1000
0000
0000
,
0001
0100
0010
1000
,
0000
0001
0000
0010
0000
0001
0000
0000
,
0010
0100
0010
0001
,
0000
0010
0000
0100
0000
1000
0000
0000
,
0010
1000
0100
1000
,
0000
0010
0000
0100
0000
0010
0000
0000
,
0000
0010
0000
1000
0000
0001
0000
0010
,
0000
1000
0000
0010
0000
0001
0000
1000
,
0000
0010
0000
0100
0000
0010
0000
1000
,
0000
0001
0000
0010
0000
0100
0000
0010
,
0000
0001
0000
1000
0000
0010
0000
0100
,
0000
0010
0000
1000
0000
0100
0000
0010
,
0000
0001
0000
1000
0000
0010
0000
0100
,
0000
0010
0000
1000
0000
0100
0000
0000
,
1000
0010
1000
0001
,
0010
0100
0010
0001
,
1000
0010
0001
0010
,
1000
0100
0001
0100
,
1000
0010
0100
0001
,
0010
0100
1000
0010
,
0100
0010
1000
0100
,
0010
0000
0011
0000
,
1001
0000
0000
0010
0000
0100
0000
1000
,
0000
0100
0000
0010
0000
0001
0000
0100
,
0000
0010
0000
1000
0000
0100
0000
0001
,
0000
0100
0000
1000
0000
0001
0000
1000
,
0000
0010
0000
0100
0000
0001
0000
0010
,
0000
0100
0000
1000
0000
0100
0000
0010
,
0000
0001
0000
1000
0000
0100
0000
0001
,
0000
0100
0000
1000
0000
0100
0000
0000
,
0010
0001
0100
0010
,
1000
0100
0010
0100
,
1000
0010
0100
0001
,
0010
0100
1000
0001
,
0100
0010
1000
0010
,
1000
0100
0010
0100
,
1000
0001
0010
0100
,
0010
0001
0010
0100
,
0010
0000
0100
0000
,
1000
0000
0010
0000
,
1000
0000
0001
0000
,
1000
0000
0001
0000
,
0101
0000
0000
0000
;

//---------------dance-single - ----------------
#NOTES:
     dance-single:
     :
     Beginner:
     2:
     0.119088,0.164891,0.119088,0.109927,0.000000,91.000000,78.000000,13.000000,12.000000,0.000000,0.000000,0.119088,0.164891,0.119088,0.109927,0.000000,91.000000,78.000000,13.000000,12.000000,0.000000,0.000000:
// measure 0
0000
0000
0000
0000
,  // measure 1
0000
0000
0000
0000
,  // measure 2
0000
0000
0000
0000
,  // measure 3
0000
0000
0000
0000
,  // measure 4
0100
0000
1000
0000
,  // measure 5
0100
0000
0010
0000
,  // measure 6
0001
0000
0010
0000
,  // measure 7
0100
0000
1000
0000
,  // measure 8
2002
0000
0000
0000
,  // measure 9
0000
0000
3003
0000
,  // measure 10
0220
0000
0000
0000
,  // measure 11
0000
0000
0330
0000
,  // measure 12
2002
0000
0000
0000
,  // measure 13
0000
0000
3003
0000
,  // measure 14
0220
0000
0000
0000
,  // measure 15
0000
0000
0330
0000
,  // measure 16
0100
1000
0100
0000
,  // measure 17
0000
0000
0000
0000
,  // measure 18
0010
0001
0010
0000
,  // measure 19
0000
0000
0000
0000
,  // measure 20
0001
0100
0001
0000
,  // measure 21
0000
0000
0000
0000
,  // measure 22
1000
0010
1000
0000
,  // measure 23
0000
0000
0000
0000
,  // measure 24
2000
0000
0000
0000
,  // measure 25
0000
0000
0000
0000
,  // measure 26
3002
0000
0000
0000
,  // measure 27
0000
0000
0000
0000
,  // measure 28
0003
0000
0000
0000
,  // measure 29
0000
0000
0000
0000
,  // measure 30
0220
0000
0000
0000
,  // measure 31
0000
0000
0330
0000
,  // measure 32
1000
0000
0100
0000
,  // measure 33
0010
0000
0100
0000
,  // measure 34
1000
0000
0001
0000
,  // measure 35
0010
0000
0100
0000
,  // measure 36
0010
0000
0001
0000
,  // measure 37
1000
0000
0010
0000
,  // measure 38
0100
0000
0010
0000
,  // measure 39
1000
0000
0001
0000
,  // measure 40
1001
0000
1000
0000
,  // measure 41
0010
0000
0100
0000
,  // measure 42
0010
0000
0100
0000
,  // measure 43
0001
0000
1000
0000
,  // measure 44
0100
0000
0010
0000
,  // measure 45
0100
0000
1000
0000
,  // measure 46
0010
0000
1000
0000
,  // measure 47
0001
0000
1000
0000
,  // measure 48
1001
0000
0000
0000
,  // measure 49
1000
0000
0100
0000
,  // measure 50
0110
0000
0000
0000
,  // measure 51
0001
0000
0100
0000
,  // measure 52
0110
0000
0000
0000
,  // measure 53
0001
0000
1000
0000
,  // measure 54
1001
0000
0000
0000
,  // measure 55
1000
0000
0001
0000
,  // measure 56
1001
0000
0000
0000
,  // measure 57
1000
0000
0001
0000
,  // measure 58
1001
0000
0000
0000
,  // measure 59
0010
0000
0100
0000
,  // measure 60
0110
0000
0000
0000
;
