#TITLE:DOMINION;
#SUBTITLE:;
#ARTIST:L.E.D. -G;
#TITLETRANSLIT:;
#SUBTITLETRANSLIT:;
#ARTISTTRANSLIT:;
#GENRE:;
#CREDIT:;
#BANNER:bn.png;
#BACKGROUND:bg.png;
#LYRICSPATH:;
#CDTITLE:;
#MUSIC:DOMINION.ogg;
#OFFSET:-5.310000;
#SAMPLESTART:29.799000;
#SAMPLELENGTH:20.000000;
#SELECTABLE:YES;
#BPMS:0.000000=49.000000
,4.000000=196.000000
,257.000000=49.000000
,261.000000=196.000000
;
#STOPS:64.000000=0.918000,
261.000000=0.306000,
261.500000=0.306000,
262.000000=0.153000,
262.500000=0.153000,
263.000000=0.306000,
273.000000=2.143000
;
#BGCHANGES:;
#KEYSOUNDS:;
#ATTACKS:;

//---------------dance-single - ----------------
#NOTES:
     dance-single:
     :
     Challenge:
     18:
     0.979928,1.119889,0.465867,0.000000,0.578318,854.000000,796.000000,58.000000,0.000000,0.000000,0.000000,0.979928,1.119889,0.465867,0.000000,0.578318,854.000000,796.000000,58.000000,0.000000,0.000000,0.000000:
0000
0000
0000
0000
,
1000
1000
0001
0010
0100
1000
0001
0100
,
0010
1000
0100
0010
0001
0100
0010
1000
,
0001
0010
0100
1000
0010
0100
0001
1000
,
0100
1000
0010
0100
0001
0010
0100
1000
,
1001
0100
0010
1001
1000
0100
0011
1000
,
1100
0001
0110
1000
0000
1001
0110
0000
,
1001
0100
0010
1000
0001
0100
0010
1000
,
0100
0010
0100
1000
0001
0100
0010
1000
0001
0100
0001
0100
0010
1000
0010
1000
,
0100
0010
0100
1000
0010
0100
0001
0010
,
0010
0100
0010
0001
0001
0100
0010
1000
,
0100
0010
0001
1000
0010
0100
0001
1000
,
1000
0100
0010
0001
0100
0010
1000
0001
,
0110
1000
0001
0110
1000
0001
1100
1000
,
0101
0010
1100
0001
0000
1100
1100
0000
,
0011
0000
1000
0000
0100
0000
1000
0000
0001
0100
0010
1000
0100
1000
0001
0010
,
0100
0000
0011
1000
0100
1000
0001
0100
,
0010
1000
1000
0001
0010
1000
0010
0001
,
0100
0010
0001
1000
0100
0001
0100
0010
,
1000
0100
0100
0010
0001
0100
0010
1000
,
0100
1000
0011
0010
0100
1000
0001
0100
,
0010
1000
1000
0001
1000
0010
0100
1000
,
0001
0010
0100
0001
1000
0100
0010
1000
,
0010
0000
0001
0000
1100
0000
0010
0000
0101
0000
1000
0000
0001
0100
0010
1000
,
0100
1000
0001
0010
0100
0000
1000
0000
0100
0000
0010
0000
0001
0000
1000
0000
,
0001
0100
0100
1000
0100
0001
1000
0001
,
0010
0100
1000
0100
0001
0100
1000
0100
,
0001
0000
1000
0000
1000
0000
0010
0000
1000
0000
0010
0000
0001
0010
0100
1000
,
0001
0100
0010
1000
0001
0000
0100
0000
0010
0000
1000
0000
0100
0000
1000
0000
,
0010
1000
1000
0001
1000
0010
0100
0101
,
0010
1001
1100
0100
0100
0001
0100
1000
,
1000
0100
0010
0001
1000
0000
1000
0000
0001
0000
0010
0000
0100
1000
0001
0100
,
0010
1000
0100
1000
0010
0000
1000
0000
0100
0000
1000
0000
0001
0000
0010
0000
,
1000
0010
0001
1000
0001
0100
0010
0100
,
0001
0010
1000
0010
0001
0100
0010
0100
,
0001
0010
0100
1000
0010
0100
0010
1000
,
0100
0010
1001
0100
0010
1000
0010
0100
,
0001
1000
0100
1000
0001
0010
0100
1000
,
0001
0100
1010
1000
0100
1000
0001
0010
,
0100
1000
1001
0001
1010
0101
0000
1100
,
0011
0000
1100
0000
1001
0000
0100
0000
0010
1000
0001
1000
0010
0000
1000
0000
,
0100
0010
0001
1000
0001
0000
1000
0000
0001
0100
0010
0100
0001
0000
0100
0000
,
0010
1000
0001
1000
0100
0000
0010
0000
0100
1000
0010
1000
0001
0000
0100
0000
,
0010
1000
0001
0100
0010
0000
1000
0000
0100
1000
0001
0010
0001
0000
1000
0000
,
0001
0100
0010
1000
0001
0000
1000
0000
0100
0010
0001
1000
0100
0000
1000
0000
,
0001
0010
0100
1000
0001
0000
0100
0000
0001
1000
0010
0100
0001
0000
0010
0000
,
0100
1000
0001
0100
0010
0000
0010
0000
1000
0000
1000
0000
0100
0000
0100
0000
,
0010
0000
0010
0000
0001
0100
0001
1000
0010
1000
0100
0010
0001
0100
0001
0010
,
0100
1000
0001
0000
0001
0010
0100
1000
0001
0010
0100
1000
0001
0010
0100
1000
,
0001
0010
0100
1000
0001
0100
0010
1000
0001
0100
0010
1000
0001
0100
0010
1000
,
0001
0100
0010
1000
0001
0000
1000
0000
0100
0000
0010
0000
0001
0010
0100
1000
,
0010
1000
0100
0010
0001
0000
0000
0000
1010
0000
0101
0000
1001
0000
0110
0000
,
0000
0000
1001
0000
0001
0010
0100
1000
0001
0010
0100
1000
0001
0010
0100
1000
,
0001
0010
0100
1000
0001
0100
0010
1000
0001
0100
0010
1000
0001
0100
0010
1000
,
0001
0100
0010
0000
1000
0010
0100
0001
1000
0010
0100
0001
1000
0010
0100
0001
,
1000
0010
0100
0001
1000
0001
0010
0100
1000
0001
0010
0100
1000
0001
0010
0100
,
1000
0001
0010
0100
1000
0000
0001
0000
0100
0000
0010
0000
0100
0000
1000
0000
,
0100
0001
1000
0100
0010
1000
0010
0100
,
1000
0010
0110
0001
1000
0100
0010
1000
,
0010
0001
0100
1000
0100
0010
1000
0100
,
0010
0001
1100
1000
0010
0001
0010
0100
,
0001
1000
1010
0001
0100
1000
0001
0010
,
1000
0001
0101
1000
0010
1000
0100
1000
,
0001
0000
0010
0000
0100
1000
0100
0010
0001
1000
0010
0100
0001
0010
0100
0010
,
0001
1000
0001
0100
0101
0000
0000
0000
0000
0000
0000
0000
0000
0000
0000
0000
,
0000
0000
1001
0110
1100
0011
1100
1001
,
0110
0000
0001
0001
0100
0100
1000
1000
,
0100
0000
0100
0000
0001
1000
0100
0010
0001
1000
0010
0100
0001
0010
0001
1000
,
0100
1000
0010
1000
0100
0000
0000
0000
1001
0000
0001
0000
0010
0000
0100
0000
,
1000
0001
0100
0010
0010
0100
0010
1000
,
0100
0001
1000
0010
0001
0010
1000
0001
,
1000
0010
0100
1000
1000
0100
1000
0010
,
1000
0100
1010
1000
0101
0001
0010
0100
,
1000
0010
0100
0001
0001
0010
0001
1000
,
0100
0010
0001
0100
1000
0100
0001
0100
,
0010
0001
1000
0100
1001
0001
1010
1000
,
0100
1000
0010
0100
0001
0010
0100
1000
0001
0000
1000
0000
0100
0000
0001
0000
,
1000
0001
0100
1000
1000
0001
0010
0100
,
1000
0001
0100
0010
1000
0100
0001
0100
,
1000
0010
0100
0001
0001
0010
0010
0001
,
0100
0010
1000
0001
0100
0010
1000
0100
1000
0000
0001
0000
0010
0000
0100
0000
,
1000
0001
0100
1000
0001
0010
1000
0001
,
0010
1010
1000
1010
0011
0100
0010
1000
,
1000
0100
0010
0001
1000
0100
1000
0001
1000
0010
0100
0001
1000
0010
0100
0001
,
0010
0001
1000
0100
0010
0001
1000
0010
0110
0000
0000
0000
0000
0000
0000
0000
;

//---------------dance-single - ----------------
#NOTES:
     dance-single:
     :
     Hard:
     15:
     0.756174,0.780528,0.305223,0.000000,0.297191,659.000000,621.000000,38.000000,0.000000,0.000000,0.000000,0.756174,0.780528,0.305223,0.000000,0.297191,659.000000,621.000000,38.000000,0.000000,0.000000,0.000000:
0000
0000
0000
0000
,
1000
0010
0100
0001
0010
0100
0010
0001
,
0000
0010
0000
0100
0000
1000
0010
0100
,
0001
1000
0100
0001
0100
1000
0100
0001
,
0000
0100
0000
1000
0000
0100
0010
0001
,
0011
0000
0000
1100
0000
0000
1010
0000
,
1001
0000
0110
0000
0000
1000
1100
0000
,
1010
0010
1000
0001
0010
0100
0010
0001
,
0001
0010
0000
0000
0010
0001
0000
0000
1000
0100
0000
0000
0100
1000
0000
0000
,
0010
1000
0001
1000
0001
0100
0001
0010
,
0000
0010
0100
1000
0000
0010
1000
0010
,
0100
0001
1000
0001
1000
0100
0010
0001
,
0000
0001
1000
0010
0000
0100
0010
1000
,
1010
0000
0100
0110
0000
0001
0010
0100
,
1100
0000
0011
1000
0000
1010
1000
0010
,
0100
0001
0010
0100
1000
0001
1000
0001
,
1001
0000
1000
0100
0010
0100
1000
0001
,
0100
0010
0000
0010
0100
0001
0000
0001
,
0010
0100
0010
0100
1000
0010
0100
0010
,
1000
0010
0010
0000
1000
0000
1000
0010
,
0100
0001
0010
0100
0010
0001
1000
0100
,
1000
0001
0001
0000
1000
0000
0000
0010
,
0000
1000
0010
1000
0010
0100
0001
0010
,
0100
0000
1000
0000
0010
0000
0100
0000
0010
0000
1000
0000
0001
0010
0000
0000
,
0010
0100
0000
0000
0100
0000
1000
0000
0010
0000
0100
0000
0010
0000
1000
0000
,
0100
0010
0100
0000
0010
0000
0000
0001
,
0000
0010
0001
0100
0010
0001
0010
0100
,
0001
0000
0010
0000
0100
0000
0000
0000
1000
0000
0000
0000
0010
0100
0000
0000
,
0100
0001
0000
0000
0001
0000
0010
0000
0100
0000
1000
0000
0010
0000
0001
0000
,
0010
1000
0100
0000
0110
0000
0000
0011
,
0000
1000
0100
1000
0010
0100
0010
0100
,
0001
0010
0001
0010
0001
0000
0010
0000
0100
0000
1000
0000
0010
0100
0010
0000
,
1000
0010
1000
0000
0010
0000
1000
0000
0100
0000
0010
0000
0100
0000
1000
0000
,
0010
0100
0010
1000
0100
0010
0100
1000
,
0001
0000
0001
0010
0100
0010
0001
0100
,
0010
0100
0001
0010
0100
0010
0001
0100
,
0010
0000
0110
0100
0010
1000
0010
0100
,
0001
0010
0001
0100
0001
0010
0100
1000
,
0010
1000
0100
0010
0100
1000
0001
0010
,
0001
1000
0011
0010
0001
1001
0000
1001
,
0010
0000
0100
0000
0101
0000
1000
0000
0100
0010
0000
0000
0001
0000
0100
0000
,
0001
1000
0000
0000
0010
0000
0100
0000
0010
1000
0000
0000
0100
0000
1000
0000
,
0001
0100
0000
0000
0001
0000
0010
0000
0100
1000
0000
0000
0001
0000
0100
0000
,
0001
1000
0000
0000
0010
0000
1000
0000
0010
0100
0000
0000
0010
0000
1000
0000
,
0100
0010
0000
0000
0011
0000
0010
0000
0100
1000
0000
0000
0001
0000
0100
0000
,
0010
1000
0000
0000
0010
0000
1000
0000
0100
0010
0000
0000
0001
0000
0010
0000
,
0001
0100
0000
0000
0001
0000
0001
0000
0010
0000
0010
0000
0100
0000
0100
0000
,
1000
0000
1000
0000
0010
1000
0010
0000
0100
0010
0100
0000
0001
0100
0001
0000
,
0010
0001
0010
0000
0001
0010
0000
0000
0010
0100
0000
0000
0100
1000
0000
0000
,
1000
0010
0000
0000
0010
0100
0000
0000
0100
0001
0000
0000
0001
1000
0000
0000
,
1000
0100
0000
0000
1000
0000
0010
0000
1000
0000
0100
0000
0010
0100
0010
0100
,
0010
0100
0010
0100
0010
0000
0000
0000
0101
0000
0100
0000
0001
0000
1001
0000
,
0000
0000
1010
0000
1000
0010
0000
0000
0010
0100
0000
0000
0100
0001
0000
0000
,
0001
0010
0000
0000
0010
0100
0000
0000
0100
1000
0000
0000
1000
0010
0000
0000
,
0010
1000
0000
0000
1000
0100
0000
0000
0100
0001
0000
0000
0001
0100
0000
0000
,
0100
1000
0000
0000
1000
0010
0000
0000
0010
0001
0000
0000
0001
0010
0000
0000
,
0010
1000
0000
0000
1000
0000
0100
0000
0010
0000
0001
0000
0100
0000
0001
0000
,
1000
0010
0100
0001
1000
0100
0001
0100
,
1000
0010
0001
0010
1000
0100
0010
0001
,
1000
0001
0100
0001
0010
0100
1000
0010
,
0100
0000
1010
0010
0100
0001
0100
0010
,
1000
0100
0110
0001
0100
0001
0010
0100
,
0010
0001
0101
0100
0010
0100
1000
0100
,
0001
0000
0100
0000
0010
1000
0001
0000
0010
0001
1000
0000
0100
1000
0010
0000
,
0100
0001
1000
0000
0110
0000
0000
0000
0000
0000
0000
0000
0000
0000
0000
0000
,
0000
0000
1001
1010
0110
0101
1001
1000
,
1100
0000
1001
0001
0010
0001
1000
0010
,
1000
0000
0001
0000
0100
0001
1000
0000
0001
0010
0100
0000
0010
0100
1000
0000
,
0010
0100
0001
0000
1001
0000
0000
0000
0001
0000
0100
0000
0001
0000
1000
0000
,
0010
1000
0100
1000
0000
1000
0100
0010
,
0000
0001
0010
0001
0100
0001
0100
0010
,
1000
0010
0100
0001
0001
0000
0010
0000
,
0010
0100
1000
0010
0100
0001
1000
0100
,
1000
0001
0100
0010
0010
0000
1000
0000
,
0000
0100
0000
1000
0100
1000
0100
0010
,
0001
0100
0001
0100
1010
1000
0011
0001
,
0100
0010
0000
0000
0010
1000
0000
0000
0100
0000
0010
0000
0001
0000
0010
0000
,
1000
0010
0001
0001
1000
0000
1000
0000
,
0000
0001
0000
0001
1000
0001
0100
0010
,
1000
0100
1000
0001
0001
0000
0010
0000
,
0001
0010
0000
0000
0010
0100
0000
0000
0100
0000
1000
0000
0010
0000
0100
0000
,
0010
1000
0001
0100
0100
0000
0010
0000
,
1000
0100
0000
1000
0001
0010
0100
1000
,
0001
0000
0100
0000
0010
1000
0010
1000
0010
0000
0100
0000
0001
0000
0010
0000
,
0001
0100
0001
0100
0010
0100
0010
0100
0001
0000
0000
0000
0000
0000
0000
0000
;

//---------------dance-single - ----------------
#NOTES:
     dance-single:
     :
     Medium:
     12:
     0.582908,0.644784,0.232934,0.000000,0.000000,508.000000,479.000000,29.000000,0.000000,0.000000,0.000000,0.582908,0.644784,0.232934,0.000000,0.000000,508.000000,479.000000,29.000000,0.000000,0.000000,0.000000:
0000
0000
0000
0000
,
1000
0100
1000
0000
0100
0001
0000
0100
,
0000
1000
0000
1000
0000
0010
1000
0000
,
0010
0100
0001
0000
0001
0010
0000
0100
,
0000
0010
0000
1000
0000
0010
0100
0000
,
1010
0000
0000
1001
0000
0000
0011
0000
,
0110
0000
1100
0000
0000
0100
1000
0000
,
0001
1000
0100
0000
0010
0100
1000
0000
,
0011
1010
1100
0110
,
0001
0000
0010
0000
0100
0000
1000
0010
,
0000
1000
0010
0100
0000
0100
0001
0000
,
0010
0000
0100
0000
1000
0000
0001
0100
,
0000
0010
1000
0010
0000
1000
0100
1000
,
0001
0000
0000
0011
0000
0000
1100
0000
,
1010
0000
0101
0000
0000
1000
0001
0000
,
1000
0010
0100
0000
0010
1000
0100
0010
,
0001
0000
0001
0010
0100
0000
0010
1000
,
0010
0001
0010
0000
0001
0000
0000
0100
,
0000
0001
1000
0000
0001
0000
0010
0001
,
1000
0100
0010
0000
0100
0000
0010
0100
,
1000
0001
1000
0000
0010
0000
0100
0010
,
0100
0001
1000
0000
0001
0000
0000
0010
,
0000
0100
0010
0000
0001
0000
0100
0010
,
0100
0000
0001
1000
0001
0000
1000
0100
,
1000
0001
0010
0000
0001
0000
0100
0000
,
0001
0100
0010
0000
1000
0000
0000
0100
,
0000
0010
0100
0000
1000
0000
0001
0000
,
0100
0010
0100
0000
0001
0000
1000
0100
,
0001
0100
1000
0000
0001
0000
1000
0010
,
0001
0010
1000
0000
1000
0000
0000
0100
,
0000
0001
0100
0000
1000
0000
0100
0010
,
0100
0000
0010
0001
0100
0000
0001
0010
,
0100
1000
0010
1000
0100
0000
0010
0100
,
0000
0100
0010
0000
0010
0001
0000
0001
,
0100
0000
0100
0010
1000
0000
0010
1000
,
0000
0001
0000
1000
0100
0010
1000
0010
,
0001
0000
0001
0100
0010
0000
0010
1000
,
0000
1000
0100
0000
0100
0010
0000
0010
,
0001
0100
0001
1000
0010
0000
0010
1000
,
0010
0000
1000
0010
0001
0010
0000
0100
,
0001
1000
0100
0000
0010
0001
0010
0000
,
0100
0010
0100
0000
1000
0001
1000
0000
,
0001
0100
0001
0000
1000
0010
1000
0000
,
0001
1000
0001
0000
0100
0001
0100
0000
,
0001
0010
0100
0000
0010
0100
1000
0000
,
0010
1000
0001
0000
0100
0010
1000
0000
,
0001
0010
0100
1000
0100
1000
0100
1000
,
0100
1000
0110
0000
1010
0000
0101
0000
,
0011
0000
0001
0100
0001
0100
0001
0100
,
0001
0100
0010
1000
0010
1000
0010
1000
,
0010
1000
0100
0001
0100
1000
0001
0010
,
0100
1000
0001
0000
0100
0010
1000
0100
,
0000
1000
0010
1000
0010
1000
0001
1000
,
0001
1000
0001
0100
0001
0100
0001
0010
,
0001
0000
0010
0100
0010
0100
1000
0100
,
1000
0100
1000
0010
1000
0010
0100
0010
,
0100
0010
0100
0001
0010
0000
0001
0010
,
0000
0010
0100
0000
0100
1000
0010
1000
,
0010
0000
0100
0001
0010
0000
0100
0010
,
0000
0010
0100
0000
1000
0010
0000
0010
,
0100
0000
0100
0001
0010
0000
0100
1000
,
0000
1000
0010
0000
0010
1000
0100
0010
,
0001
0000
0010
0001
1000
0000
0010
0100
,
0010
0000
1000
0100
1000
0100
0010
0001
,
0010
0001
1000
0000
0000
0000
0000
0000
,
0000
0000
1010
1000
0101
0001
0110
0010
,
0100
0000
1000
0010
1000
0010
0100
0010
,
0100
0001
0010
0000
0110
0000
1100
0000
,
1001
0000
0011
0000
1000
0001
1000
0010
,
0100
0000
0010
0100
1000
0000
0100
0000
,
0000
0010
0000
1000
0100
0010
0001
1000
,
0001
0000
1000
0100
0001
0000
0100
0000
,
1000
0100
1000
0100
0010
0000
0100
0001
,
0100
0000
1000
0100
0010
0000
1000
0000
,
0000
0010
0000
0100
1000
0000
0010
1000
,
0100
0010
0001
0000
0101
0000
1001
0000
,
1000
0010
1000
0010
0100
0000
0001
0000
,
0100
0000
0001
0010
0100
0000
1000
0000
,
0000
1010
0000
0010
0100
0000
0001
0000
,
0010
0000
0100
1000
0001
0000
0100
0000
,
0001
1000
0100
1000
0010
0100
0001
0010
,
0001
0000
0010
0100
1000
0000
1010
0000
,
0000
1010
0000
1000
0001
0000
0010
0000
,
0100
1000
0100
1000
0001
0100
0001
0100
,
0010
1000
0010
1000
0001
0000
0000
0000
;

//---------------dance-single - ----------------
#NOTES:
     dance-single:
     :
     Easy:
     10:
     0.430296,0.509040,0.192773,0.000000,0.000000,375.000000,351.000000,24.000000,0.000000,0.000000,0.000000,0.430296,0.509040,0.192773,0.000000,0.000000,375.000000,351.000000,24.000000,0.000000,0.000000,0.000000:
0000
0000
0000
0000
,
1000
0000
0001
0000
0010
0000
0000
0100
,
0000
0010
0000
0001
0000
1000
0000
0000
,
0010
0000
0100
0000
0001
0000
0000
0010
,
0000
0100
0000
1000
0000
0001
0000
0000
,
1001
0000
0000
1010
0000
0000
0110
0000
,
0001
0000
1001
0000
0000
0010
0100
0000
,
1100
1000
0110
0001
,
1001
0100
0001
1000
,
0010
0000
0010
0000
0100
0000
0010
0100
,
0000
0000
0001
0010
0000
0000
0100
0000
,
1000
0000
0010
0000
1000
0000
0001
0010
,
0000
0000
0100
0000
0000
0010
0000
0000
,
1001
0000
0000
1010
0000
0000
1001
0000
,
1000
0000
0101
0000
0000
0010
0100
0000
,
1010
1010
0101
0101
,
1001
1000
0100
0001
,
0100
0000
1000
0000
0010
0000
0000
0100
,
0000
0001
0000
0000
0010
0000
1000
0000
,
0010
0001
1000
0010
,
0100
0101
0010
0100
,
0010
0000
0001
0000
0001
0000
0000
1000
,
0000
1000
0010
0100
,
0010
0000
1000
0000
0100
0000
1000
0100
,
1000
0001
0010
0001
,
1000
0000
0010
0000
0100
0000
0000
0010
,
0000
0100
0000
0000
0001
0000
0010
0000
,
0100
1000
0001
0100
,
0001
1001
0100
0001
,
0100
0000
0010
0000
0100
0000
0000
1000
,
0000
0100
0010
0000
0100
0000
0010
0000
,
0100
0001
0001
1000
,
0010
1100
1000
0100
,
0010
0100
1000
0001
,
0010
1000
0010
0001
,
0100
0010
1000
0001
,
0010
1000
0010
0001
,
0100
0010
1000
0010
,
0001
0010
1000
0100
,
0010
0000
0001
0000
0000
0010
0000
0000
,
0010
0100
0010
0100
,
1000
0010
0100
0010
,
1000
0100
0010
1000
,
0010
0001
0100
0010
,
0001
0010
0100
0001
,
0010
0100
1000
0010
,
0100
0001
0001
0010
,
0010
0100
0100
1000
,
0010
0000
1000
0001
1000
0000
0001
1000
,
0001
0000
1000
0001
1000
0000
0001
1000
,
0001
0000
1000
0000
0010
0000
0100
0010
,
0100
0010
0100
0000
0010
0100
0010
0100
,
0000
0010
1000
0010
1000
0000
0010
1000
,
0010
0000
1000
0010
1000
0000
0010
1000
,
0010
0000
0100
0001
0100
0000
0001
0100
,
0001
0000
0100
0001
0100
0000
0001
0100
,
0001
0000
1000
0000
0100
0000
0010
0100
,
0000
0010
0001
0000
0010
0100
0000
1000
,
0010
0000
1000
0000
0010
0000
1000
0001
,
0000
0010
0100
0000
1000
0100
0000
0010
,
0001
0000
0010
0100
0010
0000
0001
1000
,
0000
0001
0100
0000
0001
0010
0000
0001
,
1000
0001
0100
0001
,
1000
0000
0010
1000
0010
0000
0100
0001
,
0100
1001
0000
0000
,
0000
0000
1000
0001
1000
0001
1000
0000
,
0001
1000
0100
0010
,
0001
1000
0010
0110
,
1001
0110
0001
0010
,
0100
1000
0010
0100
,
0000
0010
0000
1000
0000
0000
0001
0000
,
0010
0100
0010
0001
,
1000
1000
0010
0100
,
0001
0010
0100
0010
,
0100
0100
0010
0001
,
0100
0001
1000
0010
,
1000
0010
1000
0000
0010
0000
0100
0000
,
0001
0100
0001
1000
,
0000
0100
0000
0010
0000
0000
0100
0000
,
1000
0010
0100
0001
,
0010
0100
0010
0001
,
1000
0010
0100
0010
,
0000
1000
0000
0001
0000
0000
1000
0000
,
0100
0000
0010
0000
0100
0010
0100
0000
,
0001
1000
0001
0000
1001
0000
0000
0000
;

//---------------dance-single - ----------------
#NOTES:
     dance-single:
     :
     Beginner:
     6:
     0.247851,0.339360,0.184740,0.000000,0.000000,216.000000,193.000000,23.000000,0.000000,0.000000,0.000000,0.247851,0.339360,0.184740,0.000000,0.000000,216.000000,193.000000,23.000000,0.000000,0.000000,0.000000:
// measure 0
0000
0000
0000
0000
,  // measure 1
0001
0000
0010
0000
,  // measure 2
0001
0000
1000
0000
,  // measure 3
0010
0000
1000
0000
,  // measure 4
0001
0000
0100
0000
,  // measure 5
1001
0000
0000
0110
,  // measure 6
0000
0000
0000
1000
,  // measure 7
0100
0010
0100
0010
,  // measure 8
0001
0000
0110
0000
,  // measure 9
1001
0000
1000
0000
,  // measure 10
0001
0000
0010
0000
,  // measure 11
0100
0000
0010
0000
,  // measure 12
0001
0000
1000
0000
,  // measure 13
1001
0000
0000
0110
,  // measure 14
0100
0010
0000
1001
,  // measure 15
1001
0000
0000
0000
,  // measure 16
0110
0010
0000
0010
,  // measure 17
0000
1000
0000
0100
,  // measure 18
0000
0010
0000
0001
,  // measure 19
0000
0010
0000
0001
,  // measure 20
0000
1001
0000
1000
,  // measure 21
0000
0010
0000
1000
,  // measure 22
0000
0100
0000
0010
,  // measure 23
0000
0001
0000
1000
,  // measure 24
0001
1000
0000
0010
,  // measure 25
0000
0100
0000
0001
,  // measure 26
0000
1000
0000
0100
,  // measure 27
0000
0010
0000
0001
,  // measure 28
0000
1001
0000
1000
,  // measure 29
0000
0010
0000
0100
,  // measure 30
0000
0110
0000
0100
,  // measure 31
0000
0001
0000
0010
,  // measure 32
0001
0010
0000
0010
,  // measure 33
0000
0010
0000
0010
,  // measure 34
0000
0100
0000
0100
,  // measure 35
0000
0100
0000
0100
,  // measure 36
0000
1001
0000
1000
,  // measure 37
0000
1000
0000
1000
,  // measure 38
0000
0110
0000
0010
,  // measure 39
0000
0100
0000
0000
,  // measure 40
1001
1001
0000
1000
,  // measure 41
0000
1000
0000
1000
,  // measure 42
0000
0001
0000
0001
,  // measure 43
0000
0001
0000
0001
,  // measure 44
0000
0110
0000
0010
,  // measure 45
0000
0010
0000
0010
,  // measure 46
0000
0110
0000
0100
,  // measure 47
0000
0010
0100
0010
,  // measure 48
0000
1000
0001
1000
,  // measure 49
0001
1000
0001
1000
,  // measure 50
0001
1000
0010
0100
,  // measure 51
0010
0100
0000
0010
,  // measure 52
0000
0100
0010
0100
,  // measure 53
0010
0100
0010
0100
,  // measure 54
0010
1000
0001
1000
,  // measure 55
0001
1000
0001
1000
,  // measure 56
0001
1000
0000
0100
,  // measure 57
0000
0010
0000
0100
,  // measure 58
0000
1000
0000
0001
,  // measure 59
0000
0100
0000
0001
,  // measure 60
0000
0010
0000
0100
,  // measure 61
0000
1000
0000
0010
,  // measure 62
0000
0100
0000
0001
,  // measure 63
0000
1000
0001
1000
,  // measure 64
0001
1000
0000
0000
,  // measure 65
0000
1001
0000
0000
,  // measure 66
0000
1000
0100
1000
,  // measure 67
0000
0001
0000
0100
,  // measure 68
0000
1001
0001
0000
,  // measure 69
0010
0000
0100
0000
,  // measure 70
0010
0000
0001
0000
,  // measure 71
1000
0000
0010
0000
,  // measure 72
1000
0010
1000
0000
,  // measure 73
0001
0000
0100
0000
,  // measure 74
0001
0000
1000
0000
,  // measure 75
0100
0000
0010
0000
,  // measure 76
0001
0010
0001
0000
,  // measure 77
1000
0000
0010
0000
,  // measure 78
0100
0000
0001
0000
,  // measure 79
1000
0000
0100
0000
,  // measure 80
1000
1001
1001
0000
,  // measure 81
0001
0000
0010
0000
,  // measure 82
0100
0000
0010
0000
,  // measure 83
0100
0000
0010
0100
,  // measure 84
0010
0100
0110
0000
;
