#TITLE:Boss Challenge;
#SUBTITLE:Diddy Kong Racing;
#ARTIST:David Wise;
#TITLETRANSLIT:;
#SUBTITLETRANSLIT:;
#ARTISTTRANSLIT:;
#GENRE:;
#CREDIT:;
#BANNER:bn.png;
#BACKGROUND:bg.png;
#LYRICSPATH:;
#CDTITLE:;
#MUSIC:Boss_Challenge.ogg;
#OFFSET:-7.016002;
#SAMPLESTART:7.243000;
#SAMPLELENGTH:30.000000;
#SELECTABLE:YES;
#BPMS:0.000000=132.000000
;
#STOPS:
;
#BGCHANGES:;
#KEYSOUNDS:;
#ATTACKS:;

//---------------dance-single - ----------------
#NOTES:
     dance-single:
     :
     Challenge:
     18:
     1.069216,0.951243,0.314980,0.000000,1.833631,998.000000,956.000000,42.000000,0.000000,0.000000,0.000000,1.069216,0.951243,0.314980,0.000000,1.833631,998.000000,956.000000,42.000000,0.000000,0.000000,0.000000:
// measure 0
0000
0000
0000
0000
1000
0001
1000
0000
0100
0000
0010
0000
0001
0010
0001
0000
0010
0000
0001
0000
1000
0000
0010
0000
0100
0000
0001
0000
1000
0000
0010
0000
,  // measure 1
0100
0000
0001
0000
1000
0100
1000
0000
0100
0000
0010
0000
0100
0010
0100
0000
0010
0000
0001
0000
0010
0000
0100
0000
1000
0000
0001
0000
0010
0000
0100
0000
,  // measure 2
0010
0000
0001
0000
1000
0001
1000
0000
0001
0000
0100
0000
0001
0100
0001
0000
0100
0000
0010
0000
1000
0000
0010
0000
0001
0000
0010
0000
1000
0000
0010
0000
,  // measure 3
0001
0000
0010
0000
1000
0001
1000
0000
0100
0000
1000
0000
0100
1000
0100
0000
1000
0000
0001
0000
0100
0000
0001
0000
1000
0000
0010
0000
0100
0000
0001
0000
,  // measure 4
0000
0000
1000
0000
0001
0000
0010
0000
1000
0000
0010
0000
0001
0000
0100
0000
1000
0000
0100
0000
0001
1000
0001
0000
1000
0000
0010
0000
1000
0010
1000
0000
,  // measure 5
0100
0010
0000
0001
0010
0001
1000
0100
0001
0100
0000
0010
0001
1000
0010
0100
,  // measure 6
0000
0000
1000
0000
0100
0000
0001
0000
1000
0000
0100
0000
0001
0000
0100
0000
0010
0000
0001
0000
1000
0001
1000
0000
0001
0000
0100
0000
0001
0100
0001
0000
,  // measure 7
0100
0010
0110
0000
0000
0101
0000
0000
0110
0000
0000
0101
0000
0000
1001
0000
,  // measure 8
0101
0000
0110
0000
0010
0000
1000
0100
0010
0001
0000
0001
1000
0000
0001
0010
,  // measure 9
0100
0110
0000
0010
0001
0000
0010
1000
0010
0100
0000
1000
0010
0000
0100
0001
,  // measure 10
0010
0011
0001
1000
0001
0000
1000
0001
0100
0010
0000
0010
0100
0000
0001
1000
,  // measure 11
0001
1001
0000
0001
1000
0000
0001
0100
0001
1000
0000
0001
1000
0000
0001
0100
,  // measure 12
0001
0000
0010
0000
0001
1000
0001
0000
1000
0000
0010
0000
0001
0000
0010
0000
1000
0000
0001
0000
1000
0001
1000
0000
0100
0000
0001
0000
0100
0000
1000
0000
,  // measure 13
0010
0000
0100
0000
0001
0010
0001
0000
0010
0000
0100
0000
1000
0000
0010
0000
0100
0000
0001
0000
0010
0100
0010
0000
0100
0000
1000
0000
0010
0000
1000
0000
,  // measure 14
0001
0000
1000
0000
0010
0100
0010
0000
0100
0000
0001
0000
0100
0000
0010
0000
0100
0000
0001
0000
0010
0001
0010
0000
0001
0000
0010
0000
1000
0000
0010
0000
,  // measure 15
0100
0000
0010
0000
0100
1000
0100
0000
1000
0000
0100
0000
0010
0000
1000
0000
0010
0000
0001
0000
1000
0001
1000
0000
0001
0000
1000
0000
0100
0000
0010
0000
,  // measure 16
0001
0010
1000
0000
0010
0001
0000
0010
0000
0001
0000
0010
0100
0010
0100
1000
,  // measure 17
0000
0000
0010
0000
1000
0010
0000
0100
0000
1000
0000
0100
0001
0010
0001
0100
,  // measure 18
1000
0000
0100
0000
0010
1000
0000
0100
0000
1000
0000
0001
0010
0001
1000
0010
,  // measure 19
0000
0000
1000
0010
0001
1000
0100
0001
1000
0010
0001
1000
0100
0001
1000
0010
,  // measure 20
0001
0011
0000
0000
0100
0000
0001
0010
0001
0010
0000
0100
1000
0000
0010
1000
,  // measure 21
0010
1010
0000
1000
0100
0000
0001
0100
1000
0001
0000
0100
0010
0000
0010
0100
,  // measure 22
0001
0101
0100
0010
1000
0010
0001
1000
0100
0001
0010
0100
1000
0010
0001
0010
,  // measure 23
1000
1010
0010
1000
0010
0000
1000
0100
0010
0001
0000
0100
0001
0000
0100
0001
,  // measure 24
0100
0110
0010
1000
0010
1000
0100
0010
0000
0001
0000
0100
1000
0100
0010
0100
,  // measure 25
1000
0000
0100
0001
0010
0100
1000
0100
0000
0100
0000
0010
0100
1000
0100
0010
,  // measure 26
1000
0000
0010
0001
1000
0010
0001
0010
0100
1000
0100
0001
0010
1000
0001
0100
,  // measure 27
1000
0010
0001
0010
0100
1000
0100
0001
0100
0010
0000
0000
0110
0000
1100
0000
,  // measure 28
1001
0000
0101
0000
0100
0010
1000
0000
0010
1000
0100
0000
0010
0001
0100
0010
,  // measure 29
1000
0000
0100
0010
0001
0010
1000
0000
0010
0001
0010
0000
0100
1000
0100
0010
,  // measure 30
0001
0000
0100
0010
1000
0001
0100
0000
0010
1000
0001
0000
0010
0100
1000
0100
,  // measure 31
0001
0000
0100
0010
0001
1000
0100
0000
0010
0100
0000
0000
1000
0000
1000
0100
,  // measure 32
1000
0000
0001
0010
0100
0010
0001
0100
0000
0001
0000
1000
0010
0000
1000
0100
,  // measure 33
1000
1100
0100
1000
0100
1000
0100
0010
0000
0001
0000
0010
0001
0000
0010
0100
,  // measure 34
0010
0110
0100
0010
0001
1000
0001
0100
0000
0010
0000
1000
0010
0000
1000
0100
,  // measure 35
1000
1100
0100
0001
0100
1000
0100
0010
0000
0001
0000
0010
0100
0010
1000
0010
,  // measure 36
0001
0000
0010
0000
0001
1000
0001
0000
0010
0000
0100
0000
1000
0100
1000
0000
0100
0000
1000
0000
0001
0000
0100
0000
0010
0000
1000
0000
0001
0000
0100
0000
,  // measure 37
0010
0000
1000
0000
0001
0010
0001
0000
0010
0000
0100
0000
0010
0100
0010
0000
0100
0000
1000
0000
0100
0000
0010
0000
0001
0000
1000
0000
0100
0000
0010
0000
,  // measure 38
0100
0000
1000
0000
0001
1000
0001
0000
1000
0000
0010
0000
1000
0010
1000
0000
0010
0000
0100
0000
0001
0000
0100
0000
1000
0000
0100
0000
0001
0000
0100
0000
,  // measure 39
1000
0000
0100
0000
0001
1000
0001
0000
0010
0000
0001
0000
0010
0001
0010
0000
0001
0000
1000
0000
0010
0000
1000
0000
0001
0000
0100
0000
0010
0000
1000
0000
,  // measure 40
0000
0000
0001
0000
1000
0000
0100
0000
0001
0000
0100
0000
1000
0000
0010
0000
0001
0000
0010
0000
1000
0001
1000
0000
0001
0000
0100
0000
0001
0100
0001
0000
,  // measure 41
0010
0100
0000
1000
0100
1000
0001
0010
1000
0010
0000
0100
1000
0001
0100
0010
,  // measure 42
0000
0000
0001
0000
0010
0000
1000
0000
0001
0000
0010
0000
1000
0000
0010
0000
0100
0000
1000
0000
0001
1000
0001
0000
1000
0000
0010
0000
1000
0010
1000
0000
,  // measure 43
0010
0100
0110
0000
0000
1010
0000
0000
0110
0000
0000
1010
0000
0000
1001
0000
,  // measure 44
1010
0000
0110
0000
0100
0000
0001
0010
0100
1000
0000
1000
0001
0000
1000
0100
,  // measure 45
0010
0110
0000
0100
1000
0000
0100
0001
0100
0010
0000
0001
0100
0000
0010
1000
,  // measure 46
0100
1100
1000
0001
1000
0000
0001
1000
0010
0100
0000
0100
0010
0000
1000
0001
,  // measure 47
1000
1001
0000
1000
0001
0000
1000
0010
1000
0001
0000
1000
0001
0000
1000
0010
,  // measure 48
1000
0000
0100
0000
1000
0001
1000
0000
0001
0000
0100
0000
1000
0000
0100
0000
0001
0000
1000
0000
0001
1000
0001
0000
0010
0000
1000
0000
0010
0000
0001
0000
,  // measure 49
0100
0000
0010
0000
1000
0100
1000
0000
0100
0000
0010
0000
0001
0000
0100
0000
0010
0000
1000
0000
0100
0010
0100
0000
0010
0000
0001
0000
0100
0000
0001
0000
,  // measure 50
1000
0000
0001
0000
0100
0010
0100
0000
0010
0000
1000
0000
0010
0000
0100
0000
0010
0000
1000
0000
0100
1000
0100
0000
1000
0000
0100
0000
0001
0000
0100
0000
,  // measure 51
0010
0000
0100
0000
0010
0001
0010
0000
0001
0000
0010
0000
0100
0000
0001
0000
0100
0000
1000
0000
0001
1000
0001
0000
1000
0000
0001
0000
0010
0000
0100
0000
,  // measure 52
1000
0100
0001
0000
0100
1000
0000
0100
0000
1000
0000
0100
0010
0100
0010
0001
,  // measure 53
0000
0000
0100
0000
0001
0100
0000
0010
0000
0001
0000
0010
1000
0100
1000
0010
,  // measure 54
0001
0000
0010
0000
0100
0001
0000
0010
0000
0001
0000
1000
0100
1000
0001
0100
,  // measure 55
0000
0000
0001
0100
1000
0001
0010
1000
0001
0100
1000
0001
0010
1000
0001
0100
,  // measure 56
1000
1100
0000
0000
0010
0000
1000
0100
1000
0100
0000
0010
0001
0000
0100
0001
,  // measure 57
0100
0101
0000
0001
0010
0000
1000
0010
0001
1000
0000
0010
0100
0000
0100
0010
,  // measure 58
1000
1010
0010
0100
0001
0100
1000
0001
0010
1000
0100
0010
0001
0100
1000
0100
,  // measure 59
0001
0101
0100
0001
0100
0000
0001
0010
0100
1000
0000
0010
1000
0000
0010
1000
,  // measure 60
0010
0110
0100
0001
0100
0001
0010
0100
0000
1000
0000
0010
0001
0010
0100
0010
,  // measure 61
0001
0000
0010
1000
0100
0010
0001
0010
0000
0010
0000
0100
0010
0001
0010
0100
,  // measure 62
0001
0000
0100
1000
0001
0100
1000
0100
0010
0001
0010
1000
0100
0001
1000
0010
,  // measure 63
0001
0100
1000
0100
0010
0001
0010
1000
0010
0100
0000
0000
0110
0000
0011
0000
,  // measure 64
1001
0000
1010
0000
0010
0100
0001
0000
0100
0001
0010
0000
0100
1000
0010
0100
,  // measure 65
0001
0000
0010
0100
1000
0100
0001
0000
0100
1000
0100
0000
0010
0001
0010
0100
,  // measure 66
1000
0000
0010
0100
0001
1000
0010
0000
0100
0001
1000
0000
0100
0010
0001
0010
,  // measure 67
1000
0000
0010
0100
1000
0001
0010
0000
0100
0010
0000
0000
0001
0000
0001
0010
,  // measure 68
0001
0000
1000
0100
0010
0100
1000
0010
0000
1001
0000
0000
0000
0000
0000
0000
;

//---------------dance-single - ----------------
#NOTES:
     dance-single:
     :
     Hard:
     14:
     0.742452,0.796987,0.217486,0.014999,1.008685,693.000000,664.000000,29.000000,2.000000,0.000000,0.000000,0.742452,0.796987,0.217486,0.014999,1.008685,693.000000,664.000000,29.000000,2.000000,0.000000,0.000000:
0000
0000
1000
0100
1000
0000
0100
0010
0100
0000
0010
0000
0001
0000
0100
0000
,
0001
0000
1000
0010
1000
0000
0010
0100
0010
0000
0100
0000
0001
0000
0010
0000
,
0001
0000
1000
0010
1000
0000
0010
0100
0010
0000
0100
0000
0100
0000
0001
0000
,
0001
0000
0010
0100
0010
0000
0100
1000
0100
0000
1000
0000
0010
0000
1000
0000
,
0000
0100
0010
0000
0001
0000
0100
0000
0001
0000
0100
0010
0100
0000
0010
1000
,
0000
0010
0000
1000
0100
0000
0010
0001
0000
0010
0000
0001
0100
0000
0010
1000
,
0000
0010
1000
0000
0100
0000
1000
0000
0001
0000
0100
0001
0100
0000
0010
1000
,
0010
0000
1010
0000
0000
1010
0000
0000
0101
0000
0000
0101
0000
0000
0011
0000
,
0010
0000
0100
0000
1000
0000
0010
1000
0000
0010
0000
0100
0001
0000
0010
0001
,
0000
0110
0000
0100
1000
0000
0010
1000
0000
0010
0000
0100
0001
0000
0000
0001
,
0100
0010
0000
1000
0010
0000
1000
0000
0100
0010
0000
0001
0100
0000
0010
0000
,
0000
1010
0000
0100
0001
0000
0010
0001
0000
0100
0000
0001
1000
0000
0000
0100
,
0010
0001
1000
0100
0010
0000
0100
0010
0100
0000
0010
0000
0001
0000
0100
0000
,
0001
0000
1000
0010
1000
0000
0010
0100
0010
0000
0100
0000
0001
0000
0010
0000
,
0001
0000
0010
0100
1000
0000
0010
0000
1000
0000
0100
0010
0001
0000
0100
0000
,
0001
0000
1000
0100
1000
0000
0001
0100
0001
0000
0010
0001
0010
0000
0100
1000
,
0100
0000
1000
0000
0010
1000
0000
0010
0000
0100
0000
0001
0010
0000
0100
0010
,
0000
0000
1000
0000
0010
1000
0000
0010
0000
0100
0000
0010
0001
1000
0100
0010
,
0001
0000
0001
0000
1000
0010
0000
1000
0000
0010
0000
1000
0001
0000
0001
1000
,
0000
0000
1000
0000
1000
0100
0000
0100
0010
0000
0010
0001
0000
0001
1000
0000
,
0000
1001
0000
0000
1000
0000
0010
1000
0000
0001
0000
0100
0001
0000
0010
0000
,
0000
0110
0000
0000
1000
0000
0010
0100
0000
0001
0000
0010
0100
0000
0000
1000
,
0001
0100
0000
0010
1000
0000
1000
0000
0001
0100
0000
0010
1000
0000
0100
0000
,
0000
0110
0000
0000
0010
0000
0001
0100
0000
0010
0000
1000
0010
0000
0000
1000
,
0010
1000
0100
0000
0010
0001
0010
0001
0000
0010
0000
0001
0010
0000
0100
0010
,
0100
0000
1000
0000
0010
1000
0010
0100
0000
0001
0000
0010
0001
0000
0100
0000
,
0010
0000
1000
0000
0100
0010
0001
0000
0100
0001
1000
0000
0100
1000
0001
0000
,
0100
0000
0001
0000
1000
0010
0100
0010
0000
1000
0000
0000
1010
0000
0110
0000
,
0101
0000
0011
0000
0000
0010
0001
0000
0000
0001
0100
0000
0000
0100
0010
0000
,
0000
0010
1000
0000
0000
1000
0100
0000
0000
0100
0010
0000
0000
0010
0001
0000
,
0000
0001
1000
0000
0000
1000
0010
0000
0000
0010
0100
0000
0000
0100
1000
0000
,
0000
0100
0001
0000
0000
0001
0010
0000
0000
0020
0000
0000
0130
0000
1000
0010
,
1000
0000
0010
0000
0100
0000
0001
0010
0000
0100
0000
0010
0001
0000
1000
0000
,
0010
0000
1000
0010
1000
0000
0010
0100
0000
0100
0000
0001
0010
0000
0100
0000
,
0010
0000
0001
0000
1000
0000
0010
1000
0000
0010
0000
0100
0010
0000
1000
0000
,
0001
0000
0010
0000
0100
0000
0010
0100
0000
0010
0000
0001
0100
0000
0001
0000
,
1000
0000
0010
1000
0010
0000
0100
0010
0100
0000
0001
0000
0010
0000
0001
0000
,
1000
0000
0010
1000
0010
0000
0100
0001
0100
0000
0001
0000
1000
0000
0100
0000
,
1000
0000
0001
0100
0001
0000
1000
0100
1000
0000
0010
0000
0100
0000
1000
0000
,
0100
0000
0001
0010
0001
0000
0010
0100
0010
0000
0100
0000
1000
0000
0010
0000
,
0000
0100
0010
0000
0100
0000
0001
0000
0010
0000
1000
0010
0100
0000
1000
0010
,
0000
0100
0000
0010
1000
0000
0010
0000
0010
1000
0000
1000
0001
0000
0010
0001
,
0000
0001
0100
0000
1000
0000
0100
0000
0010
0000
1000
0010
1000
0000
0001
1000
,
0001
0000
0011
0000
0000
0110
0000
0000
0011
0000
0000
0110
0000
0000
1100
0000
,
1000
0000
0001
0000
0100
0000
0001
1000
0000
0010
0000
1000
0010
0000
0100
0000
,
0000
0110
0000
0001
0010
0000
0010
0001
0000
1000
0000
1000
0010
0000
1000
0010
,
0100
0010
0000
0100
0001
0000
0010
0000
0001
0010
0000
0100
1000
0000
0010
0000
,
0000
1010
0000
0000
0100
0000
0010
1000
0000
0010
0000
1000
0001
0000
0000
1000
,
0001
0010
0100
1000
0010
0000
1000
0001
0010
0000
0100
0000
0001
0000
0100
0000
,
1000
0000
0010
0100
1000
0000
0100
0010
1000
0000
0100
0000
0001
0000
1000
0000
,
0010
0000
0001
1000
0010
0000
1000
0000
0001
0000
0100
0001
0100
0000
0001
0000
,
0001
0000
0010
0100
1000
0000
0010
0100
0010
0000
1000
0001
1000
0000
0001
0000
,
0100
0000
0001
0000
0010
0100
0000
1000
0000
0010
0000
1000
0010
0000
0100
0010
,
0000
0000
0100
0000
0001
0010
0000
0100
0000
1000
0000
0001
0100
0001
1000
0100
,
0010
0000
1000
0000
0010
0100
0000
0010
0000
0001
0000
0100
0001
1000
0001
0100
,
0000
0000
0001
0000
0001
0010
0000
0010
1000
0000
1000
0010
0000
0010
0001
0000
,
0000
1001
0000
0000
0010
0000
0100
0010
0000
1000
0000
0010
1000
0000
0100
0000
,
0000
0101
0000
0100
0001
0000
1000
0010
0000
1000
0000
0010
0100
0000
0001
0010
,
0100
0010
0000
0001
1000
0000
0010
0000
1000
0010
0000
0100
0010
0000
1000
0000
,
0000
1010
0000
1000
0100
0000
0100
0001
0000
0100
0000
1000
0100
0000
0000
0100
,
1000
0100
0010
0001
0010
0001
1000
0100
0000
1000
0000
0010
0100
0000
0010
1000
,
0010
0000
1000
0010
0100
0001
0010
0001
0000
0100
0000
0001
1000
0010
0100
0001
,
0010
0000
0100
0010
0001
0010
0100
0010
0001
0010
0100
1000
0100
0010
0100
1000
,
0100
0000
0010
0100
1000
0010
0100
0010
1000
0001
0000
0000
0110
0000
1001
0000
,
0110
0000
1001
0000
0000
1000
0010
0000
0000
0010
0100
0000
0000
0100
0001
0000
,
0000
0001
0010
0000
0000
0010
0100
0000
0000
0100
1000
0000
0000
1000
0010
0000
,
0000
0010
0001
0000
0000
0010
1000
0000
0000
0010
1000
0000
0000
0100
0010
0000
,
0000
0100
0001
0000
0000
0100
1000
0000
0000
0002
0000
0000
0103
0000
0001
1000
,
0100
0000
0010
0100
1000
0010
0100
0001
0000
0110
0000
0000
0000
0000
0000
0000
;

//---------------dance-single - ----------------
#NOTES:
     dance-single:
     :
     Medium:
     10:
     0.500325,0.459814,0.224985,0.014999,0.326229,467.000000,437.000000,30.000000,2.000000,0.000000,0.000000,0.500325,0.459814,0.224985,0.014999,0.326229,467.000000,437.000000,30.000000,2.000000,0.000000,0.000000:
0000
1000
0001
0010
0001
1000
0010
1000
,
0000
0100
0010
0100
0010
0001
1000
0001
,
0000
1000
0010
1000
0010
0100
0001
0100
,
0000
0001
0010
0001
0010
0100
1000
0010
,
0000
1000
0001
0010
0100
1000
0000
0010
,
0000
1000
0000
0000
0100
0000
0010
0000
0000
0001
0000
0000
1000
0000
0010
0000
,
1000
0100
0010
0001
1000
0010
1000
0100
,
0010
0000
0011
0000
0000
1000
0000
0000
1010
0000
0000
1000
0000
0000
0101
0000
,
1000
0000
0100
0000
0000
0000
1000
0000
0000
0010
0000
0000
1000
0000
0100
0000
,
0000
0011
0000
0000
0100
0000
0001
0000
0000
1000
0000
0000
0010
0000
0000
0100
,
0000
0110
0000
0000
0010
0000
0001
0000
0000
0100
0000
0000
0010
0000
1000
0000
,
0000
1100
0000
0000
1000
0000
0001
0000
0000
0010
0000
0000
0100
0000
1000
0000
,
0000
0010
1000
0100
0010
0001
0100
0001
,
0000
1000
0010
1000
0010
0100
0001
0010
,
0000
0001
0010
0100
0000
0010
0100
1000
,
0000
0010
1000
0010
0100
0001
1000
0100
,
0000
0000
0010
0000
0000
0100
0000
1000
0000
0010
0000
0000
1000
0000
0001
0000
,
0000
0000
0100
0000
0000
0010
0000
1000
0000
0100
0000
0000
0100
0000
0010
0000
,
0001
0000
1000
0000
0000
0010
0000
1000
0000
0100
0000
0000
0010
0000
0000
0001
,
0000
0000
1000
0000
0000
0100
0000
0000
0010
0000
0000
0001
0000
0000
1000
0000
,
0000
1001
0000
0000
1000
0000
0100
0000
0000
0010
0000
0000
0001
0000
1000
0000
,
0000
1001
0000
0000
1000
0000
0010
0000
0000
1000
0000
0000
0100
0000
0000
0010
,
0000
0011
0000
0000
1000
0000
0001
0000
0000
1000
0000
0000
0010
0000
0100
0000
,
0000
1100
0000
0000
1000
0000
0100
0000
0000
0010
0000
0000
0001
0000
0000
0100
,
0000
0110
0000
0000
1000
0000
0100
0000
0000
0010
0000
0000
0001
0000
0100
0000
,
0001
0000
1000
0000
0010
0000
1000
0000
0000
0010
0000
0000
0100
0000
1000
0000
,
0000
0100
0001
0010
1000
0010
0100
1000
,
0010
0000
0100
0000
1000
0000
0100
0000
0000
0010
0000
0000
1000
0000
0100
0000
,
0010
0001
0000
0010
0000
0011
0000
1000
,
0000
1010
0000
0100
0000
0011
0000
0100
,
0000
0000
0010
0000
0000
1000
0100
0000
0000
0000
0010
0000
0000
0001
0100
0000
,
0000
0000
0010
0000
0000
1000
0100
0000
0000
0020
0000
0000
0031
0000
1000
0000
,
0010
0000
1000
0000
0100
0000
0010
0000
0000
0001
0000
0000
1000
0000
0010
0000
,
0100
0000
0010
0000
1000
0000
0001
0000
0000
0010
0000
0000
0100
0000
1000
0000
,
0010
0000
0100
0000
1000
0000
0100
0000
0000
0001
0000
0000
0010
0000
0100
0000
,
0010
0000
1000
0000
0010
0000
0001
0000
0000
1000
0000
0000
0010
0000
0000
0100
,
0000
0110
0000
0000
1000
0000
0100
0000
0010
0000
0001
0000
0100
0000
0010
0000
,
1000
0100
0010
0001
1000
0010
0100
0001
,
0000
0001
0010
0100
1000
0010
0100
0001
,
1000
0100
1000
0001
0100
0010
1000
0001
,
0000
0001
0010
0100
1000
0010
0000
1000
,
0000
0001
0000
0000
0010
0000
0100
0000
0000
1000
0000
0000
0001
0000
0010
0000
,
0000
0010
0100
1000
0010
1000
0001
0100
,
0001
0000
0011
0000
0000
1000
0000
0000
1010
0000
0000
0100
0000
0000
0101
0000
,
1000
0000
0010
0000
0000
0000
1000
0000
0000
0010
0000
0000
1000
0000
0100
0000
,
0000
0011
0000
0000
0100
0000
0001
0000
0000
1000
0000
0000
0010
0000
0000
0100
,
0000
1100
0000
0000
0010
0000
0001
0000
0000
0100
0000
0000
0010
0000
1000
0000
,
0000
1001
0000
0000
1000
0000
0100
0000
0000
0010
0000
0000
0100
0000
0000
0000
,
0000
1000
0010
1000
0010
1000
0001
0010
,
0001
0100
0001
0010
0100
0010
0100
1000
,
0000
1000
0100
0001
0100
1000
0010
0001
,
0010
1000
0001
0100
0001
0010
0100
1000
,
0010
0000
1000
0000
0000
0001
0000
0010
0000
0100
0000
0000
1000
0000
0010
0000
,
0000
0000
1000
0000
0000
0001
0000
0010
0000
0100
0000
0000
1000
0000
0010
0000
,
0100
0000
0001
0000
0000
1000
0000
0100
0000
0010
0000
0000
0100
0000
0000
1000
,
0000
0000
1000
0000
0000
0001
0000
0000
0010
0000
0000
0100
0000
0000
1000
0000
,
0000
1010
0000
0000
1000
0000
0001
0000
0000
0100
0000
0000
0001
0000
0010
0000
,
0000
1100
0000
0000
1000
0000
0010
0000
0000
0100
0000
0000
0001
0000
0000
0010
,
0000
0110
0000
0000
1000
0000
0010
0000
0000
1000
0000
0000
0010
0000
0100
0000
,
0000
0011
0000
0000
0010
0000
0100
0000
0000
1000
0000
0000
0010
0000
0000
0000
,
1000
0000
0100
0000
0010
0000
0001
0000
0000
1000
0000
0000
0100
0000
1000
0000
,
0010
0000
0100
0000
1000
0000
0100
0000
0000
0001
0000
0000
0010
0000
0100
0000
,
0000
1000
0100
0010
0100
0001
0100
0010
,
0001
0100
0010
0100
1000
0100
0010
1000
,
0100
0010
0000
0011
0000
0010
0000
0101
,
0000
1000
0000
1010
0000
0100
0000
0011
,
0000
0000
0100
0000
0000
0010
1000
0000
0000
0000
0100
0000
0000
0010
0100
0000
,
0000
0000
0010
0000
0000
0001
1000
0000
0000
0020
0000
0000
1030
0000
0100
0000
,
0010
1001
0000
0000
0000
0000
0000
0000
;

//---------------dance-single - ----------------
#NOTES:
     dance-single:
     :
     Easy:
     7:
     0.319265,0.383178,0.254983,0.000000,0.000000,298.000000,264.000000,34.000000,0.000000,0.000000,0.000000,0.319265,0.383178,0.254983,0.000000,0.000000,298.000000,264.000000,34.000000,0.000000,0.000000,0.000000:
0000
1000
0000
0100
0000
0001
0000
0100
,
0000
1000
0000
0010
0000
0100
0000
1000
,
0000
0100
0000
0010
0000
1000
0000
0001
,
0000
0010
0000
0100
0000
0001
0000
0100
,
0000
0010
0000
0001
0000
1000
0000
0010
,
0000
0010
0000
0010
0000
1000
0000
1000
,
0000
0001
0000
0001
0000
0010
0000
0010
,
0000
0100
0000
0000
0010
0000
0000
0100
,
0000
0110
0000
1000
0000
0010
0000
1000
,
0000
0011
0000
0100
0000
0010
0000
1000
,
0000
1100
0000
1000
0000
0010
0000
0100
,
0000
0011
0000
0100
0000
0001
0000
1000
,
0000
1010
0000
1000
0000
0100
0000
0010
,
0000
0001
0000
0100
0000
0010
0000
1000
,
0000
0010
0000
0100
0000
1000
0000
0100
,
0000
0001
0000
0010
0000
1000
0000
0010
,
0000
0001
0000
1000
0000
0000
0000
0010
,
0000
0000
0000
1000
0000
0000
0000
0001
,
0000
0000
0000
0010
0000
0000
0000
0100
,
0000
1000
0000
0000
0100
0000
0000
0010
,
0000
0011
0000
1000
0000
0010
0000
1000
,
0000
0110
0000
0010
0000
0001
0000
1000
,
0000
1010
0000
1000
0000
0001
0000
0100
,
0000
0101
0000
1000
0000
0010
0000
1000
,
0000
0100
0000
0010
0000
0001
0000
1000
,
0000
0010
0000
0100
0000
0001
0000
0010
,
0000
1000
0000
0010
0000
0100
0000
0010
,
0000
0001
0000
1000
0000
0010
0000
1000
,
0000
0100
0000
0010
0000
0001
0000
0100
,
0000
0010
0000
1000
0000
0100
0000
1000
,
0000
0101
0000
1100
0000
1010
0000
0011
,
0000
0101
0000
1100
0000
1000
0000
0010
,
0000
1000
0000
0100
0000
0010
0000
0001
,
0000
1001
0000
1000
0000
0010
0000
1000
,
0000
0110
0000
0010
0000
0001
0000
1000
,
0000
1010
0000
1000
0000
0100
0000
0010
,
0000
0101
0000
1000
0000
0010
0000
1000
,
0000
0001
0000
1000
0000
0100
0000
0001
,
0000
0100
0000
0010
0000
0001
0000
1000
,
0000
0010
0000
0100
0000
1000
0000
0100
,
0000
0010
0000
1000
0000
0100
0000
0010
,
0000
0001
0000
1000
0000
0010
0000
1000
,
0000
0100
0000
0010
0000
0001
0000
0100
,
0000
0101
0000
0000
1010
0000
0000
1100
,
0000
0010
0000
0001
0000
0100
0000
0010
,
0000
1100
0000
0010
0000
0001
0000
1000
,
0000
1010
0000
1000
0000
0001
0000
0010
,
0000
0110
0000
0010
0000
0001
0000
1000
,
0000
0010
0000
1000
0000
0100
0000
0001
,
0000
0100
0000
1000
0000
0010
0000
0100
,
0000
0001
0000
0010
0000
1000
0000
0010
,
0000
0001
0000
0100
0000
1000
0000
0100
,
0000
0001
0000
0010
0000
0100
0000
1000
,
0000
0010
0000
1000
0000
0010
0000
0100
,
0000
1000
0000
0100
0000
0100
0000
0010
,
0000
1000
0000
0000
0100
0000
0000
0010
,
0000
0011
0000
0010
0000
0001
0000
1000
,
0000
1010
0000
1000
0000
0100
0000
0010
,
0000
0110
0000
0010
0000
0001
0000
1000
,
0000
1010
0000
1000
0000
0100
0000
0010
,
0000
0001
0000
0100
0000
0010
0000
1000
,
0000
0100
0000
0010
0000
0001
0000
0010
,
0000
0001
0000
0100
0000
0010
0000
1000
,
0000
0100
0000
1000
0000
0001
0000
0100
,
0000
0101
0000
1000
0000
0010
0000
1000
,
0000
0100
0000
0010
0000
0001
0000
1000
,
0000
1010
0000
1000
0000
0011
0000
0010
,
0000
1100
0000
0001
0000
0100
0000
0001
,
0000
1001
0000
0000
0000
0000
0000
0000
;

//---------------dance-single - ----------------
#NOTES:
     dance-single:
     :
     Beginner:
     4:
     0.155347,0.204362,0.194987,0.089994,0.000000,145.000000,119.000000,26.000000,12.000000,0.000000,0.000000,0.155347,0.204362,0.194987,0.089994,0.000000,145.000000,119.000000,26.000000,12.000000,0.000000,0.000000:
0000
1000
0000
0000
0000
0001
0000
0000
,
0000
1000
0000
0000
0000
0010
0000
0000
,
0000
1000
0000
0000
0000
0001
0000
0000
,
0000
0100
0000
0000
0000
0001
0000
0000
,
0000
1000
0000
0000
0000
0010
0000
0000
,
0000
1000
0000
0000
0000
0001
0000
0000
,
0000
0010
0000
0000
0000
0100
0000
0000
,
0000
0220
0000
0000
0000
0000
0000
0000
,
0000
0330
0000
0000
0000
1000
0000
0000
,
0000
0101
0000
0000
0000
1000
0000
0000
,
0000
1010
0000
0000
0000
0001
0000
0000
,
0000
0011
0000
0000
0000
1000
0000
0000
,
0000
0010
0000
0000
0000
1000
0000
0000
,
0000
0001
0000
0000
0000
0100
0000
0000
,
0000
0010
0000
0000
0000
1000
0000
0000
,
0000
0001
0000
0000
0000
0010
0000
0000
,
0000
1001
0000
0000
0000
1000
0000
0000
,
0000
0010
0000
0000
0000
1000
0000
0000
,
0000
0001
0000
0000
0000
0100
0000
0000
,
0000
0220
0000
0000
0000
0000
0330
0000
,
0000
0110
0000
0000
0000
1000
0000
0000
,
0000
1001
0000
0000
0000
0010
0000
0000
,
0000
0011
0000
0000
0000
0100
0000
0000
,
0000
1010
0000
0000
0000
1000
0000
0000
,
0000
0100
0000
0000
0000
0010
0000
0000
,
0000
0001
0000
0000
0000
1000
0000
0000
,
0000
0010
0000
0000
0000
1000
0000
0000
,
0000
0100
0000
0000
0000
1000
0000
0000
,
0000
2002
0000
0000
0000
3003
0000
0000
,
0000
0000
0000
0000
,
0000
0000
0000
0000
,
0000
0000
0000
0000
,
0000
0001
0000
0000
0000
0010
0000
0000
,
0000
0100
0000
0000
0000
1000
0000
0000
,
0000
0010
0000
0000
0000
1000
0000
0000
,
0000
0001
0000
0000
0000
0010
0000
0000
,
0000
1100
0000
0000
0000
0010
0000
0000
,
0000
1000
0000
0000
0000
0100
0000
0000
,
0000
0010
0000
0000
0000
0001
0000
0000
,
0000
1000
0000
0000
0000
0001
0000
0000
,
0000
1000
0000
0000
0000
0010
0000
0000
,
0000
1000
0000
0000
0000
0001
0000
0000
,
0000
0010
0000
0000
0000
0001
0000
0000
,
0000
2002
0000
0000
0000
0000
0000
3003
,
0000
1001
0000
0000
0000
1000
0000
0000
,
0000
1010
0000
0000
0000
0100
0000
0000
,
0000
0101
0000
0000
0000
0010
0000
0000
,
0000
0110
0000
0000
0000
1000
0000
0000
,
0000
1010
0000
0000
0000
0010
0000
0000
,
0000
0100
0000
0000
0000
0100
0000
0000
,
0000
0001
0000
0000
0000
1000
0000
0000
,
0000
0010
0000
0000
0000
1000
0000
0000
,
0000
0100
0000
0000
0000
0010
0000
0000
,
0000
0100
0000
0000
0000
0010
0000
0000
,
0000
0100
0000
0000
0000
0010
0000
0000
,
0000
2002
0000
0000
0000
0000
0000
3003
,
0000
1001
0000
0000
0000
1000
0000
0000
,
0000
1010
0000
0000
0000
1000
0000
0000
,
0000
1001
0000
0000
0000
0001
0000
0000
,
0000
0101
0000
0000
0000
0100
0000
0000
,
0000
0110
0000
0000
0000
1000
0000
0000
,
0000
0010
0000
0000
0000
1000
0000
0000
,
0000
0100
0000
0000
0000
0010
0000
0000
,
0000
0001
0000
0000
0000
1000
0000
0000
,
0000
2002
0000
0000
0000
0000
3003
0000
,
0000
0000
0000
0000
,
0000
0000
0000
0000
,
0000
0000
0000
0000
0000
0010
0000
0000
,
0000
1001
0000
0000
0000
0000
0000
0000
;
