#TITLE:Battle with Magus;
#SUBTITLE:Chrono Trigger;
#ARTIST:光田康典;
#TITLETRANSLIT:;
#SUBTITLETRANSLIT:;
#ARTISTTRANSLIT:Yasunori Mitsuda;
#GENRE:;
#CREDIT:;
#BANNER:bn.jpg;
#BACKGROUND:bg.jpg;
#LYRICSPATH:;
#CDTITLE:;
#MUSIC:Battle_with_Magus.ogg;
#OFFSET:-0.590000;
#SAMPLESTART:24.488989;
#SAMPLELENGTH:30.000000;
#SELECTABLE:YES;
#BPMS:0.000000=119.879997
,44.000000=238.539993
,189.000000=241.020020
,237.000000=238.520004
,261.000000=119.879997
,289.000000=238.520004
;
#STOPS:44.000000=1.586000,
289.000000=1.650000
;
#BGCHANGES:;
#KEYSOUNDS:;
#ATTACKS:;

//---------------dance-single - ----------------
#NOTES:
     dance-single:
     :
     Hard:
     11:
     0.391058,0.475089,0.102420,0.316571,0.046555,294.000000,283.000000,11.000000,34.000000,0.000000,0.000000,0.391058,0.475089,0.102420,0.316571,0.046555,294.000000,283.000000,11.000000,34.000000,0.000000,0.000000:
0000
0000
0000
0000
,
0000
0000
0000
0000
,
0000
0000
0000
0000
,
0000
0000
0000
0000
0000
0000
0000
0000
0000
0000
0000
0000
0000
0000
0000
0002
,
0000
0000
0000
0000
,
0020
0000
0000
0000
0000
0000
0000
0000
0003
0000
0200
0000
0000
0030
0000
2000
,
0000
0000
0000
0000
0000
0000
0000
0300
,
0020
0000
0000
3000
0000
2000
0000
0000
0030
0000
0200
0000
0000
3000
0000
0020
,
0000
0000
0000
0000
0000
0000
0000
0000
0000
0000
0000
0000
0000
0300
0000
0002
,
0000
0000
0000
0000
0000
0000
0000
0030
0000
2000
0000
0000
0000
0003
0000
0020
,
0000
0000
0000
0000
,
0000
3030
0010
1000
0000
1000
0010
0000
,
1000
0000
0001
0000
0100
0000
0001
0010
,
0000
0010
0001
0000
1000
0000
0010
0000
,
1000
0000
0010
0100
0000
0100
0010
0000
,
1000
0000
0001
0000
1000
0000
0100
0010
,
0000
0010
0100
0000
0010
0000
0001
0000
,
0100
0000
0010
1000
0000
1000
0010
0000
,
0100
0000
0001
0000
0010
0000
0001
1000
,
0000
1000
0001
0000
0010
0000
0001
0000
,
0100
0000
0010
1000
0000
1000
0010
0000
,
0001
0000
0010
0000
1000
0000
0001
1000
,
0000
1000
0001
0000
0100
0000
0001
0000
,
0010
0000
0001
0100
0000
0100
0001
0000
,
1000
0000
0010
0000
0100
0000
0001
0100
,
0000
0100
0001
0000
0010
0000
0100
0000
,
0010
0000
0001
0100
0000
0100
0001
0000
,
1000
0000
0001
0000
1000
0000
0010
0100
,
0000
0100
0010
0000
1000
0000
0010
0000
,
1000
0000
0100
0010
0000
0010
0100
0000
,
0010
0000
0001
0000
1000
0000
0010
1000
,
0000
1000
0010
0000
0100
0000
0010
0000
,
0100
0000
0001
0010
0000
0010
0001
0000
,
0100
0000
0001
0000
1000
0000
0100
1000
,
0000
1000
0100
0000
0001
0000
0100
0000
,
1000
0000
0001
0000
1000
0010
0000
0100
,
0000
0010
1000
0000
1000
0000
0100
0000
,
0010
0001
0000
0100
0000
0001
0100
0000
,
0010
0000
1000
0000
0010
0100
0000
0001
,
0000
0100
0010
0000
1000
0000
0001
0000
,
0010
0100
0000
0010
0000
0001
1000
0000
,
0010
0000
1001
0000
0010
0100
0000
0001
,
0000
0100
0010
0000
0010
0000
0100
0000
,
0010
1000
0000
0010
0000
0100
0001
0000
,
0010
0000
1000
0000
0010
0100
0000
0010
,
0000
0001
0100
0000
0010
0000
0100
0000
,
0010
1000
0000
0100
0000
0010
0001
0000
,
0100
0000
1001
0000
1000
0100
0000
0010
,
0000
0100
0010
0000
0110
0000
0101
0000
,
0010
0001
0000
0001
0000
0100
0001
2000
,
0000
0000
3010
0000
1000
0010
0000
0100
,
0000
0010
1000
0000
0110
0000
0101
0000
,
0010
0100
0000
0100
0000
0001
0010
0002
,
0000
0000
0103
0000
1000
0100
0000
0010
,
0000
0010
0100
0000
0011
0000
1100
0000
,
0100
0010
0000
0001
0000
0001
0010
0200
,
0000
0000
1300
0000
1000
0100
0000
0010
,
0000
0010
0100
0000
1001
0000
0110
0000
,
0001
0100
0000
0100
0000
0001
0010
0200
,
0000
0320
0000
0230
,
0000
2300
0000
3020
,
0000
0230
0000
0320
,
0000
2030
0000
0000
,
0000
0000
0000
0200
,
0000
0000
0000
0000
,
3300
0002
0000
0000
,
0000
0000
0000
0000
0020
0000
0000
0000
0000
0000
0000
0000
0000
0003
0200
0000
,
0030
2000
0000
0000
,
0000
0000
0000
0300
3020
0000
0000
0000
0000
2000
0000
0000
0000
0030
0200
0000
,
0000
0000
3000
0020
0000
0000
0000
0000
0000
0000
0000
0000
0000
0000
0000
0000
,
0000
0300
0002
0000
0000
0000
0030
2003
,
0000
0000
0000
0020
0000
0000
0000
0000
0000
0000
0000
0000
0000
0000
0000
0000
,
0000
0000
0000
3030
0010
1000
0000
1000
,
0010
0100
0001
1000
,
0100
0010
0000
0010
0100
0000
1000
0000
,
0001
0000
0100
0000
0010
1000
0000
1000
,
0010
0100
0001
0100
,
0001
1000
0000
1000
0001
0000
1000
0000
,
0010
0100
1001
0000
;

//---------------dance-single - ----------------
#NOTES:
     dance-single:
     :
     Challenge:
     14:
     0.502789,0.694360,0.297949,0.335192,0.135008,378.000000,346.000000,32.000000,36.000000,0.000000,0.000000,0.502789,0.694360,0.297949,0.335192,0.135008,378.000000,346.000000,32.000000,36.000000,0.000000,0.000000:
0000
0000
0000
0000
,
0000
0000
0000
0000
,
0000
0000
0000
0000
,
0000
0000
0000
0000
0000
0000
0000
0000
0000
0000
0000
0000
0000
0000
0000
0002
,
0000
0000
0000
0000
,
0020
0000
0000
0000
0000
0000
0000
0000
0003
0000
0200
0000
0000
0030
0000
2000
,
0000
0000
0000
0000
0000
0000
0000
0300
,
0020
0000
0000
3000
0000
2000
0000
0000
0030
0000
0200
0000
0000
3000
0000
0020
,
0000
0000
0000
0000
0000
0000
0000
0000
0000
0000
0000
0000
0000
0300
0000
0002
,
0000
0000
0000
0000
0000
0000
0000
0000
0000
0000
0000
0000
0000
0000
0030
0000
0000
0000
2000
0000
0000
0000
0000
0000
0000
0000
3003
0000
0000
0000
0010
0200
,
0020
0000
0000
0000
,
0000
0330
0001
0100
0000
1000
0100
0000
,
0001
0010
0100
0010
0001
0000
0100
1000
,
0000
0100
0001
0000
1000
0010
0100
0010
,
1000
0000
0010
1000
0000
0010
0001
0000
,
0010
1000
0100
0010
0001
0000
0010
1000
,
0000
0010
0001
0000
0100
1000
0100
0001
,
0010
0000
0100
0001
0000
0100
1000
0000
,
0100
0010
1000
0010
0100
0000
0100
1000
,
0000
0010
1000
0000
0001
0100
0010
0100
,
0001
0000
0010
0100
0000
0010
0100
0000
,
0010
0001
0100
0010
1000
0000
0010
1000
,
0000
0010
0001
0000
0011
0000
0110
0000
,
1001
0000
0000
0000
0000
0000
0001
0000
0000
1000
0000
0000
0000
0000
0000
1000
0000
0000
0100
0000
0010
0000
0001
0000
,
0010
0100
0010
0100
1000
0000
1000
0010
,
0000
0000
0000
0001
0000
0000
0010
0000
1000
0000
0100
0000
0010
0000
0000
0001
0000
0000
1000
0000
0000
0100
0000
0000
,
0010
0000
0010
0001
0000
0100
0001
0000
,
1000
0100
0001
0100
1000
0000
0010
0100
,
0000
0000
0000
0100
0000
0000
0010
0000
1000
0000
0100
0000
0010
0000
0000
0001
0000
0000
1000
0000
0000
0100
0000
0000
,
0010
0000
0100
0000
1000
0000
0001
0000
0000
1000
0000
0000
0000
0000
0000
1000
0000
0000
0100
0000
1000
0000
0001
0000
,
0010
0100
1000
0010
0100
0000
0001
0010
,
0000
0000
0000
0100
0000
0000
1000
0000
0100
0000
0010
0000
0100
0000
0000
0010
0000
0000
0001
0000
0000
1000
0000
0000
,
0100
1000
0100
0010
0000
0010
0100
0000
,
1000
0100
0010
0001
0010
0000
0100
0010
,
0000
0010
0001
0000
0100
0001
0010
0001
,
0100
0000
1010
0000
0100
0010
0000
1000
,
0000
0001
1000
0000
0100
0000
0101
0000
,
0001
0100
0000
1000
0000
0010
0001
0000
,
0010
0000
1010
0000
0100
0010
0000
1000
,
0000
0000
0000
0010
0000
0000
0100
0000
0000
0001
0000
0000
1000
0000
0100
0000
0010
0000
0100
0000
0000
1000
0000
0000
,
0000
0000
0000
0100
0000
0000
0010
0000
0000
0001
1000
0001
1000
0000
0000
0001
0000
0000
0010
0000
0000
0000
0000
0000
,
0100
0000
0010
0000
0100
0000
0010
0000
0000
0000
0000
0000
0100
0000
0000
1000
0000
0000
0000
0000
0000
0010
0000
0000
,
0000
0100
0001
0000
1000
0000
0110
0000
,
1000
0010
0000
1000
0000
0001
0010
0000
,
0100
0000
1001
0000
0100
0010
0000
1000
,
0000
0010
1000
0000
0100
0000
0011
0000
,
0100
0001
0000
0100
0000
0001
1000
0000
,
0001
0000
1001
0000
1000
0010
0000
0100
,
0000
0010
1000
0000
1010
0000
0110
0000
,
0100
0010
0000
0100
0000
0001
0010
0200
,
0000
0300
0011
0000
1000
0100
0000
1000
,
0000
0010
0100
0000
0110
0000
0101
0000
,
1000
0001
0000
1000
0000
0100
0110
0020
,
0000
0000
0031
0000
0100
0010
0000
1000
,
0000
0010
1000
0000
1001
0000
1001
0000
,
1001
1000
0000
0001
0000
0010
0100
0020
,
0000
0030
1001
0000
0010
0100
0000
1000
,
0000
0010
0100
0000
0110
0000
0101
0000
,
1001
1000
0000
0100
0000
1000
0110
0200
,
0000
0300
0012
0000
0000
0003
0210
0000
,
0000
0300
2100
0000
0000
3000
1002
0000
,
0000
0003
0201
0000
0000
0300
0120
0000
,
0000
0030
2010
0000
0000
0000
0000
0000
,
3000
0020
0000
0230
,
0000
0000
0000
0000
,
0000
0302
0000
0000
,
0000
0000
0000
0000
0020
0000
0000
0000
0000
0000
0000
0000
0000
0003
0200
0000
,
0030
2000
0000
0000
,
0000
0000
0000
0300
3020
0000
0000
0000
0000
2000
0000
0000
0000
0030
0200
0000
,
0000
0000
3000
0020
0000
0000
0000
0000
0000
0000
0000
0000
0000
0000
0000
0000
,
0000
0300
0002
0000
0000
0000
0030
2003
,
0000
0000
0000
0020
0000
0000
0000
0000
0000
0000
0000
0000
0000
0000
0000
0000
,
0000
0000
0000
3030
0010
1000
0000
1000
,
0010
0000
0100
0001
0100
1000
0100
0000
,
0010
0100
0000
0100
0010
0000
1000
0100
,
0001
0100
1000
0000
0010
1000
0000
1000
,
0010
0000
0100
0001
0100
1000
0100
0000
,
0001
1000
0000
1000
0001
0000
1000
0010
,
0001
0010
1000
0000
1001
0000
0000
0000
;

//---------------dance-single - ----------------
#NOTES:
     dance-single:
     :
     Medium:
     8:
     0.272676,0.438543,0.195529,0.484167,0.046555,205.000000,184.000000,21.000000,52.000000,0.000000,0.000000,0.272676,0.438543,0.195529,0.484167,0.046555,205.000000,184.000000,21.000000,52.000000,0.000000,0.000000:
0000
0000
0000
0000
,
0000
0000
0000
0000
,
0000
0000
0000
0000
,
0000
0000
0000
0000
0000
0000
0000
0000
0000
0000
0000
0000
0000
0000
0000
0002
,
0000
0000
0000
0000
,
0020
0000
0000
0000
0000
0000
0000
0000
0003
0000
0200
0000
0000
0030
0000
2000
,
0000
0000
0000
0000
0000
0000
0000
0300
,
0020
0000
0000
3000
0000
2000
0000
0000
0030
0000
0200
0000
0000
3000
0000
0020
,
0000
0000
0000
0000
0000
0000
0000
0000
0000
0000
0000
0000
0000
0300
0000
0002
,
0000
0000
0000
0000
0000
0000
0000
0030
0000
2000
0000
0000
0000
0003
0000
0020
,
0000
0000
0000
0000
,
0000
3030
2000
0000
0000
0001
0000
0000
,
3001
0010
0100
0020
,
0000
0100
0000
0000
0031
0000
0100
0000
,
1000
0000
0200
0000
0000
1000
0000
0000
,
0301
0100
0001
2000
,
0000
0001
0000
0000
3001
0000
0100
0000
,
0010
0000
2000
0000
0000
0001
0000
0000
,
3001
0010
1000
0020
,
0000
0001
0000
0000
0031
0000
1000
0000
,
0010
0000
0200
0000
0000
0010
0000
0000
,
0310
1000
0001
2000
,
0000
0010
0000
0000
3001
0000
0001
0000
,
0001
0010
0000
0100
,
0010
0000
0001
0010
,
0000
1000
0010
0010
,
0100
0010
0000
0001
,
1000
0000
0010
0100
,
0000
0100
0010
0000
,
1000
0000
0001
0000
0000
1000
0000
0000
,
0010
0010
0010
0100
,
0000
0001
0000
0000
0010
0000
0010
0000
,
0010
0000
0100
0000
0000
0010
0000
0000
,
0001
0001
0001
1000
,
0000
0100
0000
0000
1000
0000
1000
0000
,
1000
0010
0001
0010
,
0200
0000
0310
0002
,
0000
0023
0000
1030
,
0100
0002
0000
0100
,
0000
0100
0000
0203
,
0000
1000
0000
1000
,
0000
1300
0010
0100
,
0020
0000
1000
0032
,
0000
0023
0000
2030
,
0000
3020
0000
0032
,
0000
2003
0000
3020
,
0000
0000
0230
0000
,
0300
0110
1001
0000
,
0000
0000
1100
0110
,
0011
0000
0000
0000
0000
0000
1000
0010
,
0000
0101
0110
0000
,
0000
0000
0101
0110
,
1010
0000
0000
0000
0000
0000
0010
1000
,
0000
0110
1100
0000
,
0000
0000
0110
1010
,
1100
0000
0000
0000
0000
0000
1000
0010
,
0000
0110
1001
0000
,
0000
0000
1010
0101
,
1100
0000
0000
0000
0000
0000
0010
0001
,
0000
0020
0000
0230
,
0000
2300
0000
3020
,
0000
0230
0000
0320
,
0000
2030
0000
0000
,
0000
0000
0000
0200
,
0000
0000
0000
0000
,
3300
0002
0000
0000
,
0000
0000
0000
0000
0020
0000
0000
0000
0000
0000
0000
0000
0000
0003
0200
0000
,
0030
2000
0000
0000
,
0000
0000
0000
0300
3020
0000
0000
0000
0000
2000
0000
0000
0000
0030
0200
0000
,
0000
0000
3000
0020
0000
0000
0000
0000
0000
0000
0000
0000
0000
0000
0000
0000
,
0000
0300
0002
0000
0000
0000
0030
2003
,
0000
0000
0000
0020
0000
0000
0000
0000
0000
0000
0000
0000
0000
0000
0000
0000
,
0000
0000
0000
3030
0010
0000
0000
1000
,
0000
0100
0010
0001
,
0010
0000
0000
1000
0000
0000
0010
0000
,
0001
0000
1000
0000
0100
0000
0000
1000
,
0000
0100
0010
0100
,
0001
0000
0000
0100
0000
0000
0001
0000
,
0100
0010
0011
0000
;

//---------------dance-single - ----------------
#NOTES:
     dance-single:
     :
     Easy:
     4:
     0.194199,0.255817,0.055865,0.614519,0.046555,146.000000,140.000000,6.000000,66.000000,0.000000,0.000000,0.194199,0.255817,0.055865,0.614519,0.046555,146.000000,140.000000,6.000000,66.000000,0.000000,0.000000:
0000
0000
0000
0000
,
0000
0000
0000
0000
,
0000
0000
0000
0000
,
0000
0000
0000
0000
0000
0000
0000
0000
0000
0000
0000
0000
0000
0000
0000
0002
,
0000
0000
0000
0000
,
0020
0000
0000
0000
0000
0000
0000
0000
0003
0000
0200
0000
0000
0030
0000
2000
,
0000
0000
0000
0000
0000
0000
0000
0300
,
0020
0000
0000
3000
0000
2000
0000
0000
0030
0000
0200
0000
0000
3000
0000
0020
,
0000
0000
0000
0000
0000
0000
0000
0000
0000
0000
0000
0000
0000
0300
0000
0002
,
0000
0000
0000
0000
0000
0000
0000
0030
0000
2000
0000
0000
0000
0003
0000
0020
,
0000
0000
0000
0000
,
3030
2000
0000
0000
,
3001
0000
0100
0020
,
0000
0000
1030
0100
,
0010
0200
0000
0000
,
0302
0000
0000
0000
0000
0000
0000
0000
0000
0000
0000
0003
0200
0000
0000
0000
,
0000
0000
2300
0000
,
0000
3002
0000
0000
,
1003
0000
1000
0020
,
0000
0000
0032
0000
,
0000
0023
0000
0000
,
2030
0000
0000
0000
0000
3000
0020
0000
,
0000
0100
0230
0000
,
0000
0310
0000
0100
,
0020
0000
0000
1030
,
0000
0001
1000
0000
,
0100
0010
0000
0001
,
2000
0000
0000
0000
,
0000
3100
0010
0000
,
0001
0010
0000
0100
,
1000
0000
0000
0100
,
0000
0010
0100
0000
,
0010
0001
0000
1000
,
0002
0000
0000
1000
,
0000
0000
1000
0000
,
0003
0010
0100
1000
,
0200
0000
0310
0002
,
0000
0023
0000
0031
,
1000
0200
0000
1000
,
0000
0000
1000
0000
0000
0300
2000
0000
,
0000
0001
0000
0001
,
0000
3001
0010
0100
,
0020
0000
0001
2030
,
0000
3020
0000
2030
,
0000
3020
0000
0230
,
0000
0302
0000
0023
,
0000
0000
0230
0000
,
0300
0110
0010
0000
,
0000
0000
1000
0100
,
0010
0000
0000
0011
,
0000
0001
0100
0000
,
0000
0000
0010
1000
,
0100
0000
0000
1100
,
0000
0010
0001
0000
,
0000
0000
0100
0010
,
1000
0000
0000
1010
,
0000
0100
0001
0000
,
0000
0000
0001
0100
,
0010
0000
0000
1010
,
0000
0020
0000
0230
,
0000
0302
0000
2003
,
0000
3200
0000
0320
,
0000
0032
0000
0000
,
0000
0000
0000
0200
,
0000
0000
0000
0000
,
0303
0002
0000
0000
,
0000
0000
0000
0000
0020
0000
0000
0000
0000
0000
0000
0000
0000
0003
0200
0000
,
0030
2000
0000
0000
,
0000
0000
0000
0300
3020
0000
0000
0000
0000
2000
0000
0000
0000
0030
0200
0000
,
0000
0000
3000
0020
0000
0000
0000
0000
0000
0000
0000
0000
0000
0000
0000
0000
,
0000
0300
0002
0000
0000
0000
0030
2003
,
0000
0000
0000
0020
0000
0000
0000
0000
0000
0000
0000
0000
0000
0000
0000
0000
,
0000
3030
2000
0000
,
0000
3001
0000
0100
,
0020
0000
0000
1030
,
0100
0010
0200
0000
,
0000
0000
0000
0000
0302
0000
0000
0000
0000
0000
0000
0000
0000
0000
0000
0003
,
0200
0000
0000
2300
,
0000
3000
1001
0000
;

//---------------dance-single - ----------------
#NOTES:
     dance-single:
     :
     Beginner:
     2:
     0.125032,0.219272,0.055865,0.251394,0.000000,94.000000,88.000000,6.000000,27.000000,0.000000,0.000000,0.125032,0.219272,0.055865,0.251394,0.000000,94.000000,88.000000,6.000000,27.000000,0.000000,0.000000:
// measure 0
0000
0000
0000
0000
,  // measure 1
0000
0000
0000
0000
,  // measure 2
0000
0000
0000
0000
,  // measure 3
0000
0000
0000
0000
,  // measure 4
0002
0000
0000
0000
,  // measure 5
2003
0000
0000
0000
,  // measure 6
3002
0000
0000
0000
,  // measure 7
2003
0000
0000
0000
,  // measure 8
3002
0000
0000
0000
,  // measure 9
0203
0000
0000
0000
,  // measure 10
0320
0000
0000
0000
,  // measure 11
0030
1000
0000
0000
,  // measure 12
0001
0000
0000
0010
,  // measure 13
0000
0000
0100
0000
,  // measure 14
0000
0100
0000
0000
,  // measure 15
0010
0000
0000
0100
,  // measure 16
0000
0000
1000
0000
,  // measure 17
0000
0001
0000
0000
,  // measure 18
1000
0000
0000
0100
,  // measure 19
0000
0000
0010
0000
,  // measure 20
0000
0100
0000
0000
,  // measure 21
1000
0000
0000
0010
,  // measure 22
0000
0000
0100
0000
,  // measure 23
0000
0010
0000
0000
,  // measure 24
1000
0000
0000
0010
,  // measure 25
0000
0000
0100
0000
,  // measure 26
0000
0001
0000
0000
,  // measure 27
2000
0000
0000
0000
,  // measure 28
0000
0000
3010
0000
,  // measure 29
0000
0100
0000
0000
,  // measure 30
0001
0000
0000
0100
,  // measure 31
0000
0000
0010
0000
,  // measure 32
0000
1000
0000
0000
,  // measure 33
0002
0000
0000
0000
,  // measure 34
0000
0000
0000
0000
,  // measure 35
0003
1000
0000
0000
,  // measure 36
0200
0000
0000
0310
,  // measure 37
0000
0001
0000
1000
,  // measure 38
0000
0200
0000
0000
,  // measure 39
0000
0000
0000
0000
0000
0300
2000
0000
,  // measure 40
0000
0000
0000
0000
,  // measure 41
0000
3001
0000
0000
,  // measure 42
0020
0000
0000
0130
,  // measure 43
0000
1000
0000
0001
,  // measure 44
0000
0010
0000
0100
,  // measure 45
0000
1000
0000
0010
,  // measure 46
0000
0000
0100
0000
,  // measure 47
0000
0110
0000
0000
,  // measure 48
0000
0000
1000
0000
,  // measure 49
0000
0000
0000
1001
,  // measure 50
0000
0001
0000
0000
,  // measure 51
0000
0000
0010
0000
,  // measure 52
0000
0000
0000
0110
,  // measure 53
0000
0100
0000
0000
,  // measure 54
0000
0000
0010
0000
,  // measure 55
0000
0000
0000
1000
,  // measure 56
0000
1001
0000
0000
,  // measure 57
0000
0000
0001
0000
,  // measure 58
0000
0000
0000
1001
,  // measure 59
0000
0020
0000
0230
,  // measure 60
0000
0302
0000
2003
,  // measure 61
0000
3200
0000
0320
,  // measure 62
0000
0032
0000
0000
,  // measure 63
0000
0000
0000
0000
,  // measure 64
0000
0000
0000
0000
,  // measure 65
0003
2000
0000
0000
,  // measure 66
0000
3002
0000
0000
,  // measure 67
0000
2003
0000
0000
,  // measure 68
0000
3002
0000
0000
,  // measure 69
0000
2003
0000
0000
,  // measure 70
0000
3020
0000
0000
,  // measure 71
0000
0230
0000
0000
,  // measure 72
0000
0300
0001
0000
,  // measure 73
0000
1000
0000
0000
,  // measure 74
0100
0000
0000
0010
,  // measure 75
0000
0000
0010
0000
,  // measure 76
0000
0100
0000
0000
,  // measure 77
0010
0000
0000
0001
,  // measure 78
0000
0000
1001
0000
;
