#TITLE:テトリス;
#ARTIST:柊マグネタイト;
#TITLETRANSLIT:Tetoris;
#ARTISTTRANSLIT:Hiiragi Magnetite;
#MUSIC:Tetoris.ogg;
#BANNER:Tetoris.png;
#BACKGROUND:Tetoris-bg.png;
#SAMPLESTART:39.522;
#SAMPLELENGTH:15;
#BPMS:0=170;

//--------------- dance-single - RGTM ----------------
#NOTES:
     dance-single:
     RGTM:
     Hard:
     16:
     :
0000
0000
0000
0000
,
0000
0000
0000
0000
,
0000
0000
0000
0000
,
0000
0000
0000
0000
,
0000
0000
0000
0000
,
1000
0010
1000
0010
0100
0001
0100
0001
,
1000
0100
1000
0100
0010
0001
0010
0001
,
0100
0010
0100
0010
1000
0001
1000
0001
,
0010
0000
0000
0000
0100
1000
0001
0100
0010
0000
1000
0000
1002
0000
0000
0000
,
1003
0000
0000
0000
0020
0030
0000
0000
0020
0030
0000
0000
0001
0000
0100
0000
0001
0000
0000
0000
1000
0000
0100
0000
1000
0000
0000
0000
0001
0000
0000
0000
,
1000
0000
0000
0000
0200
0300
0000
0000
0200
0300
0000
0000
0001
0000
0010
0000
0001
0000
0000
0000
1000
0000
0010
0000
1000
0000
0000
0000
0001
0000
0000
0000
,
1000
0000
0000
0000
0020
0030
0000
0000
0020
0030
0000
0000
0001
0000
0100
0000
0001
0000
0000
0000
1000
0000
0100
0000
1000
0000
0000
0000
0001
0000
0000
0000
,
1000
0000
1000
0100
0001
0010
1000
0000
,
0001
0000
0000
0000
0020
0030
0000
0000
0020
0030
0000
0000
1000
0000
0100
0000
1000
0000
0000
0000
0001
0000
0100
0000
0001
0000
0000
0000
1000
0000
0000
0000
,
0001
0000
0000
0000
0200
0300
0000
0000
0200
0300
0000
0000
1000
0000
0010
0000
1000
0000
0000
0000
0001
0000
0010
0000
0001
0000
0000
0000
1000
0000
0000
0000
,
0001
0000
0000
0000
0020
0030
0000
0000
0020
0030
0000
0000
1000
0000
0100
0000
1000
0000
0000
0000
0001
0000
0100
0000
0001
0000
0000
0000
1000
0000
0000
0000
,
0001
0000
0000
0000
0010
0100
0010
0100
1000
0001
0100
0010
1000
0100
0010
0001
,
1000
0000
0100
0010
0100
0000
1000
0000
0001
0000
0100
0010
0100
0000
0001
0000
,
1000
0000
0100
1000
0010
0000
0010
0100
0001
0000
0001
0010
0100
0000
0010
0000
,
0001
0000
0100
0010
0100
0000
0001
0000
1000
0000
0100
0010
0100
0000
1000
0000
,
0001
0000
0100
0001
0010
0000
0010
0100
1000
0000
1000
0010
0100
0000
0100
0001
,
2000
0000
0000
0000
3010
0000
1000
0000
0001
0000
0010
0100
0010
0000
0001
0000
,
1000
0000
0010
0100
0010
0000
1000
0000
0001
0000
0010
0000
1000
0000
0010
0000
,
0002
0000
0000
0000
1003
0000
0001
0000
0100
0000
0010
0100
0010
0000
1000
0000
,
0001
0000
0000
0010
0001
0000
0010
0000
0001
0000
0010
0001
0010
0001
0010
0100
,
1000
0000
0000
0010
1000
0000
0010
0000
1000
0000
0010
1000
0010
0100
0010
0100
,
0002
0000
0013
1000
0200
0000
0301
0010
,
1000
0110
1001
0000
,
2010
0001
3200
2300
3020
0100
2030
3002
,
0023
0001
0230
0320
0032
1000
0203
0320
,
2030
0010
3002
0023
0230
1000
0320
0031
,
0012
0000
1000
0003
2010
0000
0001
3000
0102
0000
0100
0000
1003
0000
0010
0000
,
1000
0002
0010
2003
3002
1000
0203
0320
,
2030
0001
3100
2000
3002
0010
2003
3020
,
0230
0001
0320
2030
3002
0010
2003
0010
,
3002
0000
1000
0000
0203
0310
1000
0100
0020
0000
0031
0000
0110
0000
0000
0000
,
2010
0000
0001
0000
3200
0000
0320
0000
0032
0000
0103
0010
2000
0000
3020
1030
,
0002
0000
0000
0000
0000
0000
0013
0000
0000
0100
0000
0000
2000
0000
0000
0000
0000
0000
3002
0000
0000
0000
0000
0000
0203
0000
0000
0000
0000
0000
0310
0000
1000
0000
0010
0000
2000
0000
0000
0000
0000
0000
3002
0000
0000
0000
0000
0000
,
0023
0000
0001
0000
0230
0000
0320
0031
2000
0000
3010
0100
0002
0000
1003
0100
,
0020
0000
0001
0030
0012
0000
1000
0003
2010
0000
0010
0000
3001
0000
0010
0000
,
0110
0000
0200
0000
0010
0000
2300
0000
3002
0000
1003
0010
0200
0000
0320
1030
,
0002
0000
0000
0000
0000
0000
0013
0000
0000
0100
0000
0000
1000
0000
0000
0000
0000
0000
0002
0000
0000
0000
0000
0000
2003
0000
0000
0000
0000
0000
3100
0000
0010
0000
0100
0000
0020
0000
0000
0000
0000
0000
0032
0000
0000
0000
0000
0000
,
2003
0000
0001
0000
3200
0000
0320
0031
2000
0000
3010
0100
0002
0000
0010
0003
,
0012
0000
1000
0003
2010
0000
0001
3000
2002
0000
0000
0000
3003
0000
0000
0000
,
0220
0000
0000
0330
,
1000
0000
0000
0000
0020
0030
0000
0000
0020
0030
0000
0000
0001
0000
0100
0000
0001
0000
0000
0000
1000
0000
0100
0000
1000
0000
0000
0000
0001
0000
0000
0000
,
1000
0000
0000
0000
0200
0300
0000
0000
0200
0300
0000
0000
0001
0000
0010
0000
0001
0000
0000
0000
1000
0000
0010
0000
1000
0000
0000
0000
0001
0000
0000
0000
,
1000
0100
0001
0100
1000
0000
0001
0100
1000
0100
0001
0000
1000
0100
0001
0100
,
1000
0010
1010
0010
0110
0010
0011
0010
,
1000
0000
0000
0000
0200
0300
0000
0000
0200
0300
0000
0000
0001
0000
0010
0000
0001
0000
0000
0000
1000
0000
0010
0000
1000
0000
0000
0000
0001
0000
0000
0000
,
1000
0000
0000
0000
0020
0030
0000
0000
0020
0030
0000
0000
0001
0000
0100
0000
0001
0000
0000
0000
1000
0000
0100
0000
1000
0000
0000
0000
0001
0000
0000
0000
,
1000
0010
0001
0010
1000
0000
0001
0010
1000
0010
0001
0000
1000
0010
0001
0010
,
1000
0000
0000
0000
0110
0000
0000
0000
1001
0000
0001
0100
0010
1000
0100
0010
,
0001
0000
0100
0010
0100
0000
0001
0000
1000
0000
0100
0010
0100
0000
1000
0000
,
0001
0000
0100
0001
0010
0000
0010
0100
1000
0000
1000
0010
0100
0000
0010
0000
,
1000
0000
0100
0010
0100
0000
1000
0000
0001
0000
0100
0010
0100
0000
0001
0000
,
1000
0000
0100
1000
0010
0000
0010
0100
0001
0000
0001
0010
0100
0000
0100
1000
,
0002
0000
0000
0000
0013
0000
0001
0000
1000
0000
0010
0100
0010
0000
1000
0000
,
0001
0000
0010
0100
0010
0000
0001
0000
1000
0000
0010
0000
0001
0000
0010
0000
,
2000
0000
0000
0000
3001
0000
1000
0000
0100
0000
0010
0100
0010
0000
0001
0000
,
1000
0000
0000
0010
1000
0000
0010
0000
1000
0000
0010
1000
0010
1000
0010
0100
,
0001
0000
0000
0010
0001
0000
0010
0000
0001
0000
0010
0001
0010
0100
0010
0100
,
2000
0000
3100
0001
0020
0000
1030
0100
,
0001
0110
1001
0000
,
0012
1000
0203
0302
0023
0100
0032
2003
,
3020
1000
0230
0320
2030
0001
3200
0320
,
0032
0010
2003
3020
0230
0001
0320
1030
,
2010
0000
0001
3000
0012
0000
1000
0003
2100
0000
0100
0000
3001
0000
0010
0000
,
0001
2000
0010
3002
2003
0001
3200
0320
,
0032
1000
0103
0002
2003
0010
3002
0023
,
0230
1000
0320
0032
2003
0010
3002
0010
,
2003
0000
0001
0000
3200
0310
0001
0100
0020
0000
1030
0000
0110
0000
0000
0000
,
0012
0000
1000
0000
0203
0000
0320
0000
2030
0000
3100
0010
0002
0000
0023
0031
,
2000
0000
0000
0000
0000
0000
3010
0000
0000
0100
0000
0000
0002
0000
0000
0000
0000
0000
2003
0000
0000
0000
0000
0000
3200
0000
0000
0000
0000
0000
0310
0000
0001
0000
0010
0000
0002
0000
0000
0000
0000
0000
2003
0000
0000
0000
0000
0000
,
3020
0000
1000
0000
0230
0000
0320
1030
0002
0000
0013
0100
2000
0000
3001
0100
,
0020
0000
1000
0030
2010
0000
0001
3000
0012
0000
0010
0000
1003
0000
0010
0000
,
0110
0000
0200
0000
0010
0000
0302
0000
2003
0000
3001
0010
0200
0000
0320
0031
,
2000
0000
0000
0000
0000
0000
3010
0000
0000
0100
0000
0000
0001
0000
0000
0000
0000
0000
2000
0000
0000
0000
0000
0000
3002
0000
0000
0000
0000
0000
0103
0000
0010
0000
0100
0000
0020
0000
0000
0000
0000
0000
2030
0000
0000
0000
0000
0000
,
3002
0000
1000
0000
0023
0000
0230
1300
0002
0000
0013
0100
2000
0000
0010
3000
,
1020
0000
0100
0030
0201
0000
0010
0000
0302
0103
0010
1000
0100
0010
0001
0100
,
0020
1000
0230
0302
0023
0100
2030
3020
,
0032
0000
1000
0003
0002
0000
0203
0000
2300
0000
0001
3000
2000
0000
3200
0000
,
0302
0000
1000
0003
0002
0000
0023
0000
0230
0000
0001
0000
2300
0000
0010
3000
,
1020
0000
0100
0030
0102
0000
0010
0003
0021
0000
0100
0000
1000
0000
0031
0000
,
0010
0200
0001
2300
3020
0100
0032
0023
,
2030
0000
0010
0000
0001
0000
3200
0000
0302
0000
1000
0003
0002
0000
0203
0000
,
2300
0000
0001
3000
2000
0000
3020
0000
0032
0000
1000
0000
0023
0000
1000
0030
,
2010
0000
0001
0000
3200
0310
0001
0100
0020
0000
1030
0000
0110
0000
0000
0000
,
2010
0000
0001
0000
3200
0000
0320
0000
0032
0000
1003
0001
0200
0000
0320
0130
,
2000
0000
0000
0000
0000
0000
3100
0000
0000
0001
0000
0000
0020
0000
0000
0000
0000
0000
2030
0000
0000
3010
0000
0000
0002
0000
0000
0000
0000
0000
0103
0000
0001
0000
0100
0000
0002
0000
0000
0000
0000
0000
0023
0000
0000
0000
0000
0000
,
0230
0000
0010
0000
0302
0000
0203
0000
2300
0000
3001
0100
0020
0000
0031
0010
,
2000
0000
0100
3000
0012
0000
0100
0003
2010
0000
0001
0000
3100
0000
1000
0000
,
0001
0000
0020
0000
0001
0000
0230
0000
0302
0000
1003
0010
0002
0000
0203
1300
,
0002
0000
0000
0000
0000
0000
0010
0000
0000
0000
0000
0000
1000
0000
0000
0003
0000
0000
0002
0000
0000
0013
0000
0000
2000
0000
0000
0000
0000
0000
3010
0000
0100
0000
0010
0000
0200
0000
0000
0000
0000
0000
0302
0000
0000
0000
0000
0000
,
2003
0000
0100
0000
3002
0000
0023
1030
0002
0000
0103
1000
0020
0000
0001
0030
,
0021
0000
1000
0030
2010
0000
0001
3000
2002
0000
0000
0000
3003
0000
0000
0000
,
1000
0000
0020
0000
1000
0000
0230
0000
2300
0000
3001
0010
2000
0000
3200
0301
,
2000
0000
0000
0000
0000
0000
0010
0000
0000
0000
0000
0000
0001
0000
0000
3000
0000
0000
2000
0000
0000
3010
0000
0000
0002
0000
0000
0000
0000
0000
0013
0000
0100
0000
0010
0000
0200
0000
0000
0000
0000
0000
2300
0000
0000
0000
0000
0000
,
3002
0000
0100
0000
2003
0000
3020
0031
2000
0000
3100
0001
0020
0000
1000
0030
,
1020
0000
0001
0030
0012
0000
1000
0003
2002
0000
0000
0000
3003
0000
0000
0000
;

//--------------- dance-single - RGTM ----------------
#NOTES:
     dance-single:
     RGTM:
     Challenge:
     12:
     :
0000
0000
0000
0000
,
0000
0000
0000
0000
,
0000
0000
0000
0000
,
0000
0000
0000
0000
,
0000
0000
0000
0000
,
1000
1000
0100
0100
,
0001
0001
0010
0010
,
1000
1000
0100
0100
,
0001
0000
0001
0010
0001
0010
1000
0000
,
0001
0000
0001
0000
0010
0100
0010
0000
,
1000
0000
1000
0000
0100
0010
0100
0000
,
0001
0000
0001
0000
0010
0100
0010
0000
,
1000
0100
0001
0010
,
1000
0000
1000
0000
0100
0010
0100
0000
,
0001
0000
0001
0000
0010
0100
0010
0000
,
1000
0000
1000
0000
0100
0010
0100
0000
,
0001
0010
0001
0010
1000
0100
1000
0100
,
0001
0011
0010
1010
,
1000
0100
0001
0000
0100
0001
0010
0000
,
1000
1100
0100
0101
,
0001
0010
1000
0000
0010
1000
0100
0000
,
0001
0011
0010
1010
,
1000
1100
0100
0101
,
0001
0010
1000
0100
,
0001
0000
0000
0010
0000
0000
0001
0000
0010
0000
0001
0000
0010
0000
1000
0000
,
0100
0000
0000
1000
0000
0000
0100
0000
1000
0000
0100
0000
0001
0000
0000
0000
,
2000
0000
3100
0001
0020
0000
1030
0100
,
0001
0110
1001
0000
,
2001
0000
3100
0001
0200
0000
0301
0010
,
0002
0000
0013
1000
0020
0000
1030
0100
,
2000
0000
3100
0001
0200
0000
0302
0000
,
0013
0011
1010
1000
,
0001
2000
0000
3100
0002
0000
0013
0001
,
0020
0000
1030
0010
2000
0000
3100
1000
,
0200
0000
0301
0100
0001
0000
0010
0000
,
0011
1010
1001
0110
,
2001
0000
3100
0001
0020
0000
0031
0010
,
2000
0000
3010
1000
0200
0000
1300
0100
,
0002
0000
0103
0001
0020
0000
0031
0000
,
0011
1010
1001
1000
,
0001
2000
0000
3100
0002
0000
0103
0001
,
0020
0000
0031
0010
2000
0000
3010
1000
,
0200
0000
1300
0100
0002
0000
0013
0000
,
0011
1010
1001
0000
,
1000
0010
0001
0100
1000
0010
0001
0100
,
2000
0000
3200
0000
,
0302
0000
0023
0000
,
2030
0000
3200
0000
,
0302
0000
0023
0000
,
2030
0100
3200
0001
,
0302
0010
0023
1000
,
2030
0100
3200
0001
,
0301
0011
1010
1001
,
1000
1100
0100
0101
,
0001
0010
1000
0000
0010
1000
0100
0000
,
0001
0011
0010
1010
,
1000
0100
0001
0000
0100
0001
0010
0000
,
1000
1100
0100
0101
,
0001
0011
0010
1010
,
1000
0100
0001
0010
,
1000
0000
0000
0100
0000
0000
1000
0000
0100
0000
1000
0000
0100
0000
0001
0000
,
0010
0000
0000
0001
0000
0000
0010
0000
0001
0000
0010
0000
1000
0000
0000
0000
,
0002
0000
0013
1000
0200
0000
0301
0010
,
1000
0110
1001
0000
,
1002
0000
0013
1000
0020
0000
1030
0100
,
2000
0000
3100
0001
0200
0000
0301
0010
,
0002
0000
0013
1000
0020
0000
2030
0000
,
3100
1100
0101
0001
,
1000
0002
0000
0013
2000
0000
3100
1000
,
0200
0000
0301
0100
0002
0000
0013
0001
,
0020
0000
1030
0010
1000
0000
0100
0000
,
1100
0101
1001
0110
,
1002
0000
0013
1000
0200
0000
1300
0100
,
0002
0000
0103
0001
0020
0000
0031
0010
,
2000
0000
3010
1000
0200
0000
1300
0000
,
1100
0101
1001
0001
,
1000
0002
0000
0013
2000
0000
3010
1000
,
0200
0000
1300
0100
0002
0000
0103
0001
,
0020
0000
0031
0010
2000
0000
3100
0000
,
1100
0000
0101
0000
0001
0010
1000
0100
,
0002
0000
0013
1000
0200
0000
0301
0010
,
2000
0000
3100
0001
0020
0000
1030
0100
,
0002
0000
0013
1000
0200
0000
0302
0000
,
0013
1010
1100
0100
,
0001
0020
0000
1030
0200
0000
0301
0010
,
2000
0000
3100
0001
0020
0000
1030
0100
,
0002
0000
0013
1000
0200
0000
0301
0000
,
0011
1010
1100
0100
,
0002
0000
0013
1000
0200
0000
0301
0010
,
2000
0000
3100
0001
0020
0000
1030
0100
,
0002
0000
0013
1000
0200
0000
0301
0000
,
0011
1010
1100
0100
,
0001
0020
0000
1030
0200
0000
0301
0010
,
2000
0000
3100
0001
0020
0000
1030
0100
,
0002
0000
0013
1000
0200
0000
0302
0000
,
0013
0000
1010
0000
1100
0100
0001
0010
,
1000
0200
0000
0301
0020
0000
1030
0100
,
0002
0000
0013
1000
0200
0000
0301
0010
,
2000
0000
3100
0001
0020
0000
2030
0000
,
3100
0110
1001
0000
;
