#TITLE:卑弥呼;
#ARTIST:朱雀 VS 玄武;
#TITLETRANSLIT:HIMIKO;
#ARTISTTRANSLIT:SUZAKU VS GENBU;
#MUSIC:HIMIKO.ogg;
#BANNER:HIMIKO.png;
#BACKGROUND:HIMIKO-bg.png;
#SAMPLESTART:92.1;
#SAMPLELENGTH:15;
#BPMS:0=185,145=92.5,177=185,319=87.5,327=85,333=82.5;

//--------------- dance-single - RGTM-CSP ----------------
#NOTES:
     dance-single:
     RGTM-CSP:
     Challenge:
     19:
     :
0000
0000
0000
0000
,
0000
0000
0000
0000
,
0000
0000
0000
0000
,
0000
0000
0000
0000
,
0000
0000
0000
0000
,
0000
0000
0000
0000
,
0001
0000
0100
0000
0001
0000
0100
0000
0001
0000
0100
0000
0001
0000
0100
0000
0001
0000
0100
0000
0001
0000
0100
0000
0010
0000
0000
0100
0000
0000
0001
0000
0000
0010
0000
0000
0001
0000
0000
0100
0000
0000
0010
0000
0000
1000
0000
0000
,
1100
0100
1000
0001
1000
0010
0100
0001
0010
0001
0100
0010
1000
0100
1000
0000
,
0001
0100
0001
1000
0001
0010
0100
1000
0010
1000
0100
0010
0001
0100
0001
0000
,
1000
0010
1000
0001
1000
0100
0010
0001
0100
0001
0010
0100
1000
0010
1000
0000
,
0001
0010
0001
1000
0001
0100
0010
1000
0100
1000
0010
0100
0001
0010
0001
0000
,
1000
0100
1000
0010
0100
0001
0010
0100
0001
0100
0010
0001
0100
0010
1000
0000
,
0001
0100
0001
0010
0100
1000
0010
0100
1000
0100
0010
1000
0100
0010
0001
0000
,
1000
0010
1000
0100
0010
0001
0100
0010
0001
0010
0100
0001
0010
0100
1000
0000
,
1010
0000
0210
0000
0000
0000
1300
0100
0001
0010
0100
0000
1100
0000
0010
0000
,
1001
0000
0101
0000
0100
0010
1000
0001
0010
0100
0010
0001
0100
0010
1000
0000
,
1001
0000
1100
0000
0100
0010
0001
1000
0010
0100
0010
1000
0100
0010
0001
0000
,
1001
0000
0011
0000
0010
0100
1000
0001
0100
0010
0100
0001
0010
0100
1000
0000
,
1001
0000
1010
0000
0010
0100
0001
1000
0100
0010
0100
1000
0010
0100
0001
0000
,
0011
0000
0110
0000
0100
1000
0010
0100
1000
0100
0010
1000
0001
0010
0100
0000
,
1100
0000
0110
0000
0010
0001
0100
0010
0001
0010
0100
0001
0010
0100
1000
0000
,
1010
0000
0110
0000
0100
0001
0010
0100
0001
0100
0010
0001
1000
0010
0100
0000
,
0101
0000
0000
0000
0000
0000
0110
0000
0000
0000
0000
0000
0010
0000
0000
1000
0000
0000
0100
0000
0000
0010
0000
0000
0001
0000
0000
1000
0000
0000
0001
0000
0100
0000
0001
0000
0100
0000
0000
0001
0000
0000
1000
0000
0001
0000
1000
0000
,
0001
0100
0001
0000
0100
0000
0001
0001
0000
0100
0100
0000
0001
0100
0001
0000
,
0101
0000
0100
0100
0000
0001
0001
0000
0100
0001
0100
0000
0001
0000
0100
0001
,
0101
0100
0001
0000
0100
0001
0100
0000
0001
0000
0100
0100
0000
0001
0001
0000
,
0101
0100
0001
0000
0100
0000
0001
0001
0200
0010
0010
0000
1300
0001
0010
1000
,
1001
0001
0010
0000
0110
0000
0100
0100
0000
1000
1000
0000
0001
0100
0001
0000
,
0101
0000
0100
0100
0000
0010
0010
0000
1000
0100
1000
0000
1100
0000
0100
0100
,
0000
0010
0010
0000
0001
1000
0001
0000
1001
0000
1000
1000
0000
0010
0010
0000
,
0110
0100
0001
0000
1000
0000
0001
0001
0000
1000
1000
0000
0001
1000
1001
0000
,
1001
0000
1001
0001
0010
0100
1000
0001
1001
1000
0010
0000
0110
0000
0100
0101
,
0000
0001
1001
0000
1000
0100
1100
0000
1100
0000
0100
0110
0000
0010
0011
0000
,
0001
0100
0101
0000
0101
0000
0100
0110
0000
0010
1010
0000
1000
0001
1001
0000
,
1001
0000
0001
0011
0000
0010
0110
0000
0110
0100
1000
0000
1001
0000
1000
1001
,
0000
0001
1001
0000
1000
0001
1001
0000
1001
0000
1000
1001
0000
0001
1001
0000
,
1001
1001
1001
0000
0200
0000
0000
0000
2300
0000
0000
0000
3002
0000
0000
0000
,
0023
0000
0032
0000
1003
0010
0200
0000
,
0302
2003
3200
0302
,
1003
0010
0200
0000
0301
0100
1000
0010
,
0100
0000
0000
0000
0002
0000
0000
0003
1010
0000
0110
0000
0001
0000
1000
0000
1001
0000
0100
0000
1010
0000
0110
0000
0101
0000
1000
0000
1100
0000
0001
0000
,
0101
1100
1001
0100
0011
0110
1000
0001
1001
0100
0011
0110
1100
0001
0101
1000
,
1100
0101
1001
0100
1010
0110
0001
1000
1001
0100
1010
0110
0101
1000
1100
0001
,
0101
1100
1001
0101
0020
0000
0000
0000
1030
0000
0001
0000
0200
0000
0000
0300
,
1001
0110
1002
0100
1003
0100
0010
0100
1000
0000
1000
0100
0001
0100
1000
0000
,
1000
0100
0010
0001
0010
0100
1000
0001
0010
1000
0010
0001
1000
0010
0100
0010
,
1000
0000
1000
0010
0001
0010
1000
0000
1000
0010
0100
0001
0100
0010
1000
0100
,
0001
0100
1000
1000
0001
0100
0010
0100
0001
0000
0001
0100
1000
0100
0001
0000
,
0001
0100
0010
1000
0010
0100
0001
1000
0010
0001
0010
1000
0001
0010
0100
0010
,
0001
0000
0001
0010
1000
0010
0001
0000
0001
0010
0100
1000
0100
0010
0001
0100
,
1000
0100
0001
0001
1000
0100
0010
0100
1000
0000
1000
0100
0001
0100
1000
0000
,
1000
0100
0010
0001
0010
0100
1000
0001
0010
1000
0010
0001
1000
0010
0100
0010
,
1000
0000
1000
0010
0001
0010
1000
0000
1000
0010
0100
0001
0100
0010
1000
0100
,
0001
0100
1000
1000
0001
0100
0010
0100
0001
0000
0001
0100
1000
0100
0001
0000
,
0001
0100
0010
1000
0010
0100
0001
1000
0010
0001
0010
1000
0001
0010
1000
0010
,
0001
0010
0100
1000
1010
0000
0110
0000
0101
0000
1001
0000
1100
0000
0110
0000
,
0010
0001
1000
0010
0110
0000
0101
0000
1001
0000
1100
0000
0110
0000
0011
0000
,
0001
0100
0010
1000
1100
0000
0110
0000
0011
0000
1001
0000
1010
0000
0110
0000
,
0100
0001
1000
0100
0110
0000
0010
0001
1000
0001
0010
0100
1000
0001
0100
0010
,
1000
0010
1000
0010
1000
0010
0100
0000
0000
0101
0000
0000
1100
0000
0000
1010
0000
0000
0011
0000
0000
0101
0000
0000
,
0100
0001
1000
0100
0110
0000
0011
0000
1010
0000
1100
0000
0101
0000
0011
0000
,
0010
0001
1000
0010
0110
0000
0101
0000
1100
0000
1010
0000
0011
0000
1001
0000
,
0001
0000
0000
0010
0000
0000
0100
0000
0000
1000
0000
0000
0001
0000
0000
0100
0000
0000
0010
0000
0100
0000
0010
0000
1000
0000
0000
0001
0000
0000
0010
0000
0100
0000
0010
0000
0001
0000
0000
1000
0000
0000
0001
0000
0100
0000
0010
0000
,
2000
0000
0000
0000
0000
0000
0000
0000
3100
0010
0100
0000
1001
0000
1000
0100
,
0010
0001
0100
0010
0001
0010
0100
1000
0001
0010
0100
0001
0010
0100
1000
0001
,
0010
0100
0001
0000
0000
0001
1000
0010
0100
0001
1000
0010
0100
1000
0010
0100
,
0001
1000
0010
0000
0000
0001
0010
1000
0001
0010
0100
0001
1000
0010
0100
1000
,
0001
0100
0010
0001
1000
0100
0010
1000
0100
0010
0001
0000
1000
0010
1000
0100
,
0001
0100
1000
0010
0100
0001
0010
1000
0010
0001
0100
0010
0001
1000
0100
0001
,
0010
0100
1000
0000
0000
1000
0001
0100
1000
0001
1000
0100
0001
0010
0100
1000
,
0001
0100
0010
0001
0010
1000
0001
0000
0010
0100
0010
0000
0110
0000
1002
0000
,
0000
0000
0000
0000
0000
0000
0000
0000
0203
0000
0000
0000
0301
0100
1000
0001
,
0010
1000
0010
0001
1000
0100
0001
1000
0100
0001
1000
0010
0001
0010
1000
0001
,
0100
1000
0001
0000
0000
0001
0100
1000
0001
0010
1000
0001
0010
1000
0001
0100
,
1000
0001
0100
0000
0000
1000
0100
0010
1000
0100
0010
1000
0010
0001
1000
0010
,
0001
0010
0100
0001
0010
0100
0001
1000
0010
0001
1000
0000
1001
0001
0100
0010
,
0001
0000
0000
0010
0000
0000
0100
0000
0000
0001
0000
0000
0010
0000
0000
0100
0000
0000
1000
0000
0100
0000
1000
0000
0001
0000
0000
0100
0000
0000
0001
0000
0100
0000
0001
0000
1000
0000
0000
0001
0000
0000
0010
0000
0000
0100
0000
0000
,
0001
0000
0000
0100
0000
0000
0010
0000
0000
0000
0000
0000
0000
0000
0000
0010
0000
0000
0001
0000
0010
0000
0001
0000
1000
0000
0000
0010
0000
0000
1000
0000
0010
0000
1000
0000
0001
0000
0000
1000
0000
0000
0010
0000
0000
0100
0000
0000
,
1000
0100
0010
1000
1100
0100
0010
0000
0001
0010
0100
1000
1010
0010
0100
0001
,
0011
0000
0000
0000
0000
0000
0010
0000
0000
0000
0000
0000
0100
0000
0000
0000
0000
0000
1000
0000
0000
0000
0000
0000
0010
0000
0000
0000
0100
0000
0000
0000
0010
0000
0000
0000
1000
0000
0000
0000
0001
0000
0000
0000
0100
0000
0000
0000
0010
0000
0000
0000
0100
0000
0000
0000
0001
0000
0000
0000
1000
0000
0000
0000
0010
0000
0000
0000
0100
0000
0000
0000
0001
0000
0000
0100
0000
0000
0001
0000
0000
1000
0000
0000
0010
0000
0000
0000
0000
0000
0100
0000
0000
0010
0000
0000
,
0100
0001
2000
0000
0001
0000
3001
0000
1000
0100
1000
0001
0010
0000
0100
0010
0100
1000
0002
0000
1000
0000
1003
0000
0001
0010
1000
0010
0001
0000
1000
0010
,
0001
0010
2000
0000
0001
0000
3001
0000
1000
0001
0010
0100
1000
0010
0100
1000
0001
0010
0100
0001
0010
0100
1000
0000
0001
0000
0100
0000
1000
0100
0001
0100
,
0020
0000
0000
0000
0031
0010
1000
0100
0020
0000
0000
0000
1030
0010
0001
0100
0020
0000
0000
0000
0031
0010
1000
0001
0100
0001
1000
0010
0000
0000
1000
0100
,
1000
0001
1000
0000
0001
0010
0100
1000
0020
0000
0000
0000
0000
0031
0010
1000
0001
0000
0010
0000
0100
0000
1000
0000
1001
0000
0000
0000
0000
0000
0000
0000
,
0001
0010
1000
0001
0100
1000
0010
0001
1000
0100
0001
0010
1000
0001
0100
1000
0010
0001
1000
0100
0002
0000
0000
0000
0000
0000
0000
0000
0000
0000
0000
0000
,
0000
0003
0000
0000
;

//--------------- dance-double - RGTM-CDP ----------------
#NOTES:
     dance-double:
     RGTM-CDP:
     Challenge:
     19:
     :
00000000
00000000
00000000
00000000
,
00000000
00000000
00000000
00000000
,
00000000
00000000
00000000
00000000
,
00000000
00000000
00000000
00000000
,
00000000
00000000
00000000
00000000
,
00000000
00000000
00000000
00000000
,
00000000
00000000
00000000
00000000
,
10000000
01000000
10000000
00010000
00100000
01000000
00100000
00001000
00010000
00000010
00000100
00000010
00001000
00000100
00000010
00000000
,
00000001
00000100
00000001
00001000
00000010
00000100
00000010
00010000
00001000
00100000
01000000
00100000
00010000
01000000
00100000
00000000
,
10000000
00100000
10000000
00010000
01000000
00100000
01000000
00001000
00010000
00000100
00000010
00000100
00001000
00000010
00000100
00000000
,
00000001
00000010
00000001
00001000
00000100
00000010
00000100
00010000
00001000
01000000
00100000
01000000
00010000
00100000
01000000
00000000
,
10000000
01000000
00100000
00010000
01000000
00100000
00010000
00001000
00000010
00001000
00010000
00000010
00000100
00000001
00001000
00000000
,
00000001
00000100
00000010
00001000
00000100
00000010
00001000
00010000
00100000
00010000
00001000
00100000
01000000
10000000
00010000
00000000
,
10000000
00100000
01000000
00010000
00100000
01000000
00010000
00001000
00000100
00001000
00010000
00000100
00000010
00000001
00001000
00000000
,
00001010
00000000
00000210
00000000
00000000
00000000
00000301
00000100
00001000
00010000
01000000
00000000
00011000
00000000
00100000
00000000
,
10010000
00000000
11000000
00000000
01000000
00100000
00010000
01000000
00001000
00010000
00000100
00000010
00000001
00001000
00000010
00000000
,
00001001
00000000
00000101
00000000
00000100
00000010
00001000
00000100
00010000
00001000
01000000
00100000
10000000
00010000
00100000
00000000
,
10010000
00000000
10100000
00000000
00100000
01000000
00010000
00100000
00001000
00010000
00000010
00000100
00000001
00001000
00000100
00000000
,
00001001
00000000
00000000
00000000
00000011
00000000
00000000
00000000
00000010
00000000
00000100
00000000
00001000
00000000
00000010
00000000
00010000
00000000
00001000
00000000
00100000
00000000
01000000
00000000
10000000
00000000
00010000
00000000
02000000
03000000
00000000
00000000
,
12000000
03000000
00000000
00000000
10100000
00000000
00000000
00000000
00100000
00000000
00010000
00000000
00001000
00000000
00100000
00000000
01000000
00000000
00010000
00000000
00001000
00000000
00000100
00000000
00000010
00000000
00001000
00000000
00000200
00000300
00000000
00000000
,
00000201
00000300
00000000
00000000
00000011
00000000
00000000
00000000
00000010
00000000
00001000
00000000
00010000
00000000
00000010
00000000
00000100
00000000
00001000
00000000
00010000
00000000
01000000
00000000
00100000
00000000
00010000
00000000
01000000
00000000
00000000
00000000
,
10100000
00000000
00000000
00000000
11000000
00000000
00000000
00000000
01000000
00000000
00010000
00000000
00001000
00000000
01000000
00000000
00100000
00000000
00010000
00000000
00001000
00000000
00000010
00000000
00000100
00000000
00001000
00000000
00000020
00000030
00000000
00000000
,
00000021
00000000
00000000
00000030
00000000
00000000
00000000
00000000
00000000
00000000
00000000
00000000
00000101
00000000
00000000
00000000
00000000
00000000
00000000
00000000
00000000
00000000
00000000
00000000
00000100
00000000
00000000
00000000
00000000
00000000
00001000
00000000
00000000
00000000
00000000
00000000
00010000
00000000
00000000
00000000
00000000
00000000
00100000
00000000
00000000
00000000
00000000
00000000
01000000
00000000
00000000
00000000
00000000
00000000
00010000
00000000
00000000
00000000
00000000
00000000
00100000
00000000
00000000
00000000
00010000
00000000
00000000
00000000
00100000
00000000
00000000
00000000
00010000
00000000
00000000
00000000
00000000
00000000
00100000
00000000
00000000
00000000
00000000
00000000
01000000
00000000
00000000
00000000
10000000
00000000
00000000
00000000
01000000
00000000
00000000
00000000
,
10000000
01000000
10000000
00000000
01000000
00000000
10000000
10000000
00000000
01000000
01000000
00000000
10000000
01000000
10000000
00000000
,
11000000
00000000
01000000
01000000
00000000
10000000
10000000
00000000
01000000
10000000
01000000
00000000
10000000
00000000
01000000
10000000
,
11000000
01000000
10000000
00000000
01000000
10000000
01000000
00000000
10000000
00000000
01000000
01000000
00000000
10000000
10000000
00000000
,
11000000
01000000
10000000
00000000
01000000
00000000
10000000
10000000
02000000
00100000
00100000
00000000
03010000
01000000
10000000
00010000
,
10010000
10000000
00100000
00000000
01000000
00000000
00001000
00001000
00000000
00010000
00010000
00000000
00000100
00001000
00000100
00000000
,
00000010
00000000
00000001
00000001
00000000
00001000
00001000
00000000
00000010
00000100
00000010
00000000
00000100
00000000
00001000
00001000
,
00000000
00010000
00010000
00000000
01000000
00100000
01000000
00000000
10000000
00000000
00100000
00100000
00000000
01000000
01000000
00000000
,
01010000
01000000
00001000
00000000
00010000
00000000
00001000
00001000
00000000
00010000
00010000
00000000
00001000
00010000
00001000
00000000
,
00011000
00000000
00011000
00010000
00001000
00000010
00000001
00001000
00001001
00000001
00000100
00000000
00000110
00000000
00000010
00000010
,
00000000
00001000
00001000
00000000
00000100
00010000
00000100
00000000
00010100
00000000
00010000
00010000
00000000
00001000
00001000
00000000
,
01000000
00001000
01000000
00000000
01100000
00000000
00100000
00100000
00000000
10000000
10000000
00000000
01000000
10000000
01000000
00000000
,
01100000
00000000
00100000
00100000
00000000
00001000
00001000
00000000
00011000
00001000
00010000
00000000
00011000
00000000
00001000
00011000
,
00000000
00010000
00011000
00000000
00001000
00010000
00011000
00000000
00011000
00000000
00001000
00011000
00000000
00010000
00011000
00000000
,
00011000
00011000
00011000
00000000
00020000
00000000
00000000
00000000
00032000
00000000
00000000
00000000
00003020
00000000
00000000
00000000
,
00000032
00000000
00002003
00000000
00003010
00001000
00000200
00000000
,
00000320
00000032
00000203
00002300
,
00013000
00100000
20000000
00000000
31000000
00010000
00001000
00000010
,
00000001
00000000
00000000
00000000
00002000
00000000
00000000
00003000
00001001
00000000
00000101
00000000
00000000
00000000
00000000
00000000
00000010
00000000
00000000
00000000
00001001
00000000
00010100
00000000
00011000
00000000
00000000
00000000
00100000
00000000
00000000
00000000
,
10010000
01010000
11000000
00000000
10010000
10100000
00000000
00000000
01000000
00000000
10010000
00101000
00011000
00000000
00000100
00000000
,
00001001
00001010
00000011
00000000
00001001
00000101
00000000
00000000
00000010
00000000
00001001
00010100
00011000
00000000
00100000
00000000
,
10010000
01010000
11000000
10010000
00200000
00000000
00000000
00000000
00310000
00000000
00001000
00000000
00000020
00000000
00000000
00000030
,
00001001
00000110
00002001
00000100
00003001
00000100
00000010
00000100
00000001
00000000
00000001
00000100
00001000
00000100
00000001
00000000
,
00000001
00000100
00001000
00010000
00100000
00010000
00001000
00000100
00000010
00001000
00000100
00000010
00000001
00000010
00000100
00000010
,
00000001
00000000
00000001
00000010
00001000
00000010
00000001
00000000
00000001
00000010
00001000
00010000
01000000
00010000
00001000
00000100
,
00001000
00010000
00100000
00100000
10000000
01000000
00100000
01000000
10000000
00000000
10000000
01000000
00010000
01000000
10000000
00000000
,
10000000
01000000
00010000
00001000
00000010
00001000
00010000
01000000
00100000
00010000
01000000
00100000
10000000
00100000
01000000
00100000
,
10000000
00000000
10000000
00100000
00010000
00100000
10000000
00000000
10000000
00100000
00010000
00001000
00000100
00001000
00010000
01000000
,
00010000
00001000
00000010
00000010
00000001
00000100
00000010
00000100
00000001
00000000
00000001
00000100
00001000
00000100
00000001
00000000
,
00000001
00000100
00001000
00010000
00100000
00010000
00001000
00000100
00000010
00001000
00000100
00000010
00000001
00000010
00000100
00000010
,
00000001
00000000
00000001
00000010
00001000
00000010
00000001
00000000
00000001
00000010
00001000
00010000
01000000
00010000
00001000
00000100
,
00001000
00010000
00100000
00100000
10000000
01000000
00100000
01000000
10000000
00000000
10000000
01000000
00010000
01000000
10000000
00000000
,
10000000
01000000
00010000
00001000
00000010
00001000
00010000
01000000
00100000
00010000
01000000
00100000
10000000
01000000
00010000
00001000
,
00000100
00000001
00000010
00001000
00011000
00000000
00101000
00000000
01100000
00000000
11000000
00000000
10010000
00000000
01010000
00000000
,
01000000
00100000
00010000
00001000
00011000
00000000
00010010
00000000
00000110
00000000
00000101
00000000
00001001
00000000
00001100
00000000
,
00000100
00000010
00001000
00010000
00011000
00000000
01001000
00000000
01100000
00000000
10100000
00000000
10010000
00000000
00110000
00000000
,
00100000
01000000
00010000
00001000
00011000
00000000
00010000
00001000
00000010
00000100
00010000
00001000
00100000
01000000
00010000
00001000
,
00010000
00001000
00010000
00001000
00010000
00001000
00010000
00000000
00000000
00010100
00000000
00000000
00000101
00000000
00000000
00000011
00000000
00000000
00001010
00000000
00000000
00001100
00000000
00000000
,
00000100
00000010
00001000
00010000
00011000
00000000
01001000
00000000
11000000
00000000
10100000
00000000
00110000
00000000
01010000
00000000
,
01000000
00100000
00010000
00001000
00011000
00000000
00010010
00000000
00000011
00000000
00000101
00000000
00001100
00000000
00001010
00000000
,
00000010
00000000
00000000
00000100
00000000
00000000
00001000
00000000
00000000
00010000
00000000
00000000
00100000
00000000
00000000
01000000
00000000
00000000
00010000
00000000
00100000
00000000
00010000
00000000
10000000
00000000
00000000
00100000
00000000
00000000
01000000
00000000
00010000
00000000
01000000
00000000
00001000
00000000
00000000
00010000
00000000
00000000
00000100
00000000
00001000
00000000
00000100
00000000
,
00000020
00000000
00000000
00000000
00000000
00000000
00000000
00000000
00000130
00000010
00000100
00000000
00001001
00000000
00001000
00000001
,
00000100
00001000
00000100
00000001
00000100
00001000
00010000
00001000
00000100
00001000
00010000
00100000
00010000
00001000
00010000
00100000
,
10000000
00100000
00010000
00000000
00000000
00010000
00001000
00010000
01000000
00010000
00001000
00000010
00000001
00000010
00001000
00010000
,
01000000
00010000
00001000
00000000
00000000
00010000
00001000
00010000
00100000
10000000
00100000
00010000
00001000
00010000
01000000
00010000
,
00001000
00000100
00001000
00010000
00100000
00010000
00001000
00000010
00000001
00000010
00001000
00000000
00010000
00100000
10000000
01000000
,
00100000
01000000
10000000
00100000
00010000
00001000
00000100
00000001
00000010
00000100
00000010
00000001
00000100
00001000
00010000
00100000
,
01000000
00010000
00001000
00000000
00000000
00001000
00010000
01000000
10000000
00100000
00010000
00001000
00000100
00001000
00010000
00100000
,
10000000
01000000
00100000
00010000
00001000
00000100
00000010
00000000
00000001
00000010
00001000
00000000
00000110
00000000
00001002
00000000
,
00000000
00000000
00000000
00000000
00000000
00000000
00000000
00000000
00000203
00000000
00000000
00000000
00000301
00000010
00001000
00010000
,
00001000
00000010
00000001
00000100
00001000
00010000
00001000
00000100
00000001
00000010
00001000
00010000
01000000
00010000
00001000
00000100
,
00001000
00010000
00100000
00000000
00000000
00100000
00010000
00001000
00010000
00100000
10000000
00010000
10000000
01000000
00010000
00001000
,
00000100
00001000
00010000
00000000
00000000
00001000
00010000
00100000
10000000
00010000
00100000
10000000
00010000
01000000
10000000
00010000
,
01000000
10000000
01000000
00010000
10000000
01000000
00010000
00001000
00000100
00001000
00010000
00000000
00011000
00001000
00010000
00100000
,
01000000
00000000
00000000
00100000
00000000
00000000
00010000
00000000
00000000
00001000
00000000
00000000
00000100
00000000
00000000
00000010
00000000
00000000
00001000
00000000
00000100
00000000
00001000
00000000
00000100
00000000
00000000
00000010
00000000
00000000
00000001
00000000
00000100
00000000
00000001
00000000
00000100
00000000
00000000
00000010
00000000
00000000
00001000
00000000
00000000
00000100
00000000
00000000
,
00000010
00000000
00000000
00001000
00000000
00000000
00010000
00000000
00000000
00000000
00000000
00000000
00000000
00000000
00000000
00010000
00000000
00000000
00100000
00000000
10000000
00000000
00100000
00000000
10000000
00000000
00000000
01000000
00000000
00000000
00100000
00000000
00010000
00000000
00100000
00000000
00010000
00000000
00000000
10000000
00000000
00000000
00100000
00000000
00000000
01000000
00000000
00000000
,
00100000
10000000
01000000
00100000
00001000
00010000
00001000
00000000
00010000
00001000
00000010
00000001
00001000
00000001
00000010
00001000
,
00010000
00000000
00000000
00000000
00000000
00000000
00100000
00000000
00000000
00000000
00000000
00000000
10000000
00000000
00000000
00000000
00000000
00000000
00010000
00000000
00000000
00000000
00000000
00000000
00100000
00000000
00000000
00000000
01000000
00000000
00000000
00000000
00100000
00000000
00000000
00000000
00010000
00000000
00000000
00000000
10000000
00000000
00000000
00000000
01000000
00000000
00000000
00000000
00100000
00000000
00000000
00000000
01000000
00000000
00000000
00000000
10000000
00000000
00000000
00000000
00010000
00000000
00000000
00000000
00100000
00000000
00000000
00000000
01000000
00000000
00000000
00000000
10000000
00000000
00000000
00010000
00000000
00000000
10000000
00000000
00000000
01000000
00000000
00000000
00100000
00000000
00000000
00000000
00000000
00000000
00010000
00000000
00000000
00100000
00000000
00000000
,
01000000
00100000
00002000
00000000
00010000
00000000
00013000
00000000
00001000
00010000
00001000
00000010
00000100
00000000
00000010
00000100
00000010
00000001
00002000
00000000
00000001
00000000
00003001
00000000
00001000
00010000
00100000
00010000
00001000
00000000
00001000
00000010
,
00000001
00000010
00002000
00000000
00010000
00000000
00013000
00000000
00001000
00000010
00010000
00001000
00100000
01000000
10000000
00100000
01000000
00010000
00100000
01000000
10000000
00100000
00010000
00001000
00010000
00000000
00000000
00000000
00010000
00001000
00000100
00000001
,
00000020
00000000
00000000
00000000
00000130
00000010
00000001
00000100
00002000
00000000
00000000
00000000
00013000
00100000
10000000
00100000
00020000
00000000
00000000
00000000
00031000
00010000
01000000
00100000
00010000
01000000
00100000
10000000
00000000
00000000
10000000
01000000
,
00100000
00010000
01000000
00000000
01000000
00100000
00010000
00001000
00000020
00000000
00000000
00000000
00000000
00000031
00000010
00001000
00000001
00000000
00000100
00000000
00001000
00000000
00010000
00000000
00021000
00000000
00000000
00000000
00000000
00000000
00000000
00000000
,
00031000
00100000
01000000
00010000
00000010
00000100
00001000
00100000
01000000
00010000
00000010
00000100
00001000
00100000
01000000
00010000
00000010
00000100
00001000
00100000
02000000
00000000
00000000
00000000
00000000
00000000
00000000
00000000
00000000
00000000
00000000
00000000
,
00000000
03000000
00000000
00000000
;
