#TITLE:Beagle;
#ARTIST:in the blue shirt;
#BANNER:Beagle.png;
#BACKGROUND:Beagle-bg.png;
#MUSIC:Beagle.ogg;
#OFFSET:0.003;
#SAMPLESTART:23.75;
#SAMPLELENGTH:15;
#BPMS:0=120;
#STOPS:27=1.5,40=2,84=1.5,97=2;

//---------------dance-single - RGTM-bSP----------------
#NOTES:
     dance-single:
     RGTM-bSP:
     Beginner:
     2:
     :
0000
0000
0000
0000
,
0000
0000
0000
0000
,
0000
0000
0000
0000
,
0000
0000
0000
0000
,
1000
0000
0000
0000
,
0001
0000
0000
0000
,
0100
0000
0000
0100
,
0000
0000
0000
0000
,
0000
0010
0000
0000
,
0000
1000
0000
0000
,
0001
0000
0000
0000
,
0000
1000
0000
0000
,
0000
0100
0000
0000
,
0000
0100
0000
0000
,
0000
0010
0000
0000
,
0000
0010
0000
0000
,
0000
0001
0000
0000
,
0000
0001
0000
0000
,
0000
1000
0000
0000
,
0000
0001
0000
0000
,
0000
0100
0000
0000
,
0100
0000
0000
0000
,
0000
0000
0010
0000
,
0000
0000
1000
0000
,
0000
0001
0000
0000
,
0000
0000
1000
0000
,
0000
0000
0001
0000
,
0000
0001
0000
0000
,
0000
0000
1000
0000
,
1000
0000
1000
0000
,
0000
0000
0100
0000
,
0100
0100
0000
0000
,
0000
0000
0010
0000
,
0100
0000
0010
0000
,
0000
0000
0001
0000
,
1000
0000
0001
0000
,
0000
0000
0100
0000
,
0010
0000
0100
0000
,
0000
0000
0001
0000
,
1000
0000
0001
0000
,
0000
0000
1000
0000
,
0100
0000
0010
0000
,
0000
0000
0001
0000
,
0010
0000
0100
0000
,
0000
0000
1000
0000
,
0001
0000
0100
0000
,
0000
0000
0001
0000
,
1000
0000
0100
0000
,
0000
0000
1000
0000
,
0000
0000
0000
0000
,
0000
0000
0001
0000
,
0000
0000
0000
0000
,
0000
0000
0100
0000
,
0000
0000
0000
0000
,
0000
0000
0010
0000
,
0000
0000
0000
0000
,
0000
1001
0000
0000
;

//---------------dance-single - RGTM-BSP----------------
#NOTES:
     dance-single:
     RGTM-BSP:
     Easy:
     5:
     :
0000
0000
0000
0000
,
0000
0000
0000
0000
,
0000
0000
0000
0000
,
0000
0000
0000
0000
,
1000
0000
0000
1000
0000
0000
1000
0000
,
0000
0000
0000
0000
,
0001
0000
0000
0001
0000
0000
1001
0000
,
0000
0000
0100
0000
0000
0100
0000
0000
,
0100
0000
0000
0000
,
0000
0000
0010
0000
0000
0010
0000
0000
,
0110
0000
1000
0000
0000
1000
0000
0000
,
0000
0001
0000
0000
0000
1000
0000
0000
,
0000
0000
0100
0000
0000
0100
0000
0000
,
0000
0010
0000
0000
0000
0100
0000
0000
,
0000
0000
1000
0000
0000
0001
0000
0000
,
0000
1000
0000
0000
0000
0001
0000
0000
,
0000
0000
0100
0000
0000
0010
0000
0000
,
0000
0100
0000
0000
0000
0010
0000
0000
,
0000
0000
1000
0000
0000
0001
0000
0000
,
1000
0000
0000
0000
0000
0000
0000
1000
,
1000
0000
0001
0000
0000
1000
0000
0000
,
1001
0000
0000
0000
0010
0000
0000
0100
,
0000
0010
0000
0000
,
0000
0100
0100
0000
0010
0000
0000
0100
,
0000
0110
1000
0001
,
1000
0100
0010
0001
,
1000
0000
0001
0100
,
0001
0020
0000
0130
,
0000
0100
1000
0001
,
1000
0010
0100
0001
,
1000
0000
0001
0010
,
0100
0110
1001
0110
,
1001
0000
2000
0010
,
3001
0000
0002
0010
,
1003
0000
2000
0001
,
3100
0000
0002
1000
,
0103
0000
2000
0100
,
3010
0000
0002
0100
,
0013
0000
2000
0010
,
0100
3000
0002
0010
,
0103
0000
1000
0100
,
0010
0100
1000
0001
,
1000
0000
0001
0100
,
0010
0100
0001
1000
,
0001
0000
1000
0010
,
0100
0001
1000
0100
,
0010
0010
0001
0010
,
0100
2000
0000
0001
,
0000
0000
3001
0000
1000
0000
0000
1000
,
0000
0000
0000
0001
0000
0000
0000
1000
,
0000
0000
0000
0000
0001
0000
0000
0001
,
0000
0000
0000
1000
0000
0000
0000
0001
,
0000
0000
0000
0000
0100
0000
0000
0100
,
0000
0000
0000
0010
0000
0000
0000
0100
,
0000
0000
0000
0000
0010
0000
0000
0010
,
0000
0000
0000
0100
0000
0000
0000
0010
,
0000
0110
0000
0000
;

//---------------dance-single - RGTM-DSP----------------
#NOTES:
     dance-single:
     RGTM-DSP:
     Medium:
     9:
     :
0000
0000
0000
0000
,
0000
0000
0000
0000
,
0000
0000
0000
0000
,
0000
0000
0000
0000
,
1000
0000
0010
1000
0000
0010
0100
0000
,
0010
0000
0100
0001
0000
1000
1000
0000
,
0001
0000
0010
0100
0000
1000
1001
0000
,
0000
0000
0001
0000
0010
0001
0000
0010
,
0100
0000
0010
0000
0100
1000
0000
0001
,
0001
0000
1000
0000
0010
0100
0000
0001
,
1001
0000
2000
0000
3001
0020
0000
0130
,
0000
2000
0000
3010
0000
0200
0000
0301
,
2000
0000
3002
0000
0013
0200
0000
0310
,
0000
0002
0000
1003
0000
0200
0000
0310
,
0002
0000
1003
0000
0001
2000
0000
3010
,
0000
0002
0000
0013
0100
0020
0000
1030
,
0001
1000
0100
0010
0100
0020
0000
0031
,
1000
0020
0000
0130
0010
0200
0000
0301
,
1000
0000
0001
0000
0100
0001
0000
0100
,
0010
0000
0100
0000
0010
1000
0000
0001
,
0001
0000
1000
0000
0100
0010
0000
0001
,
1001
0000
0000
0000
1000
0000
0100
1000
,
0000
0100
0010
0000
0100
0000
0010
0001
,
0000
1000
1000
0000
0001
0000
0100
0010
,
0000
1000
1001
0000
1000
0000
0010
0000
,
0001
0010
1000
0000
0100
0010
0001
0100
,
0000
0010
0010
0000
1000
0000
0100
0000
,
0001
0100
2000
0000
0000
0000
3010
0000
,
0000
0000
1000
0000
0001
0000
0010
1000
,
0000
0010
0001
0000
0100
0010
1000
0100
,
0000
0010
0010
0000
0100
0000
1000
0000
,
0010
0100
0110
0000
1001
0000
0110
0000
,
1001
1000
0100
0010
0002
0000
1000
0000
,
0000
0013
0001
0200
0000
0320
0000
2030
,
0000
3100
0010
0002
0000
0000
1000
0000
,
0000
0103
0001
2000
0000
3002
0000
0023
,
0000
0130
1000
0020
0000
0000
1000
0000
,
0100
0000
1030
0200
0000
0320
0000
0032
,
0000
2003
0000
3020
0000
0032
0000
0023
,
0000
0130
0002
0000
0010
0000
1000
0000
,
0100
0000
1003
0000
1000
0100
0010
0001
,
0100
0010
1000
0000
0001
0100
0010
1000
,
0100
0010
0001
0000
1000
0010
0001
0010
,
1000
0100
0010
0000
0001
0010
1000
0010
,
0001
0100
0010
0000
1000
0010
0100
0001
,
1000
0100
0010
0000
0001
0010
0100
1000
,
0001
0100
0010
0000
1000
0100
0001
0100
,
1000
0010
0100
0000
0001
0100
1000
0100
,
0001
0010
0100
0000
2000
0000
3001
0200
,
0000
0310
0000
2000
0000
3100
0000
0020
,
0000
0031
2000
0000
3002
0000
0103
0020
,
0000
0130
0000
0002
0000
1003
0000
0020
,
0000
0130
0002
0000
1003
0000
0001
2000
,
0000
3100
0000
0002
0000
0103
0010
0200
,
0000
1300
0001
1000
0010
0100
0010
0200
,
0000
0301
1000
0200
0000
0310
0100
0020
,
0000
0031
1001
0000
0000
0000
0000
0000
;

//---------------dance-single - RGTM-ESP----------------
#NOTES:
     dance-single:
     RGTM-ESP:
     Hard:
     12:
     :
0000
0000
0000
0000
,
0000
0000
0000
0000
,
0000
0000
0000
0000
,
0000
0000
0000
0000
0000
0000
0000
0000
0000
0000
0000
0000
0000
0000
0001
0100
,
0001
0000
0000
0000
0010
0000
0000
0000
0200
0300
0000
0000
0200
0300
0000
0000
0001
0000
0000
0000
1000
0000
0000
0000
0100
0000
0000
0000
0010
0000
0000
0000
,
0011
0000
0001
0000
1000
0000
1020
0000
0000
0000
0130
0000
0010
0100
0001
0100
,
0010
1000
0200
0320
0032
1003
0110
0000
,
1000
0001
1000
0010
0001
1000
0100
0001
,
1000
0010
0001
0010
1000
2100
0000
3010
,
1000
0000
0000
0000
0001
0000
0000
0000
0010
0000
0000
0000
0001
0000
0000
0000
0200
0300
0000
0000
0200
0300
0000
0000
1000
0000
0000
0000
0001
0000
0000
0000
,
0110
0000
0000
0000
1000
0000
0100
0000
1000
0000
0000
0000
0010
0000
0000
0000
0200
0300
0000
0000
0200
0300
0000
0000
1000
0000
0000
0000
0001
0000
0000
0000
,
0100
0010
1010
1000
0001
0021
0000
0130
,
0010
0100
1000
0100
0010
0000
0001
0000
0200
0000
0320
0000
2030
0000
3001
0000
,
0010
0210
0000
1300
0010
0100
0001
1010
,
0100
1010
0001
0010
1000
0001
0100
1000
,
0001
0021
0000
0130
1000
1020
0000
0130
,
0010
0000
0000
0000
1000
0000
0000
0000
0001
0000
0000
0000
0010
0000
0000
0000
0200
0300
0000
0000
0200
0300
0000
0000
0001
0000
0000
0000
1000
0000
0000
0000
,
0010
0210
0000
1300
0100
0102
0000
0013
,
0110
0000
0000
0000
0100
0000
0000
0000
1000
0000
0000
0000
0010
0000
0000
0000
0200
0300
0000
0000
0200
0300
0000
0000
1000
0000
0000
0000
0001
0000
0000
0000
,
0100
0010
1010
1000
0001
0021
0000
0130
,
0010
0100
1000
0100
0010
0000
0001
0000
0200
0000
0320
0000
2030
0000
3001
0000
,
0110
0000
0001
1000
0001
0010
1000
0001
,
0100
1000
0001
0010
1000
0010
0001
0102
,
0000
0000
0000
0000
0013
0000
0000
0000
0001
0000
0000
0000
1000
0000
0000
0000
0010
0000
0000
0000
1000
0000
0000
0000
0200
0300
0000
0000
0200
0300
0000
0000
,
0001
0000
0000
0000
1000
0000
0000
0000
0110
0000
0000
0000
0001
0000
0100
0000
0001
0000
0000
0000
0010
0000
0000
0000
0200
0300
0000
0000
0200
0300
0000
0000
,
0001
1000
0100
0010
0011
0001
1000
1020
,
0000
0000
0130
0000
0010
0100
0001
0100
0010
0000
1000
0000
0200
0000
0320
0000
,
0032
1003
0220
0000
0330
1000
0001
0000
,
0000
0001
1000
0001
1000
0010
0001
1000
,
0100
0001
1000
0010
0001
0010
1000
2100
,
0000
0000
0000
0000
3010
0000
0000
0000
1000
0000
0000
0000
0001
0000
0000
0000
0010
0000
0000
0000
0001
0000
0000
0000
0200
0300
0000
0000
0200
0300
0000
0000
,
1000
0001
0110
0000
1001
0000
0110
0000
,
1001
1000
0010
0100
0002
0000
1000
0000
,
0010
0013
0001
0200
0000
2300
0000
3002
,
0000
0013
1000
0002
0010
0000
0100
0000
,
1000
1003
0001
2000
0000
3020
0000
0032
,
0000
1003
0100
0020
0100
0000
0001
0000
,
1000
0000
0130
0002
0000
2003
0000
3200
,
0000
0320
0000
2030
0000
3002
0000
0203
,
0000
0310
0002
0000
0010
0000
1000
0000
,
0100
0000
0000
0000
1003
0100
0010
0001
1000
0000
0100
0000
0010
0000
2010
0000
,
0000
3001
0100
1200
0000
0310
0001
2001
,
0000
3010
0001
0012
0000
1003
0100
0201
,
0000
0310
1000
1002
0000
0023
0100
0000
,
0001
0000
0130
1000
1020
0130
0102
1003
,
1200
0000
0310
0000
0012
0000
0000
0000
0100
0000
1003
0100
0010
0000
0001
0100
,
0010
0000
1000
0100
0010
0000
0002
0000
0000
0000
0013
0000
0100
0000
2100
0000
,
0000
3010
1002
0000
1000
0000
0100
0000
,
1000
0000
0010
0000
2003
0000
3001
0020
,
0000
0130
0000
2000
0000
3010
0000
0200
,
0000
0301
2000
0000
3002
0000
0013
0200
,
0000
0310
0000
0002
0000
1003
0000
0200
,
0000
0310
0002
0000
1003
0000
0001
2000
,
0000
3010
0000
0002
0000
0013
0100
0020
,
0000
1030
0001
1000
0100
0010
0100
0020
,
0000
0031
1000
0020
0000
0130
0010
0200
,
0000
0301
1001
0000
0000
0000
0000
0000
;
