#TITLE:Wake Up, Get Up, Get Out There;
#SUBTITLE:;
#ARTIST:Shoji Meguro;
#TITLETRANSLIT:;
#SUBTITLETRANSLIT:;
#ARTISTTRANSLIT:;
#GENRE:;
#CREDIT:;
#BANNER:Wake Up, Get Up, Get Out There.png;
#BACKGROUND:Wake Up, Get Up, Get Out There-bg.png;
#LYRICSPATH:;
#CDTITLE:;
#MUSIC:Wake Up, Get Up, Get Out There.ogg;
#OFFSET:0.825749;
#SAMPLESTART:59.646000;
#SAMPLELENGTH:15.000000;
#SELECTABLE:YES;
#BPMS:0.000000=127.000992
;
#STOPS:
;
#BGCHANGES:1.750=Wake Up, Get Up, Get Out There.avi=1.000=1=0=1===CrossFade==,
99999=-nosongbg-=1.000=0=0=0 // don't automatically add -songbackground-
;
#KEYSOUNDS:;
#ATTACKS:;

//---------------dance-single - ----------------
#NOTES:
     dance-single:
     :
     Beginner:
     2:
     0.111070,0.180189,0.073546,0.031520,0.000000,74.000000,67.000000,7.000000,3.000000,0.000000,0.000000,0.111070,0.180189,0.073546,0.031520,0.000000,74.000000,67.000000,7.000000,3.000000,0.000000,0.000000:
0000
0000
0000
0000
,
0000
0000
0000
0000
,
0000
0000
0000
0000
,
0000
0000
0000
0000
,
0000
0000
0000
0000
,
0001
0000
0000
0000
,
0000
0000
1000
0000
,
0001
0000
0000
0000
,
1000
0000
0000
0000
,
0001
0000
0000
0010
,
0000
0000
0100
0000
,
1000
0000
0000
0010
,
0000
0000
0100
0000
,
0001
0000
0000
0010
,
0000
0000
0100
0000
,
1000
0000
0000
0001
,
0000
0000
1000
0000
,
0001
0000
0000
0001
,
0000
0001
0000
0000
,
1000
0000
1000
0000
,
1000
0000
0000
0000
,
0010
0000
0000
0010
,
0000
0010
0000
0000
,
2000
0000
3000
0000
,
0001
0000
0000
0000
,
1001
0000
0000
0000
,
0000
0000
0000
0010
,
0010
0010
0000
0000
,
0000
0000
0100
0000
,
0110
0000
0000
0000
,
0000
0000
0000
0001
,
0001
0000
0001
0000
0000
0000
0000
2002
,
0000
0000
3003
1000
,
1001
0000
0000
0100
,
0000
0010
0000
0100
,
0000
0010
0000
0100
,
0000
0010
0000
0000
,
0110
0000
0000
1000
,
0100
0000
0010
0000
,
0001
0000
0001
0000
,
1000
0000
1000
0000
,
1001
0000
0000
0100
,
0000
0010
0000
0100
,
0000
0010
0000
0100
,
0000
0010
0000
0100
,
0000
0010
0000
0000
,
0100
0000
0100
0000
,
0001
0000
0000
0000
,
0001
0000
0000
0000
,
1001
0000
0000
0000
;

//---------------dance-single - ----------------
#NOTES:
     dance-single:
     :
     Easy:
     5:
     0.201127,0.259382,0.084053,0.147093,0.021013,134.000000,126.000000,8.000000,14.000000,0.000000,0.000000,0.201127,0.259382,0.084053,0.147093,0.021013,134.000000,126.000000,8.000000,14.000000,0.000000,0.000000:
0000
0000
0000
0000
,
0000
0000
0000
0000
,
0000
0000
0000
0000
,
0000
0000
0000
0000
,
0000
0000
0000
0000
,
0001
0000
0000
1001
0000
0000
0000
0000
,
0000
0000
0000
1000
0000
0000
0000
0000
,
0001
0000
0000
1001
0000
0000
0000
2000
,
0000
0000
0000
3010
,
1000
0000
0000
1000
0000
0000
0000
0001
,
0000
0000
0100
0010
,
1000
0000
0000
1000
0000
0000
0000
0200
,
0000
0000
0000
0310
,
0001
0000
0000
0001
0000
0000
0100
0000
,
0000
0001
0000
0100
,
0001
0000
0000
0001
0000
0000
0000
2002
,
0000
0000
0000
0000
3003
0000
0000
0001
,
1000
0000
0100
0001
,
0000
0010
0000
0000
1000
0000
0000
0000
,
0001
0000
0000
0100
0000
0000
1000
0000
,
0010
0000
0001
0000
,
1000
0000
0100
0001
,
0000
0100
0000
0000
1000
0000
0000
0000
,
0001
0100
0010
0000
,
1000
0000
0001
0000
,
0100
0000
0000
0100
0000
0000
0000
0000
0000
0000
0000
0000
0100
0000
0000
0000
,
0000
0100
0000
0001
,
0010
1000
0000
0010
,
0000
0001
0100
0001
,
0010
0000
0000
0010
0000
0000
0000
0000
0000
0000
0000
0000
0010
0000
0000
0000
,
0000
0010
0000
0001
,
0100
0000
1000
0000
0010
0000
0000
2002
,
0000
3003
0000
0000
1001
0000
0001
0000
,
2000
3100
0002
0103
,
1000
0010
0001
0100
,
2000
3010
0002
0013
,
1000
0100
0001
0010
,
1000
0001
0000
0001
,
0010
1000
0100
0001
,
1000
0000
0000
1001
0000
0000
0000
0000
,
0001
0010
1000
0010
,
0001
0000
0000
0001
0000
1000
0000
0000
,
2000
3100
0200
0301
,
0002
0013
0020
1030
,
1000
0100
0001
0010
,
1000
0000
0000
1000
0000
0000
0010
0000
0000
0000
0000
0000
0010
0000
0000
0000
,
1000
0010
0001
0100
,
1000
0000
0000
1001
0000
0000
0000
0000
,
0010
0000
0000
0110
0000
0000
0000
0000
,
0100
0000
0000
0100
0000
0000
0100
0000
0000
0000
0000
0000
0000
0000
0000
0000
;

//---------------dance-single - ----------------
#NOTES:
     dance-single:
     :
     Medium:
     9:
     0.360227,0.440950,0.420265,0.105066,0.204879,240.000000,200.000000,40.000000,10.000000,0.000000,0.000000,0.360227,0.440950,0.420265,0.105066,0.204879,240.000000,200.000000,40.000000,10.000000,0.000000,0.000000:
0000
0000
0000
0000
,
0000
0000
0000
0000
,
0000
0000
0000
0000
,
0000
0000
0000
0000
,
0000
0000
0000
0000
,
0001
0000
0000
0001
0000
0000
1001
0000
0000
0000
0000
0000
0000
0000
0000
0000
,
0000
0000
0000
1000
0000
0110
0000
0000
,
0001
0000
0000
0001
0000
0000
0001
0000
0000
0000
0000
0000
0000
0000
0110
0000
,
0000
0000
0000
1001
,
1000
0000
0000
0100
0000
0000
0100
0000
0000
0000
0001
0000
0000
0000
0100
0000
,
0000
1000
0000
0010
0100
0000
0001
0000
,
1000
0000
0000
0010
0000
0000
0110
0000
0000
0000
0000
0000
0000
0000
2002
0000
,
0000
0000
0000
3003
0000
0000
0001
0000
,
1000
0000
0000
1000
0000
0000
0100
0000
0000
0000
0001
0000
0000
0000
0010
0000
,
0000
0000
1000
0000
0000
0000
0001
0000
0100
0000
0000
0010
0000
1000
0000
0000
,
0001
0000
0000
0001
0000
0000
0100
0000
0000
0000
0000
0000
0010
0000
2002
0000
,
0000
0000
3003
0000
0010
0010
0010
1000
,
0001
0100
1000
0010
,
0001
0000
0010
0000
0000
1000
0000
0000
0010
0000
0000
0000
0100
0000
0000
0000
,
1000
0010
0001
0100
,
1000
0000
0000
0000
0001
0000
0100
1000
,
0100
0000
0000
0101
0000
0000
0000
0000
0001
0000
1000
0000
0000
0010
0000
0000
,
1000
0000
0100
0000
0000
0001
0000
0000
1000
0000
0000
0000
0010
0000
0001
0000
,
1000
0000
0000
0010
0000
0000
0001
0000
0000
0000
0010
0000
0000
0000
0100
0000
,
0010
0000
0010
0000
0200
0000
1000
0301
,
0110
0000
0000
1001
0000
0000
0000
0000
0001
0000
0000
0001
0000
0000
0000
0000
,
0010
0000
0000
0010
0000
0000
0000
0000
1000
0000
0010
0000
0001
0000
0100
0000
,
1000
0100
0001
0000
0100
0000
1000
0000
,
0010
0000
0000
0000
0001
0000
1000
0000
0100
0000
0000
0100
0000
0000
0010
0000
,
0001
0000
0000
1001
0000
0000
0000
0000
1000
0000
0000
1000
0000
0000
0000
0000
,
0010
0000
0000
0010
0000
0000
0000
0000
0100
0000
0001
0000
0010
0000
0100
0000
,
1000
0000
0100
0000
0010
0000
0000
0000
0010
0000
0000
0100
0000
0000
1001
0000
,
0000
1001
0000
0000
0110
0000
0000
1001
,
1000
0000
0000
0100
0000
0000
0101
0000
0000
0000
1010
0000
0000
0000
0000
0000
,
0001
0100
0000
0000
1100
0000
0000
0101
,
0001
0000
0000
0110
0000
0000
0100
0000
0000
0000
1000
0000
0100
0000
0000
0000
,
1000
0000
0010
0000
0000
0001
0000
0000
0100
0000
0000
1000
0000
0000
0001
0000
,
0110
0000
0000
1001
0000
0000
1100
0000
0000
0000
0101
0000
0001
0000
0010
0000
,
0001
0000
0000
0010
0000
0000
1000
0000
0000
0000
0100
0000
0000
0000
0001
0000
,
1001
0000
1000
1010
0000
0010
0010
0000
,
1000
0000
0001
0000
0000
0100
0000
0000
1000
0000
0000
0100
0000
0000
0001
0000
,
1000
0000
0000
1100
0000
0000
0110
0000
0000
0000
1001
0000
0000
0000
0001
0000
,
1000
0000
0010
0000
0000
0001
0000
0000
1000
0000
0000
0100
0000
0000
0001
0000
,
0010
0000
0000
1100
0000
0000
0101
0000
0000
0000
0000
0000
0101
0000
0000
0000
,
1000
0000
0100
0000
0000
0001
0000
0000
0010
0000
0000
1000
0000
0000
0001
0000
,
0100
0000
0000
0110
0000
0000
0000
0000
0000
0000
0000
0000
1000
0000
1000
0000
,
0001
0000
0000
0010
0000
0000
1000
0000
0000
0000
0110
0000
0000
0000
1001
0000
,
2000
0000
3000
0220
0000
0000
0330
0000
,
0001
0000
0000
0001
0000
0000
0220
0000
0000
0000
0000
0000
0330
0000
0000
0000
,
1001
0000
0000
0110
0000
0000
1001
0000
0000
0000
0000
0000
0000
0000
0000
0000
;

//---------------dance-single - ----------------
#NOTES:
     dance-single:
     :
     Hard:
     12:
     0.499815,0.570641,0.598878,0.136586,0.325706,333.000000,276.000000,57.000000,13.000000,0.000000,0.000000,0.499815,0.570641,0.598878,0.136586,0.325706,333.000000,276.000000,57.000000,13.000000,0.000000,0.000000:
// measure 0
0000
0000
0000
0000
,  // measure 1
0000
0000
0000
0000
,  // measure 2
0000
0000
0000
0000
,  // measure 3
0000
0000
0000
0000
,  // measure 4
0000
0000
0000
0000
,  // measure 5
1001
0000
0000
0110
0000
0000
1001
0000
0000
0000
0000
0000
0000
0000
0010
0000
,  // measure 6
0000
0000
0000
0011
0000
1010
0000
0000
,  // measure 7
0110
0000
0000
1001
0000
0000
0110
0000
0000
0000
0000
0000
0000
0000
2002
0000
,  // measure 8
0000
0000
3003
1001
,  // measure 9
0011
0000
0000
0010
0000
0000
1010
0000
0000
0000
0100
0000
0001
0000
1000
0000
,  // measure 10
0000
0010
1000
0100
0001
0010
1000
0001
,  // measure 11
0100
0000
0000
0100
0000
0000
1100
0000
0000
0000
0000
0000
1000
0000
0020
0000
,  // measure 12
0000
0000
0000
0000
1000
0000
1000
0000
0130
0010
0000
0010
0000
0110
0000
0000
,  // measure 13
0011
0000
0000
0010
0000
0000
1010
0000
0000
0000
0101
0000
0000
0000
0011
0000
,  // measure 14
0000
0010
0100
0010
0001
0100
1000
0010
,  // measure 15
0001
0000
0000
0010
0000
0000
1100
0000
0000
0000
0000
0000
1000
0000
2002
0000
,  // measure 16
0000
0000
0000
3003
0010
0010
0010
1000
,  // measure 17
0001
0100
1000
0000
1000
0100
0001
0010
,  // measure 18
0000
0000
0010
0000
0010
0100
0000
1000
0010
0000
0000
0000
0100
0000
0001
0000
,  // measure 19
1000
0100
0010
0001
1000
0010
0001
0010
,  // measure 20
2000
0000
3100
0000
0002
0000
0103
0001
,  // measure 21
1000
0100
0001
0000
0001
0100
1000
0010
,  // measure 22
0000
0001
0010
1000
0001
0010
0100
0010
,  // measure 23
0001
0000
0000
0100
0000
0000
0010
0000
0000
0000
1000
0000
0100
0000
0100
0000
,  // measure 24
0010
0010
0001
0000
0020
0000
1000
0031
,  // measure 25
0110
0000
0000
1001
0000
0000
0000
0000
0001
0000
0000
0001
0000
0000
0001
0000
,  // measure 26
0010
0000
0000
0001
0000
0010
0000
0000
0001
0000
1000
0000
0010
0100
0000
0010
,  // measure 27
1000
0000
0001
0000
0010
0000
0000
0000
0100
0000
0100
0000
0010
0100
0000
1000
,  // measure 28
0000
0000
0001
0000
0100
0000
0001
0000
0100
0000
0000
0100
0000
0000
0010
0000
,  // measure 29
1000
0000
0000
1001
0000
0000
0000
0000
1000
0000
0000
1000
0000
0000
1000
0000
,  // measure 30
0010
0000
0000
0010
0000
0100
0000
0000
0010
0000
1000
0000
0100
0000
0010
0000
,  // measure 31
0001
0000
0010
0000
0200
0000
0000
0000
1300
0000
0000
0010
0000
0000
1001
0000
,  // measure 32
0000
0000
0110
0000
0000
0010
0000
0000
1001
0000
0000
0100
0000
0000
0101
0000
,  // measure 33
1001
0000
0000
1000
0100
0000
0001
0100
0000
0000
1000
0010
1000
0000
0010
0000
,  // measure 34
1000
0000
0100
0000
0100
0010
0000
0000
1001
0000
0001
0010
0000
0000
0110
0000
,  // measure 35
1001
0000
0000
0110
0000
0000
0100
0010
0000
0000
0100
0000
0101
0000
0000
0000
,  // measure 36
0001
0010
0100
0000
0000
1000
0000
0000
0100
0000
1000
0001
0010
0000
0001
0000
,  // measure 37
1001
0000
0000
1001
0000
0000
0110
0000
0000
0000
0010
1000
0010
0000
0100
0000
,  // measure 38
0001
0010
1000
0100
0001
0100
0010
1000
,  // measure 39
0001
0000
1000
0110
0000
0001
1010
0000
,  // measure 40
1000
0000
0001
0000
1000
0010
0000
0000
0101
0000
0000
0100
0000
0000
1100
0000
,  // measure 41
1000
0000
0000
0101
0000
0000
1000
0010
0000
0000
0010
0001
0000
0000
0001
0000
,  // measure 42
0100
0000
1000
0100
0000
0000
0010
0000
1000
0100
0000
0010
0000
0000
0001
0000
,  // measure 43
1000
0000
0000
0110
0000
0000
0001
1000
0000
0000
1000
0000
0101
0000
0000
0000
,  // measure 44
0001
0010
0000
1000
0000
0000
0001
0000
0100
1000
0000
0010
0000
0000
0110
0000
,  // measure 45
1001
0000
0000
1001
0000
0000
0001
0010
0000
0000
0100
1000
0001
0000
0010
0000
,  // measure 46
0001
0000
1000
0100
0010
0000
0001
0000
1000
0010
0100
0000
0001
0000
1000
0000
,  // measure 47
1010
0000
0000
0110
0000
0000
0202
0000
0000
0000
0303
0000
0101
0000
0000
0000
,  // measure 48
0011
0000
0000
0110
0000
0000
2020
0000
0000
0000
3030
0000
1010
0000
0000
0000
,  // measure 49
1001
0000
0000
0110
0000
0000
1001
0000
0000
0000
0000
0000
0000
0000
0000
0000
;
