#TITLE:celebrate;
#ARTIST:JJ COMPANY;
#BANNER:celebrate.png;
#BACKGROUND:celebrate-bg.png;
#MUSIC:celebrate.ogg;
#SAMPLESTART:17.911;
#SAMPLELENGTH:15;
#DISPLAYBPM:134;
#BPMS:0=133.997;

//---------------dance-single - ----------------
#NOTES:
     dance-single:
     :
     Easy:
     5:
     :
0000
0000
0000
0000
,
0000
0000
0000
0000
,
0000
0000
0000
0000
,
0000
0000
0000
0000
,
0000
0000
0000
0000
,
0000
0000
0000
0010
,
0001
0010
0001
0100
,
0001
0100
0001
0010
,
1000
0010
1000
0100
,
1000
0100
1000
0010
,
1000
0100
1001
0100
,
1000
0000
0010
0000
1001
0000
0010
1000
,
0100
0000
0001
0100
0000
0000
0010
0000
,
1000
0100
0001
1000
,
0100
0000
0001
0100
0000
0000
0001
0000
,
0100
0000
1000
0100
0000
0000
0010
0001
,
0100
0000
0001
0010
1000
0000
1000
0000
,
1000
0100
1000
0010
,
0010
0001
0010
0001
,
0001
0100
0001
0010
,
1000
0010
1000
0001
,
0100
0001
0100
0010
,
1000
0100
0001
1000
,
0001
0000
0100
0000
0100
0000
0010
0100
,
0010
1000
0001
0010
,
0010
1000
0100
0000
0100
0000
1000
0000
,
1000
0100
0001
0000
0001
0000
1000
0000
,
1000
0000
0001
0000
0001
0000
0010
1000
,
0001
0000
1000
0000
1000
0000
0001
0100
,
0001
1000
1000
0001
,
0100
0001
0100
1000
,
0100
1000
0100
0010
,
0010
0001
0001
1000
,
1000
0000
0100
0000
0100
0000
0001
0100
,
1000
0000
0010
0010
0000
0000
1000
0100
,
0001
0000
0010
0010
0000
0000
0010
0001
,
1000
0000
0010
1000
0001
0000
0001
0000
,
0001
0100
1000
1010
,
0001
0100
0000
0011
,
1000
0100
0000
0010
,
1000
0100
0001
1000
,
0100
0001
0100
0010
,
0001
0010
0001
0010
,
1000
0010
1000
0010
,
0010
1000
1000
0100
,
0100
0001
0001
0010
,
1000
0100
0001
0010
,
1000
0100
0001
0100
,
1000
0000
0100
0000
0001
0000
1001
0100
,
0100
0000
1000
0010
0010
0000
0010
0000
,
1000
0010
1000
0010
,
0001
0100
1000
0000
;

//---------------dance-double - ----------------
#NOTES:
     dance-double:
     :
     Easy:
     5:
     :
00000000
00000000
00000000
00000000
,
00000000
00000000
00000000
00000000
,
00000000
00000000
00000000
00000000
,
00000000
00000000
00000000
00000000
,
00000000
00000000
00000000
00000000
,
00000000
00000000
00000000
00000000
,
00000010
00010000
01000000
10000000
,
00100000
00001000
00000100
00000001
,
00000010
00010000
01000000
10000000
,
00010000
00000010
00000100
00000100
,
00000010
00001000
00010000
01000000
,
00100000
00010000
00001000
00000100
,
00000010
00000000
00001000
00000000
00010000
00100000
10000000
00000000
,
00100000
00010000
00001000
00000001
,
00001000
00000000
00010000
00000000
01000000
10000000
00000000
00000000
,
00010000
00000000
00001000
00000000
00000100
00000001
00000000
00000000
,
00000010
00010000
01000000
00000000
,
10000000
00000000
00010000
00010000
,
10000000
00010000
00001000
00000001
,
00000001
00001000
00010000
10000000
,
00100000
00010000
00001000
00000010
,
00000100
00001000
00010000
01000000
,
10000000
00100000
00010000
00000100
,
00000001
00000010
00001000
01000000
,
00100000
00010000
00001000
00000000
00000001
00000000
00000100
00000000
,
00001000
00000000
00010000
00000010
00000100
00000000
00000001
00000000
,
00010000
00000000
00100000
00001000
01000000
00000000
10000000
00000000
,
10000000
10000000
00010000
00010000
,
00001000
00001000
00000001
00000001
,
00000001
00000100
00001000
00000000
00010000
00000000
10010000
00000000
,
00100000
10000000
01000000
00010000
,
00001000
00000100
00000001
00000010
,
00000001
00000001
00000100
00001000
,
00010000
00010000
01000000
10000000
,
00100000
10000000
01000000
00000000
00010000
00000100
00000000
00000000
,
00000010
00000001
00000100
00000000
00001000
01000000
00000000
00000000
,
00100000
00010000
01000000
00000000
00000010
00001000
00000100
00000000
,
00010000
00010000
00001000
00000100
,
00000101
00001000
00010000
00000000
,
11000000
00010000
00001000
00000000
,
00000010
00000001
00000100
00001000
,
00010000
01000000
10000000
00100000
,
00010000
01000000
00100000
00100000
,
00001000
00000100
00000010
00000010
,
00010000
01000000
10000000
00100000
,
00001000
00000100
00000001
00000010
,
00010000
01000000
00100000
00001000
,
00000100
00000010
00010000
01000000
,
00100000
10000000
00100000
10000000
,
01000000
00010000
00010000
00000000
00000100
00001000
00001000
00000000
,
00001000
00000100
00000010
00010000
,
01000000
00100000
00001000
00000100
;
