#TITLE:been so long;
#ARTIST:m-flo;
#BANNER:been so long.png;
#BACKGROUND:been so long-bg.png;
#MUSIC:been so long.ogg;
#SAMPLESTART:71.875;
#SAMPLELENGTH:15;
#DISPLAYBPM:96;
#BPMS:0=95.991;

//---------------dance-single - ----------------
#NOTES:
     dance-single:
     :
     Easy:
     3:
     :
0000
0000
0000
0000
,
0000
0000
0000
0000
,
0000
0000
0000
0000
,
0000
0000
0000
0000
,
0000
0000
0000
0000
,
0000
0000
0010
0100
,
1000
0100
0001
0000
0001
0100
1000
0000
,
0001
0100
1000
0100
,
0001
0100
1000
0000
1000
0100
0001
0000
,
0000
1000
0000
0001
,
0010
0100
1000
0000
0100
0010
0001
0000
,
0000
1000
0000
0001
,
0010
0100
1000
0000
0010
0100
0001
0000
,
0000
1000
0010
0100
,
0010
0100
1000
0000
0010
0000
0001
0000
,
1000
0100
0010
0100
,
0010
0100
0001
0000
0001
0000
0010
0000
,
1000
0100
0010
0100
,
1000
0001
0100
0000
0010
0000
0100
0000
,
0001
1000
0100
0000
1000
0000
0001
0000
,
0000
1000
0001
0000
0001
0000
1000
0000
,
0000
0001
1000
0000
0001
0000
0100
0000
,
1000
0100
1000
0001
,
0010
1000
0100
0000
0100
0000
0001
0000
,
0100
1000
0001
1000
,
0010
0001
0100
0000
0100
0000
0001
0000
,
0100
1000
0100
0100
,
0000
1000
0100
0000
0010
0000
0001
0000
,
0100
1000
0010
1000
,
0100
0001
0010
0100
,
1000
0100
0001
0000
0001
0100
1000
0000
,
0001
0100
1000
0100
,
0001
0100
1000
0000
1000
0100
0001
0000
,
0000
1000
0000
0001
,
0010
0100
1000
0000
0100
0010
0001
0000
,
0000
1000
0000
0001
,
0010
0100
1000
0000
0100
0010
0001
0000
,
0000
1000
0000
0001
,
0010
0100
0001
0000
0000
0000
0000
0000
;

//---------------dance-double - ----------------
#NOTES:
     dance-double:
     :
     Easy:
     3:
     :
00000000
00000000
00000000
00000000
,
00000000
00000000
00000000
00000000
,
00000000
00000000
00000000
00000000
,
00000000
00000000
00000000
00000000
,
00000000
00000000
00000000
00000000
,
00000000
00000000
00000010
00000100
,
00000001
00000000
00000100
00000000
00001000
00010000
00100000
00000000
,
10000000
01000000
00010000
01000000
,
10000000
00000000
01000000
00000000
00010000
00001000
00000010
00000000
,
00000001
00000100
00001000
00000100
,
00000001
00000000
00000100
00000000
00001000
00010000
01000000
00000000
,
00001000
00000100
00010000
01000000
,
00001000
00000100
00000000
00010000
,
01000000
00010000
00001000
00000000
00000001
00000000
00000100
00000000
,
00000001
00001000
00010000
00000000
10000000
00000000
01000000
00000000
,
10000000
00010000
00001000
00000000
00000001
00000000
00000100
00000000
,
00000010
00001000
00010000
00000000
10000000
00000000
01000000
00000000
,
00100000
00010000
00001000
00000000
00000010
00000000
00001000
00000000
,
00000000
00010000
01000000
00000000
10000000
00000000
00100000
00000000
,
00000000
00010000
00001000
00000000
00000010
00000000
00000100
00000000
,
00001000
00010000
01000000
00000000
01000000
00010000
00001000
00000000
,
00000001
00001000
00000001
00000000
00001000
00000000
00000100
00000000
,
00010000
01000000
00001000
00000100
,
00010000
00000000
01000000
00000000
00010000
00001000
00000100
00000000
,
00000010
00000000
00000100
00000000
00000010
00001000
00010000
00000000
,
00100000
01000000
10000000
01000000
,
00100000
01000000
10000000
01000000
,
00010000
00001000
00000100
00000000
00000010
00000000
00000001
00000000
,
00000010
00000100
00000001
00000010
,
00000001
00000010
00000100
00000000
00000001
00000000
00000100
00000000
,
00001000
00010000
00100000
00000000
10000000
00000000
01000000
00000000
,
00010000
01000000
10000000
01000000
,
00010000
00001000
00000010
00000000
00000001
00000000
00000100
00000000
,
00001000
00000100
00000001
00000100
,
00001000
00010000
01000000
00000000
10000000
00000000
01000000
00000000
,
00100000
00010000
00001000
00000000
00000100
00000000
00000001
00000000
,
00000010
00001000
00010000
00000000
01000000
00000000
10000000
00000000
,
01000000
00010000
00001000
00000000
00000100
00000000
00000001
00000000
,
00000100
00001000
00000000
00000000
;
