#TITLE:The Centre Of The Heart (STONEBRIDGE CLUBMIX);
#ARTIST:Roxette;
#BANNER:The Centre Of The Heart (STONEBRIDGE CLUBMIX).png;
#BACKGROUND:The Centre Of The Heart (STONEBRIDGE CLUBMIX)-bg.png;
#CDTITLE:./CDTITLES/Dancemania.PNG;
#MUSIC:The Centre Of The Heart (STONEBRIDGE CLUBMIX).ogg;
#SAMPLESTART:61.85;
#SAMPLELENGTH:15;
#DISPLAYBPM:128;
#BPMS:0=128.13,4=128;

//---------------dance-single - ----------------
#NOTES:
     dance-single:
     :
     Easy:
     2:
     :
0000
0000
0000
0000
,
0000
0000
0000
0000
,
0000
0000
0000
0000
,
0000
0000
0000
0000
,
0000
0000
0000
0000
,
0001
0001
0001
0001
,
0010
0010
0001
0001
,
0000
1000
0000
1000
,
0000
1000
0000
1000
,
0000
0010
0000
0001
,
0010
0001
0100
0100
,
0000
1000
1000
1000
,
0000
0001
0000
1000
,
0000
0010
0000
1000
,
0010
1000
0100
0100
,
0000
0001
0001
0001
,
0000
1000
0000
0001
,
0000
0010
0001
0000
,
1000
0000
0001
0000
,
1000
0000
0001
0000
,
0000
0010
1000
0000
,
0001
0000
1000
0000
,
0001
0000
1000
0000
,
0010
0000
0100
0000
,
0010
0000
0100
0000
,
0001
0001
0001
0001
,
0010
0010
0001
0001
,
0000
1000
0000
1000
,
0000
1000
0000
1000
,
1000
1000
1000
1000
,
0010
0010
1000
1000
,
0000
0001
0000
0001
,
0000
0001
0000
0001
,
0010
0001
0100
0000
,
1000
0000
1000
0000
,
0010
1000
0100
0000
,
0001
0000
0001
0000
,
1000
0001
0100
0000
,
0000
0000
0000
0000
,
0001
1000
0100
0000
,
0000
0000
0000
0000
,
1000
0001
0100
0000
,
0000
0000
0000
0000
,
0001
1000
0100
0000
,
0000
0000
0000
0000
,
0010
0001
0100
0000
,
1000
0000
1000
0000
,
0010
0001
0100
1000
;

//---------------dance-double - ----------------
#NOTES:
     dance-double:
     :
     Easy:
     2:
     :
00000000
00000000
00000000
00000000
,
00000000
00000000
00000000
00000000
,
00000000
00000000
00000000
00000000
,
00000000
00000000
00000000
00000000
,
00000000
00000000
00000000
00000000
,
10000000
10000000
10000000
10000000
,
00100000
00100000
00010000
00010000
,
00000000
00001000
00000000
00000000
,
00000000
00000000
00000000
00000000
,
00000000
00000010
00000000
00000000
,
00000010
00000001
00000100
00001000
,
00000100
00001000
00001000
00001000
,
00000000
00000000
00000000
00000000
,
00010000
00000000
00000000
00000000
,
00100000
10000000
01000000
00000000
,
00000000
00010000
00010000
00010000
,
00000000
01000000
00000000
00000000
,
10000000
01000000
00010000
01000000
,
00010000
01000000
10000000
00000000
,
00100000
00000000
00000000
00000000
,
00001000
00000000
00000000
00000000
,
00010000
00000000
00000000
00000000
,
00000000
00000000
00010000
00000000
,
00001000
00000000
00010000
00000000
,
00001000
00000000
01000000
00000000
,
00010000
00010000
00010000
00010000
,
00100000
00100000
00010000
00010000
,
00000000
00001000
00000000
00000000
,
00000000
00000000
00000000
00000000
,
00000001
00000001
00000001
00000001
,
00000010
00000010
00001000
00001000
,
00000000
00010000
00000000
00000000
,
00000000
00000000
00000000
00000000
,
00100000
00010000
00001000
00000000
,
00000000
00000000
00000000
00000000
,
00000010
00001000
00010000
00000000
,
00000000
00000000
00000000
00000000
,
00100000
00010000
00001000
00000000
,
00000000
00000000
00000000
00000000
,
00000010
00001000
00010000
00000000
,
00000000
00000000
00000000
00000000
,
00100000
00010000
00001000
00000000
,
00010000
00000000
00000000
00000000
,
00000010
00001000
00010000
00000000
,
00001000
00000000
00000000
00000000
,
00100000
00010000
00001000
00000000
,
00010000
00000000
00001000
00000000
,
00000010
00000000
00000000
00000000
,
00000010
00001000
00010000
01000000
;
