#TITLE:SKY HIGH;
#ARTIST:DJ MIKO;
#BANNER:SKY HIGH.png;
#BACKGROUND:SKY HIGH-bg.png;
#CDTITLE:./CDTitles/DANCEMANIA 13.png;
#MUSIC:SKY HIGH.ogg;
#SAMPLESTART:47.648;
#SAMPLELENGTH:15;
#DISPLAYBPM:136;
#BPMS:0=131,4=136,24=143.5,26=138,28=137,32=135,34=136.5,36=136;

//---------------dance-single - ----------------
#NOTES:
     dance-single:
     :
     Beginner:
     1:
     :
0000
0000
0000
0000
,
0000
0000
0000
0000
,
0000
0000
0000
0000
,
0000
0000
0000
0000
,
0000
0000
0000
0000
,
0010
0000
0000
0000
,
0000
0000
0000
0000
,
0100
0100
0000
0000
,
0001
0001
0000
0000
,
1000
1000
0000
0000
,
0010
0010
0000
0000
,
1000
0000
0000
0000
,
1000
0000
0000
0000
,
1000
0000
0000
0000
,
0000
0000
0000
0000
,
0001
0000
0000
0000
,
0001
0000
0000
0000
,
0001
0000
0000
0000
,
0000
0000
0000
0000
,
0100
0000
0100
0000
,
0100
0000
0100
0000
,
0001
0000
0001
0000
,
0001
0000
0001
0000
,
1000
0000
1000
0000
,
1000
0000
1000
0000
,
0010
0000
0010
0000
,
0010
0000
0010
0000
,
0110
0000
0000
0000
,
1000
0000
0000
0000
,
1000
0000
0000
0000
,
0001
0000
0000
0000
,
0001
0000
0000
0000
,
0100
0000
0000
0000
,
0100
0000
0000
0000
,
0010
0000
0000
0000
,
0010
0000
0000
0000
,
0000
0000
0000
0000
,
1000
0000
1000
0000
,
0010
0000
0010
0000
,
0100
0000
0100
0000
,
0001
0000
0001
0000
,
0100
0000
0001
0000
,
1000
0000
0010
0000
,
0100
0000
0010
0000
,
1000
0000
0001
0000
,
0100
0000
0000
0000
;

//---------------dance-single - ----------------
#NOTES:
     dance-single:
     :
     Easy:
     2:
     :
0000
0000
0000
0000
,
0000
0000
0000
0000
,
0000
0000
0000
0000
,
0000
0000
0000
0000
,
0000
0000
0000
0000
,
1000
0000
0000
0000
,
0001
0000
0000
0000
,
1000
0100
0010
0001
,
1000
0100
0010
0001
,
1000
0100
0010
0001
,
1000
0100
0001
0100
,
1001
0000
0000
0000
,
0010
0000
1000
0000
,
1001
0000
0000
0000
,
0001
0000
1000
0000
,
0110
0000
0000
0000
,
0001
0000
1000
0000
,
1001
0000
0000
0000
,
0010
0000
0100
0000
,
0001
1000
0010
1000
,
0001
1000
0010
1000
,
0001
0100
0001
0010
,
0001
0100
0001
0010
,
0100
0000
0010
0001
,
1000
0000
0010
1000
,
0010
0000
0000
0000
,
0001
0100
0010
1000
,
1001
0000
0000
0000
,
0010
0001
1000
0001
,
0010
0001
1000
0001
,
1000
0100
0010
0001
,
1001
0000
0000
0000
,
0010
0001
1000
0001
,
1000
0001
1000
0001
,
0010
0001
0100
0010
,
1001
0000
0000
0000
,
1000
0000
0001
0000
,
1001
0000
0000
0000
,
0010
0001
0010
0001
,
1000
0001
0010
0001
,
1000
0100
0001
0100
,
1001
0000
0000
0000
,
0010
0100
0001
0100
,
0010
0100
0001
0100
,
0001
1000
0100
0010
,
1001
0000
0000
0000
;

//---------------dance-single - ----------------
#NOTES:
     dance-single:
     :
     Medium:
     4:
     :
0000
0000
0000
0000
,
0000
0000
0000
0000
,
0000
0000
0000
0000
,
0000
0000
0000
0000
,
0000
0000
0000
0000
,
1000
0000
0000
0001
0000
0000
0010
0000
,
0000
0100
0000
0000
1000
0000
0000
0000
,
0001
0000
1000
0000
0100
0000
0010
0100
,
1000
0000
0001
0000
0100
0000
0010
0100
,
0001
0000
1000
0000
0001
0000
1000
0001
,
0010
0000
0100
0000
1000
0000
0010
0100
,
0010
0000
0000
0000
1000
0000
0001
0100
,
0001
0000
0000
0000
1000
0000
0001
0100
,
0001
0000
0000
0000
0010
0000
0100
1000
,
0100
0000
0000
0000
0010
0000
0100
1000
,
0100
0000
0000
0000
1000
0000
0001
0100
,
0001
0000
0000
0000
0010
0000
0100
1000
,
0100
0000
0000
0000
1000
0000
0001
0100
,
0001
0000
0000
0000
0010
0000
0100
1000
,
0100
0000
0000
0000
1000
0000
0100
0100
,
0000
0000
0000
0010
0010
0000
0100
0100
,
0000
0000
0000
0000
0000
0000
0000
0010
,
0100
0000
1000
0100
0000
0000
1000
0000
,
0001
0000
0000
0010
0100
0000
1000
0100
,
0000
0000
0000
0010
0100
0000
1000
0100
,
0000
0000
0000
0000
0000
0000
0000
0010
,
0001
0000
0100
0010
0000
0000
1000
0000
,
1001
0000
0000
0000
,
0010
0001
1000
0001
,
1000
0000
0000
0000
,
0001
0000
0010
0001
0000
0100
0000
0000
,
1001
0000
0000
0000
,
0010
0100
0010
0001
,
0100
0000
0000
0000
,
0010
0000
1000
0100
0000
0010
0000
0000
,
1001
0000
0000
0000
,
0010
0000
0100
0000
,
1001
0000
0000
0000
,
0010
0001
1000
0001
,
1000
0000
0000
0000
,
0001
0000
0010
0001
0000
0100
0000
0000
,
1001
0000
0000
0000
,
0010
0100
0010
0001
,
0100
0000
0000
0000
,
0010
0000
1000
0100
0000
0010
0000
0000
,
1001
0000
0000
0000
;

//---------------dance-single - ----------------
#NOTES:
     dance-single:
     :
     Hard:
     7:
     :
0000
0000
0000
0000
,
0000
0000
0000
0000
,
0000
0000
0000
0000
,
0000
0000
0000
0000
,
0000
0000
0000
0000
,
1000
0010
1000
0001
0010
0001
1000
0010
,
1000
0001
0010
0001
1000
0000
0000
0000
,
0001
0000
0000
0010
0000
0000
0100
0000
0000
1000
0000
0000
0001
0000
1000
0000
,
0001
0000
0000
0010
0000
0000
0100
0000
0000
1000
0000
0000
0001
0000
1000
0000
,
0100
0000
0000
1000
0000
0000
0100
0000
0000
0010
0000
0000
0100
0000
1000
0000
,
0001
0000
0000
0100
0000
0000
0010
0000
0000
0100
0000
0000
0001
0000
0100
0000
,
0001
0000
0000
1000
0000
0000
0001
0000
1000
0000
0000
0100
0000
0000
1000
0000
,
0001
0000
0000
0100
0000
0000
0001
0000
1000
0000
0000
0100
0000
0000
1000
0000
,
0001
0000
0000
1000
0000
0000
0010
0000
0100
0000
0000
0001
0000
0000
1000
0000
,
0001
0000
0000
0010
0000
0000
0100
0000
1000
0000
0000
0001
0000
0000
1000
0000
,
0001
0000
0000
0100
0000
0000
0010
0000
1000
0000
0000
0001
0000
0000
1000
0000
,
0100
0000
0000
0010
0000
0000
0001
0000
1000
0000
0000
0100
0000
0000
1000
0000
,
0001
0000
0000
0100
0000
0000
0010
0000
1000
0000
0000
0100
0000
0000
0010
0000
,
0001
0000
0000
1000
0000
0000
0100
0000
1000
0000
0000
0001
0000
0000
0100
0000
,
0000
0001
0000
1000
0000
0100
0000
0010
,
0000
0001
0000
0010
0000
0100
0000
1000
,
0000
0001
0000
0010
0000
1000
0000
0010
,
0000
0001
0000
0010
0000
1000
0000
0010
,
1000
0001
0000
0100
0000
1000
0000
0100
,
0000
0001
0000
0010
0000
0100
0000
1000
,
0000
0001
0000
0100
0000
1000
0000
0100
,
0010
0000
0001
0100
0000
0010
0100
0000
,
0001
1000
0100
0000
1000
0001
0100
0000
,
0010
0000
0010
0000
0010
0000
1000
0100
0000
1000
0100
0000
0010
0000
0000
0000
,
0001
1000
0100
0000
1000
0001
0100
0000
,
0010
0000
0010
0000
0010
0000
1000
0100
0000
1000
0100
0000
0010
0000
0000
0000
,
0001
1000
0100
0000
1000
0001
0100
0000
,
0010
0000
1000
0000
0100
0000
1000
0100
0000
1000
0100
0000
0010
0000
0000
0000
,
0001
1000
0100
0000
1000
0001
0100
0000
,
0010
0000
1000
0000
0100
0000
1000
0100
0000
1000
0100
0000
0010
0000
0000
0000
,
0100
0000
0000
0100
0000
0000
0100
0000
0010
0000
0000
0010
0000
0000
0010
0000
,
0001
0000
0000
0001
0000
0000
0001
0000
1000
0000
0000
1000
0000
0000
1000
0000
,
0001
0100
0001
0000
1000
0100
1000
0000
,
0001
0000
1000
0000
0100
0000
1000
0100
0000
1000
0100
0000
0010
0000
0000
0000
,
0001
0100
0001
0000
1000
0100
1000
0000
,
0001
0000
1000
0000
0100
0000
1000
0100
0000
1000
0100
0000
0010
0000
0000
0000
,
0001
1000
0100
0000
1000
0001
0100
0000
,
0001
0000
1000
0000
0100
0000
0010
0001
0000
1000
0100
0000
0010
0000
0000
0000
,
0001
1000
0100
0000
1000
0001
0100
0000
,
0001
0000
1000
0000
0100
0000
0010
0001
0000
1000
0100
0000
0010
0000
0000
0000
,
1001
0000
0000
0000
;

//---------------dance-double - ----------------
#NOTES:
     dance-double:
     :
     Beginner:
     1:
     :
00000000
00000000
00000000
00000000
,
00000000
00000000
00000000
00000000
,
00000000
00000000
00000000
00000000
,
00000000
00000000
00000000
00000000
,
00000001
00000000
00000000
00000000
,
00001000
00000000
00000000
00000000
,
00000010
00000000
00001000
00000000
,
00000100
00000000
00010000
00000000
,
00001000
00000000
01000000
00000000
,
00100000
00000000
10000000
00000000
,
00100000
00000000
00000000
00000000
,
00010000
00000000
00000000
00000000
,
10000000
00000000
00000000
00000000
,
00100000
00000000
00100000
00000000
,
01000000
00000000
00000000
00000000
,
00001000
00000000
00000000
00000000
,
00010000
00000000
00000000
00000000
,
00000100
00000000
00000100
00000000
,
00001000
00000000
00000010
00000000
,
00000100
00000000
00000001
00000000
,
00001000
00000000
00000100
00000000
,
00010000
00010000
00010000
00000000
,
00001000
00000000
01000000
00000000
,
00100000
00000000
10000000
00000000
,
00010000
00000000
10000000
00000000
,
01000000
01000000
01000000
00000000
,
00100000
00000000
00000000
00000000
,
00001000
00000000
00000000
00000000
,
00010000
00000000
00000000
00000000
,
00000100
00000000
00001000
00000000
,
00000001
00000000
00000000
00000000
,
00000010
00000000
00000000
00000000
,
00001000
00000000
00000000
00000000
,
00000100
00000000
00010000
00000000
,
00001000
00000000
01000000
00000000
,
00100000
00000000
10000000
00000000
,
01000000
00000000
10000000
00000000
,
00100000
00000000
00010000
00000000
,
00100000
00000000
00001000
00000000
,
00010000
00000000
00000100
00000000
,
00001000
00000000
00000001
00000000
,
00001000
00000000
00000100
00000000
,
00000010
00000000
00000001
00000000
,
00001000
00000000
00000100
00000000
,
00010000
00000000
00000000
00000000
;

//---------------dance-double - ----------------
#NOTES:
     dance-double:
     :
     Easy:
     3:
     :
00000000
00000000
00000000
00000000
,
00000000
00000000
00000000
00000000
,
00000000
00000000
00000000
00000000
,
00000010
00000000
00000100
00000000
,
00001000
00000000
00010000
00000000
,
02000000
00000000
00000000
00000000
,
00000000
03000000
10000000
10000000
,
10000000
00010000
10000000
01000000
,
00001000
00010000
00001000
00000100
,
00000001
00001000
00000001
00000100
,
00001000
00010000
00001000
00010000
,
01000000
00000000
10000000
00000000
,
00010000
00000000
01000000
00000000
,
00001000
00000000
00000100
00000000
,
00000001
00001000
00000001
00001000
,
00000001
00000000
00000100
00000000
,
00001000
00000000
00010000
00000000
,
01000000
10000000
01000000
10000000
,
00010000
00000000
01000000
00000000
,
00001000
00000000
00010000
00010000
,
00000010
00000000
00000100
00000100
,
00000001
00000000
00000100
00000000
,
00001000
00010000
00001000
00010000
,
01000000
00000000
10000000
00000000
,
00100000
00000000
00010000
00000000
,
00001000
00010000
00001000
00010000
,
00000010
00000000
00000100
00000000
,
00000001
00001000
00000001
00001000
,
00000001
00000000
00000100
00000000
,
00001000
00001000
00010000
00000000
,
01000000
00000000
10000000
00000000
,
00100000
00010000
00001000
00000000
,
00000010
00000000
00000100
00000000
,
00001000
00010000
01000000
00000000
,
00100000
00000000
00001000
00000000
,
00020000
00000000
00000000
00000000
,
00000000
00030000
00000010
00000100
,
00000001
00000001
00000100
00000100
,
00001000
00001000
00010000
00010000
,
01000000
01000000
10000000
10000000
,
01000000
00010000
00001000
00000100
,
00000001
00000001
00000100
00000100
,
00001000
00001000
00010000
00010000
,
01000000
01000000
10000000
10000000
,
00100000
00010000
00001000
00010000
,
00002000
00000000
00000000
00000000
,
00000000
00000000
00000000
00000000
,
00003000
00000000
00000000
00000000
;

//---------------dance-double - ----------------
#NOTES:
     dance-double:
     :
     Medium:
     5:
     :
00000000
00000000
00000000
00000000
,
00000000
00000000
00000000
00000000
,
00000000
00000000
00000000
00000000
,
00020000
00000000
01030000
00000000
,
00002000
00000000
00003100
00000000
,
00020000
01000000
10000000
00130000
,
00002000
00000100
00000001
00003010
,
00010000
00000000
00001000
00000000
00100000
00000000
01000000
00010000
,
00001000
00000000
00000100
00000000
00000001
00000000
00000010
00001000
,
00010000
00000000
00000010
00000000
00000100
00000000
00001000
00010000
,
01000000
00010000
00001000
01000000
,
00020000
01030000
20000000
31000000
,
00020000
01030000
20000000
31000000
,
00010000
00001000
00000100
00000001
,
00002000
00003100
00000002
00000103
,
00001000
00010000
01000000
10000000
,
00020000
01030000
20000000
31000000
,
00020000
01030000
00002000
00013000
,
00000020
00001030
00000002
00000103
,
00000220
00000000
00000330
00000000
00001000
00000000
00010000
01000000
,
10000000
00000000
10100000
00000000
01000000
00000000
01000000
00010000
,
00001000
00000000
00010000
00000000
00000010
00000100
00000001
00000000
,
00000001
00001000
00000100
00000000
00010000
00000000
00001000
00010000
,
01000000
00000000
01010000
00000000
10000000
00000000
01000000
00010000
,
00001000
00000000
00011000
00000000
00000100
00000000
00000001
00000010
,
00000100
00000000
00001000
00000010
00000100
00000000
00001000
00010000
,
01000000
00000000
00010000
00001000
00000100
00000000
00010100
00000000
,
00002000
00003100
00000002
00000103
,
00002000
00003100
00000002
00000103
,
00001000
00010000
01000000
10000000
,
00020000
01030000
20000000
31000000
,
00010000
00001000
00000100
00000001
,
00002000
00003100
00000002
00000103
,
00001000
00010000
01000000
10000000
,
00100000
00010000
00001000
00000100
,
00020000
00100000
10000000
01030000
,
00002000
00000010
00000001
00003100
,
00020000
00031000
00002000
00013000
,
00200000
00310000
20000000
31000000
,
00020000
01030000
00002000
00013000
,
00001000
00000010
00000001
00000100
,
00001000
00010000
01000000
00000000
10000000
00100000
01000000
00000000
,
00001000
00100000
00010000
00000000
00001000
00000100
00000001
00000000
,
00000001
00000010
00000100
00000000
00000001
00000100
00001000
00000000
,
00001000
00010000
01000000
00000000
10000000
00000000
00100000
00000000
,
00020000
00000000
00000000
00000000
,
00000000
00000000
00000000
00000000
,
00030000
00000000
00000000
00000000
;

//---------------dance-double - ----------------
#NOTES:
     dance-double:
     :
     Hard:
     7:
     :
00000000
00000000
00000000
00000000
,
00000000
00000000
00000000
00000000
,
00000000
00000000
00000000
00000000
,
00001000
00000000
00000000
00010000
00000000
00000000
00000000
00000000
,
01000000
00000000
00000000
10000000
00000000
00000000
00000000
00000000
,
00100000
00000000
00010000
00001000
00000000
00000100
00000001
00000000
,
00000010
00000000
00000100
00000000
00000000
00000000
00010000
00000000
00001000
00000000
00000000
00100000
00000000
00000000
01000000
00000000
,
11000000
00000000
00000000
10000000
00000000
00000000
10000000
00000000
00000000
00100000
00000000
00000000
00010000
00000000
00001000
00000000
,
00010000
00000000
00000000
00000010
00000000
00000000
00000100
00000000
00000000
00000001
00000000
00000000
00000010
00000000
00000100
00000000
,
00001000
00000000
00000000
00000010
00000000
00000000
00000100
00000000
00000000
00001000
00000000
00000000
00010000
00000000
01000000
00000000
,
10000000
00000000
00000000
00100000
00000000
00000000
01000000
00000000
00000000
10000000
00000000
00000000
01000000
00000000
00010000
00000000
,
00001000
00000000
00000000
00010000
00000000
00000000
00000010
00000000
00000010
00000000
00000000
00000000
00000100
00000000
00000001
00000000
,
00000010
00000000
00000000
00000100
00000000
00000000
00001000
00000000
00001000
00000000
00000000
00000000
00000100
00000000
00010000
00000000
,
00001000
00000000
00000000
00010000
00000000
00000000
01000000
00000000
01000000
00000000
00000000
10000000
00000000
00000000
00100000
00000000
,
00100000
00000000
00000000
00010000
00000000
00000000
00001000
00000000
00000000
00000010
00000000
00000001
00000100
00000000
00000001
00000000
,
00000001
00000000
00000000
00000100
00000000
00000000
00001000
00000000
00010000
00000000
00000000
00000000
01000000
00000000
10000000
00000000
,
00100000
00000000
00000000
01000000
00000000
00000000
00001000
00000000
00010000
00000000
00000000
00000000
00001000
00000000
00000100
00000000
,
00000001
00000000
00000000
00000010
00000000
00000000
00000100
00000000
00000100
00000000
00000000
00010000
00000000
00000000
00001000
00000000
,
00001000
00000000
00000000
00010000
00000000
00000000
01000000
00000000
00000000
10000000
00000000
00100000
01000000
00000000
00010000
00000000
,
10000000
01000000
00010000
00001000
00000000
00000100
00000000
00000001
,
00000001
00000000
00000010
00000100
00000000
00000001
00000000
00000100
,
00001000
00010000
01000000
10000000
00000000
10000000
00000000
00100000
,
00100000
00000000
00000000
00000000
01000000
00000000
01000000
00000000
00000000
10000000
00000000
10000000
01000000
00000000
00010000
00000000
,
00001000
00000010
00000001
00000100
00000000
00000001
00000000
00000100
,
00000100
00000000
00001000
00010000
00000000
01000000
00000000
10000000
,
00100000
01000000
00100000
10000000
00000000
00000000
00000000
01000000
,
00010000
00000000
00000000
00000000
00001000
00000000
00000100
00000000
00000000
00000001
00000000
00000010
00000100
00000000
00000000
00000000
,
00000001
00000000
00000000
00000000
00001000
00000000
00000100
00000000
00001000
00000000
00000000
00000100
00000000
00000000
00010000
00000000
,
00001000
00010000
01000000
10000000
00000000
00100000
01000000
00010000
,
00000000
00010000
00001000
00000100
00000000
00000010
00000000
00001000
,
00001000
00000000
00000001
00000001
00000000
00000100
00000100
00000000
,
00001000
00000000
00000000
00000000
00010000
00000000
01000000
00000000
10000000
00000000
00000000
00100000
00000000
00000000
01000000
00000000
,
01000000
00000000
10000000
10000000
00000000
01000000
00010000
00001000
,
00000000
00001000
00000100
00000001
00000000
00000010
00000000
00000100
,
00000100
00000000
00000001
00000001
00000000
00000100
00000100
00000000
,
00001000
00000000
00000000
00000000
00001000
00000000
00010000
00000000
01000000
00000000
00000000
10000000
00000000
00000000
10000000
00000000
,
00000000
00000000
00100000
00000000
00000000
01000000
00000000
00010000
10000000
00000000
00000000
10000000
01000000
00000000
00100000
00000000
,
01000000
00000000
00000000
00000000
00010000
00000000
00001000
00000000
00010000
00000000
00000000
00000010
00000000
00000000
00000100
00000000
,
00000100
00000000
00000001
00000001
00000000
00000010
00000100
00001000
,
00000000
00000001
00000100
00001000
00000000
00010000
00000000
01000000
,
01000000
00000000
10000000
10000000
00000000
00100000
00100000
00000000
,
00010000
00000000
00000000
00000000
00010000
00000000
00001000
00000000
00000100
00000000
00000000
00000001
00000000
00000000
00000010
00000000
,
00000100
00000000
00000001
00000100
00000000
00001000
00010000
00100000
,
00000000
10000000
01000000
00010000
00000000
00001000
00000000
00010000
,
00001000
00000000
00000100
00000001
00000000
00000010
00000100
00000000
,
00020000
00000000
00000000
00000000
,
00001000
00000000
00001000
00000000
,
00030000
00000000
00000000
00000000
;

//---------------dance-double - [D-BASIC - (KCET) DA----------------
#NOTES:
     dance-double:
     [D-BASIC - (KCET)]:
     Edit:
     2:
     :
00000000
00000000
00000000
00000000
,
00000000
00000000
00000000
00000000
,
00000000
00000000
00000000
00000000
,
00000000
00000000
00000000
00000000
,
00000000
00000000
00000000
00000000
,
00000000
00000000
00000000
00000000
,
00010000
00000000
00000000
00000000
,
10000000
01000000
00100000
00010000
,
00001000
00000100
00000010
00000001
,
00000001
00000100
00000010
00001000
,
00010000
01000000
00100000
10000000
,
10010000
00000000
00000000
00000000
,
00000000
00000000
00000000
00000000
,
00000000
00000000
00000000
00000000
,
00010000
00000000
00001000
00000000
,
00011000
00000000
00000000
00000000
,
00000000
00000000
00000000
00000000
,
00000000
00000000
00000000
00000000
,
00100000
00000000
01000000
00000000
,
00010000
10000000
01000000
10000000
,
00010000
01000000
00100000
10000000
,
00010000
01000000
00010000
00100000
,
00001000
00010000
00001000
00000010
,
00000000
00000000
00000010
00001000
,
00000000
00000000
00010000
01000000
,
00000000
00000000
00000000
00000000
,
00010000
01000000
00100000
00010000
,
00011000
00000000
00000000
00000000
,
00100000
00010000
00100000
10000000
,
00100000
00010000
00100000
00010000
,
00001000
00000100
00000000
00001000
,
00001001
00000000
00000000
00000000
,
00000001
00000100
00001000
00000100
,
00000001
00000100
00001000
00000000
,
00100000
00010000
01000000
00100000
,
10010000
00000000
00000000
00000000
,
10000000
00000000
00010000
00000000
,
00101000
00000000
00000000
00000000
,
00000010
00001000
00000010
00000001
,
00000010
00001000
00000010
00000001
,
00000001
00000100
00000000
00000001
,
00001001
00000000
00000000
00000000
,
00010000
01000000
10000000
01000000
,
00010000
01000000
10000000
01000000
,
00010000
10000000
01000000
00100000
,
10010000
00000000
00000000
00000000
;

//---------------dance-double - [D-TRICK - (KCET) DA----------------
#NOTES:
     dance-double:
     [D-TRICK - (KCET)]:
     Edit:
     3:
     :
00000000
00000000
00000000
00000000
,
00000000
00000000
00000000
00000000
,
00000000
00000000
00000000
00000000
,
00000000
00000000
00000000
00000000
,
00000000
00000000
00000000
00000000
,
00000000
00000000
00000000
00001000
00000000
00000000
00100000
00000000
,
00000000
01000000
00000000
00000000
00000000
00000000
00000000
00000000
,
00010000
10000000
01000000
00100000
,
10000000
00000000
00010000
00000000
01000000
00000000
00100000
00010000
,
00001000
00000100
00000001
00000100
,
00000010
00000000
00000100
00000000
00000000
00000000
00010000
00001000
,
00010000
00000000
00000000
00000000
00000000
00000000
00010000
01000000
,
00010000
00000000
00000000
00000000
00000000
00000000
00001000
00010000
,
00001000
00000000
00000000
00000000
00001000
00000000
00000100
00000001
,
00000100
00000000
00000000
00000000
00000000
00000000
00010000
00001000
,
00010000
00000000
00000000
00000000
00000000
00000000
00010000
01000000
,
00010000
00000000
00000000
00000000
00010000
00000000
01000000
00010000
,
01000000
00000000
00000000
00010000
,
00000100
00000000
00000010
00000100
,
00000001
00000000
00000100
00000000
00001000
00000000
00000100
00000100
,
00000000
00000000
00000000
00001000
00001000
00000000
00010000
00010000
,
00000000
00000000
00000000
00000000
00000000
00000000
00000000
00100000
,
01000000
00000000
00000000
01000000
00000000
00000000
10000000
00000000
,
00010000
00000000
00000000
00010000
01000000
00000000
00000000
00001000
,
00000000
00000000
00000000
00010000
00001000
00000000
00000000
00010000
,
00000000
00000000
00000000
00000000
00000000
00000000
00000000
00100000
,
00010000
00001000
00000000
00001000
,
00001001
00000001
00000001
00000001
,
00000010
00000000
00001000
00000000
00000010
00000000
00000001
00001000
,
00000010
00001000
00010000
00001000
,
00000100
00000000
00000010
00001000
00000000
00000100
00000000
00000000
,
00001001
00000000
00000000
00000000
,
00000001
00000000
00000100
00000000
00001000
00000000
00000100
00001000
,
00000001
00000100
00001000
00010000
,
00100000
00000000
00000000
01000000
00000000
00100000
00000000
00000000
,
10010000
10000000
10000000
10000000
,
01000000
01000000
01000000
01000000
,
10010000
10000000
01000000
00010000
,
00001000
00000000
00000010
00000000
00000001
00000000
00000100
00000001
,
00001000
00001000
00000100
00000001
,
00000100
00000000
00001000
00000100
00000000
00000001
00000000
00000000
,
00001001
00000000
00000001
00000000
00000001
00000000
00000001
00001000
,
00000001
00000100
00001000
00000100
,
00001000
00010000
00100000
10000000
,
00100000
00000000
00000000
01000000
00000000
00100000
00000000
00000000
,
01001000
00000000
00000000
00000000
;

//---------------dance-double - [D-MANIAC - (KCET) D----------------
#NOTES:
     dance-double:
     [D-MANIAC - (KCET)]:
     Edit:
     6:
     :
00000000
00000000
00000000
00000000
,
00000000
00000000
00000000
00000000
,
00000000
00000000
00000000
00000000
,
00000000
00000000
00000000
00000000
,
00000000
00000000
00000000
00000000
,
00000010
00000001
00000100
00000010
00000001
00000100
00000001
00000100
,
00001000
00000001
00000100
00001000
00010000
00000000
00000000
00000000
,
00010000
00000000
01000000
00000000
10000000
00000000
00010000
10000000
,
00010000
00000000
10000000
00000000
01000000
00000000
00010000
00000100
,
00001000
00000000
00000100
00000000
00000010
00000000
00000100
00000010
,
00000100
00000000
00000000
00000000
,
00100000
00000000
00000000
10000000
00000000
00000000
00100000
00000000
00010000
00000000
00000000
00100000
00000000
00000000
00010000
00000000
,
00001000
00000000
00000000
00000100
00000000
00000000
00000010
00000000
00001000
00000000
00000000
00000100
00000000
00000000
00000001
00000000
,
00000010
00000000
00000000
00000001
00000000
00000000
00000100
00000000
00000010
00000000
00000000
00001000
00000000
00000000
00000001
00000000
,
00000100
00000000
00000000
00000001
00000000
00000000
00000010
00000000
00001000
00000000
00000000
00000100
00000000
00000000
00001000
00000000
,
00000010
00000000
00000000
00000001
00000000
00000000
00000010
00000000
00001000
00000000
00000000
00000010
00000000
00000000
00001000
00000000
,
00010000
00000000
00000000
01000000
00000000
00000000
00100000
00000000
00010000
00000000
00000000
01000000
00000000
00000000
10000000
00000000
,
00100000
00000000
00000000
10000000
00000000
00000000
01000000
00000000
00100000
00000000
00000000
00010000
00000000
00000000
10000000
00000000
,
01000000
00000000
00000000
10000000
00000000
00000000
00100000
00000000
00010000
00000000
00000000
01000000
00000000
00000000
00000000
00000000
,
00000000
10000000
00000000
01000000
00000000
00010000
00000000
01000000
,
00000000
00010000
00000000
00001000
00000000
00000010
00001000
00000001
,
00000000
00000000
00000000
00000000
00000000
00000000
00000000
00000001
,
00001000
00000000
00000000
00010000
00000000
00000000
00001000
00000000
00000000
00000000
00010000
00000000
00100000
00000000
00000000
00000000
,
01001000
00000000
00000000
00000000
00000000
00000000
00001000
00000100
,
00000000
00000000
00000000
00000000
00000000
00000010
00000000
00000000
00000001
00000000
00000000
00000000
00000100
00000000
00000010
00000000
,
00000000
00000000
00000000
00000000
00000000
00000000
00000000
00000000
00000000
00000000
00000000
00000000
00000000
00000000
00000000
00000010
,
00000001
00000000
00000010
00001000
00000000
00000000
00000100
00000000
,
00001001
00000000
00000000
00000001
00000000
00000000
00000001
00000000
00000001
00000000
00000000
00000001
00000000
00000000
00000001
00000000
,
00000010
00000000
00001000
00000000
00000010
00000000
00000001
00001000
,
00000010
00000000
00000000
00000100
00000000
00000000
00001000
00000000
00010000
00000000
00000000
00000000
00001000
00000000
00000000
00000000
,
01000000
00000000
00000000
00100000
00000000
00000000
00010000
00000000
01000000
00000000
00000000
00000000
00010000
00000000
00000000
00000000
,
00010100
00000000
00000000
00000000
,
00000001
00000000
00000100
00000000
00001000
00000000
00000100
00001000
,
00000001
00000000
00000000
00000100
00000000
00000000
00000001
00000000
00001000
00000000
00000000
00000000
00010000
00000000
00000000
00000000
,
00100000
00000000
00000000
01000000
00000000
00000000
00100000
00000000
01000000
00000000
00000000
00000000
00100000
00000000
00000000
00000000
,
10010000
00000000
00000000
00000000
,
00000000
00000000
00000000
10010000
,
10000000
00000000
01000000
00000000
00010000
00000000
01000000
00010000
,
00000100
00000000
00000010
00000000
00000001
00000000
00000100
00000001
,
00001000
00000000
00000000
00001000
00000000
00000000
00000001
00000000
00000100
00000000
00000000
00000001
00000000
00000000
00001000
00000000
,
00000100
00000000
00000000
00000001
00000000
00000000
00001000
00000000
00000100
00000000
00000000
00000000
00000001
00000000
00000000
00000000
,
00001001
00000000
00000000
00000001
00000000
00000000
00000001
00000000
00000100
00000000
00000000
00001000
00000000
00000000
00000001
00000000
,
00001000
00000000
00000000
00000100
00000000
00000000
00000001
00000000
00001000
00000000
00000000
00000001
00000000
00000000
00000100
00000000
,
00001000
00000000
00000000
00100000
00000000
00000000
00010000
00000000
00100000
00000000
00000000
00000000
00100000
00000000
00000000
00000000
,
00100000
00000000
11000000
01010000
00000000
00000000
00100000
00000000
,
01001000
00000000
00000000
00000000
;

//---------------dance-solo - ----------------
#NOTES:
     dance-solo:
     :
     Easy:
     2:
     :
000000
000000
000000
000000
,
000000
000000
000000
000000
,
000000
000000
000000
000000
,
000000
000000
000000
000000
,
000000
000000
000000
000000
,
010000
000000
000000
000000
,
000001
000000
000000
000000
,
100000
001000
000100
000001
,
100000
001000
000100
000001
,
100000
001000
000100
000001
,
100000
001000
000001
001000
,
100001
000000
000000
000000
,
000010
000000
010000
000000
,
010010
000000
000000
000000
,
000001
000000
100000
000000
,
001100
000000
000000
000000
,
000010
000000
010000
000000
,
010010
000000
000000
000000
,
000100
000000
001000
000000
,
000001
100000
000100
100000
,
000001
100000
000100
100000
,
000001
001000
000001
000100
,
000001
001000
000001
000100
,
001000
000000
000100
000001
,
010000
000000
000100
100000
,
000010
000000
000000
000000
,
000001
001000
000100
100000
,
100001
000000
000000
000000
,
000100
000001
010000
000001
,
000100
000001
010000
000001
,
100000
001000
000100
000001
,
100001
000000
000000
000000
,
010000
000001
010000
000001
,
100000
000010
100000
000010
,
000100
000001
001000
000100
,
100001
000000
000000
000000
,
100000
000000
000001
000000
,
100001
000000
000000
000000
,
010000
000001
000100
000001
,
010000
000001
000100
000001
,
100000
001000
000001
001000
,
100001
000000
000000
000000
,
000100
001000
000010
001000
,
000100
001000
000010
001000
,
000001
100000
001000
000100
,
100001
000000
000000
000000
;

//---------------dance-solo - ----------------
#NOTES:
     dance-solo:
     :
     Medium:
     4:
     :
000000
000000
000000
000000
,
000000
000000
000000
000000
,
000000
000000
000000
000000
,
000000
000000
000000
000000
,
000000
000000
000000
000000
,
010000
000000
000000
000001
000000
000000
000100
000000
,
000000
001000
000000
000000
010000
000000
000000
000000
,
000001
000000
100000
000000
001000
000000
000100
001000
,
100000
000000
000001
000000
001000
000000
000100
001000
,
000010
000000
100000
000000
000001
000000
010000
000001
,
000100
000000
001000
000000
000010
000000
001000
000100
,
001000
000000
000000
000000
010000
000000
000001
001000
,
000001
000000
000000
000000
010000
000000
000001
001000
,
000001
000000
000000
000000
000100
000000
001000
100000
,
001000
000000
000000
000000
000100
000000
001000
100000
,
001000
000000
000000
000000
010000
000000
000001
001000
,
000001
000000
000000
000000
000100
000000
001000
100000
,
001000
000000
000000
000000
010000
000000
000001
001000
,
000001
000000
000000
000000
000100
000000
001000
100000
,
001000
000000
000000
000000
100000
000000
001000
001000
,
000000
000000
000000
000100
000100
000000
001000
001000
,
000000
000000
000000
000000
000000
000000
000000
000100
,
001000
000000
010000
001000
000000
000000
100000
000000
,
000001
000000
000000
000100
001000
000000
010000
001000
,
000000
000000
000000
000100
001000
000000
010000
001000
,
000000
000000
000000
000000
000000
000000
000000
000100
,
000001
000000
001000
000100
000000
000000
100000
000000
,
100001
000000
000000
000000
,
000100
000010
010000
000001
,
100000
000000
000000
000000
,
000010
000000
000100
000001
000000
001000
000000
000000
,
100001
000000
000000
000000
,
010000
001000
000100
000001
,
001000
000000
000000
000000
,
000100
000000
010000
001000
000000
000100
000000
000000
,
100001
000000
000000
000000
,
010000
000000
000010
000000
,
100001
000000
000000
000000
,
000100
000010
010000
000001
,
100000
000000
000000
000000
,
000010
000000
000100
000001
000000
001000
000000
000000
,
100001
000000
000000
000000
,
010000
001000
000100
000001
,
001000
000000
000000
000000
,
000100
000000
010000
001000
000000
000100
000000
000000
,
100001
000000
000000
000000
;

//---------------dance-solo - ----------------
#NOTES:
     dance-solo:
     :
     Hard:
     7:
     :
000000
000000
000000
000000
,
000000
000000
000000
000000
,
000000
000000
000000
000000
,
000000
000000
000000
000000
,
000000
000000
000000
000000
,
010000
000100
010000
000010
000100
000010
010000
000100
,
010000
000010
000100
000010
010000
000000
000000
000000
,
000001
000000
000000
000100
000000
000000
001000
000000
000000
100000
000000
000000
000001
000000
100000
000000
,
000001
000000
000000
000100
000000
000000
001000
000000
000000
100000
000000
000000
000001
000000
100000
000000
,
001000
000000
000000
010000
000000
000000
001000
000000
000000
000100
000000
000000
001000
000000
100000
000000
,
000010
000000
000000
001000
000000
000000
000100
000000
000000
001000
000000
000000
010000
000000
001000
000000
,
000010
000000
000000
100000
000000
000000
000001
000000
010000
000000
000000
001000
000000
000000
100000
000000
,
000001
000000
000000
001000
000000
000000
000010
000000
100000
000000
000000
001000
000000
000000
010000
000000
,
000001
000000
000000
100000
000000
000000
000100
000000
001000
000000
000000
000010
000000
000000
100000
000000
,
000001
000000
000000
000100
000000
000000
001000
000000
010000
000000
000000
000001
000000
000000
100000
000000
,
000010
000000
000000
001000
000000
000000
000100
000000
100000
000000
000000
000001
000000
000000
010000
000000
,
001000
000000
000000
000100
000000
000000
000001
000000
100000
000000
000000
001000
000000
000000
010000
000000
,
000001
000000
000000
001000
000000
000000
000100
000000
100000
000000
000000
001000
000000
000000
000100
000000
,
000001
000000
000000
010000
000000
000000
001000
000000
100000
000000
000000
000010
000000
000000
001000
000000
,
000000
000001
000000
100000
000000
001000
000000
000100
,
000000
000001
000000
000010
000000
010000
000000
100000
,
000000
000001
000000
000010
000000
100000
000000
010000
,
000000
000010
000000
000100
000000
010000
000000
000100
,
100000
000001
000000
001000
000000
100000
000000
001000
,
000000
000001
000000
000010
000000
010000
000000
100000
,
000000
000001
000000
001000
000000
100000
000000
001000
,
000100
000000
000001
001000
000000
000100
001000
000000
,
000001
100000
001000
000000
100000
000001
001000
000000
,
000100
000000
000100
000000
000100
000000
100000
001000
000000
100000
001000
000000
000100
000000
000000
000000
,
000001
100000
001000
000000
100000
000001
001000
000000
,
000100
000000
000100
000000
000100
000000
100000
001000
000000
100000
001000
000000
000100
000000
000000
000000
,
000001
100000
001000
000000
100000
000001
001000
000000
,
000100
000000
100000
000000
001000
000000
010000
001000
000000
010000
001000
000000
000100
000000
000000
000000
,
000001
100000
001000
000000
100000
000001
001000
000000
,
000100
000000
100000
000000
001000
000000
010000
001000
000000
010000
001000
000000
000100
000000
000000
000000
,
001000
000000
000000
001000
000000
000000
001000
000000
000100
000000
000000
000100
000000
000000
000100
000000
,
000001
000000
000000
000001
000000
000000
000001
000000
100000
000000
000000
100000
000000
000000
100000
000000
,
000001
001000
000010
000000
100000
001000
010000
000000
,
000001
000000
100000
000000
001000
000000
010000
001000
000000
010000
001000
000000
000100
000000
000000
000000
,
000001
001000
000010
000000
100000
001000
010000
000000
,
000001
000000
100000
000000
001000
000000
010000
001000
000000
010000
001000
000000
000100
000000
000000
000000
,
000001
100000
001000
000000
010000
000001
001000
000000
,
000010
000000
100000
000000
001000
000000
000100
000001
000000
100000
001000
000000
000100
000000
000000
000000
,
000001
100000
001000
000000
010000
000001
001000
000000
,
000010
000000
100000
000000
001000
000000
000100
000001
000000
100000
001000
000000
000100
000000
000000
000000
,
100001
000000
000000
000000
;

//--------------- dance-threepanel - ----------------
#NOTES:
     dance-threepanel:
     :
     Easy:
     2:
     :
000
000
000
000
,
000
000
000
000
,
000
000
000
000
,
000
000
000
000
,
000
000
000
000
,
100
000
000
000
,
001
000
000
000
,
100
010
010
001
,
100
010
010
001
,
100
010
010
001
,
100
010
001
010
,
101
000
000
000
,
010
000
100
000
,
101
000
000
000
,
010
000
100
000
,
010
000
000
000
,
001
000
100
000
,
101
000
000
000
,
010
000
010
000
,
001
100
010
100
,
001
100
010
100
,
001
010
001
010
,
001
010
001
010
,
010
000
010
001
,
100
000
010
100
,
010
000
000
000
,
001
010
010
100
,
101
000
000
000
,
010
001
100
001
,
010
001
100
001
,
100
010
010
001
,
101
000
000
000
,
010
001
100
001
,
100
001
100
001
,
010
001
010
010
,
101
000
000
000
,
010
000
001
000
,
101
000
000
000
,
010
001
010
001
,
100
001
010
001
,
100
010
001
010
,
101
000
000
000
,
010
010
001
010
,
010
010
001
010
,
001
100
010
010
,
101
000
000
000
;

//--------------- dance-threepanel - ----------------
#NOTES:
     dance-threepanel:
     :
     Medium:
     4:
     :
000
000
000
000
,
000
000
000
000
,
000
000
000
000
,
000
000
000
000
,
000
000
000
000
,
100
000
000
001
000
000
010
000
,
000
010
000
000
100
000
000
000
,
001
000
100
000
010
000
010
010
,
100
000
001
000
010
000
010
010
,
001
000
100
000
001
000
100
001
,
010
000
010
000
100
000
010
010
,
010
000
000
000
100
000
001
010
,
001
000
000
000
100
000
001
010
,
001
000
000
000
010
000
010
100
,
010
000
000
000
010
000
010
100
,
010
000
000
000
100
000
001
010
,
001
000
000
000
010
000
010
100
,
010
000
000
000
100
000
001
010
,
001
000
000
000
010
000
010
100
,
010
000
000
000
100
000
010
010
,
000
000
000
010
010
000
010
010
,
000
000
000
000
000
000
000
010
,
010
000
100
010
000
000
100
000
,
001
000
000
010
010
000
100
010
,
000
000
000
010
010
000
100
010
,
000
000
000
000
000
000
000
010
,
001
000
010
010
000
000
100
000
,
101
000
000
000
,
010
001
100
001
,
100
000
000
000
,
001
000
010
001
000
010
000
000
,
101
000
000
000
,
010
010
010
001
,
010
000
000
000
,
010
000
100
010
000
010
000
000
,
101
000
000
000
,
010
000
010
000
,
101
000
000
000
,
010
001
100
001
,
100
000
000
000
,
001
000
010
001
000
010
000
000
,
101
000
000
000
,
010
010
010
001
,
010
000
000
000
,
010
000
100
010
000
010
000
000
,
101
000
000
000
;

//--------------- dance-threepanel - ----------------
#NOTES:
     dance-threepanel:
     :
     Hard:
     7:
     :
000
000
000
000
,
000
000
000
000
,
000
000
000
000
,
000
000
000
000
,
000
000
000
000
,
100
010
100
001
010
001
100
010
,
100
001
010
001
100
000
000
000
,
001
000
000
010
000
000
010
000
000
100
000
000
001
000
100
000
,
001
000
000
010
000
000
010
000
000
100
000
000
001
000
100
000
,
010
000
000
100
000
000
010
000
000
010
000
000
010
000
100
000
,
001
000
000
010
000
000
010
000
000
010
000
000
001
000
010
000
,
001
000
000
100
000
000
001
000
100
000
000
010
000
000
100
000
,
001
000
000
010
000
000
001
000
100
000
000
010
000
000
100
000
,
001
000
000
100
000
000
010
000
010
000
000
001
000
000
100
000
,
001
000
000
010
000
000
010
000
100
000
000
001
000
000
100
000
,
001
000
000
010
000
000
010
000
100
000
000
001
000
000
100
000
,
010
000
000
010
000
000
001
000
100
000
000
010
000
000
100
000
,
001
000
000
010
000
000
010
000
100
000
000
010
000
000
010
000
,
001
000
000
100
000
000
010
000
100
000
000
001
000
000
010
000
,
000
001
000
100
000
010
000
010
,
000
001
000
010
000
010
000
100
,
000
001
000
010
000
100
000
010
,
000
001
000
010
000
100
000
010
,
100
001
000
010
000
100
000
010
,
000
001
000
010
000
010
000
100
,
000
001
000
010
000
100
000
010
,
010
000
001
010
000
010
010
000
,
001
100
010
000
100
001
010
000
,
010
000
010
000
010
000
100
010
000
100
010
000
010
000
000
000
,
001
100
010
000
100
001
010
000
,
010
000
010
000
010
000
100
010
000
100
010
000
010
000
000
000
,
001
100
010
000
100
001
010
000
,
010
000
100
000
010
000
100
010
000
100
010
000
010
000
000
000
,
001
100
010
000
100
001
010
000
,
010
000
100
000
010
000
100
010
000
100
010
000
010
000
000
000
,
010
000
000
010
000
000
010
000
010
000
000
010
000
000
010
000
,
001
000
000
010
000
000
001
000
100
000
000
010
000
000
100
000
,
001
010
001
000
100
010
100
000
,
001
000
100
000
010
000
100
010
000
100
010
000
010
000
000
000
,
001
010
001
000
100
010
100
000
,
001
000
100
000
010
000
100
010
000
100
010
000
010
000
000
000
,
001
100
010
000
100
001
010
000
,
001
000
100
000
010
000
010
001
000
100
010
000
010
000
000
000
,
001
100
010
000
100
001
010
000
,
001
000
100
000
010
000
010
001
000
100
010
000
010
000
000
000
,
101
000
000
000
;
