#TITLE:R3;
#ARTIST:tiger YAMATO;
#BANNER:R3.png;
#BACKGROUND:R3-bg.png;
#CDTITLE:./CDTITLES/TECHNO LABEL.PNG;
#MUSIC:R3.ogg;
#SAMPLESTART:55.017;
#SAMPLELENGTH:15;
#DISPLAYBPM:157;
#BPMS:0=158.5,4=157.03;

//---------------dance-single - ----------------
#NOTES:
     dance-single:
     :
     Easy:
     6:
     :
0000
0000
0000
0000
,
0000
0000
0000
0000
,
0000
0000
0000
0000
,
0000
0000
0000
0000
,
0000
0000
0000
0000
,
0000
0000
0000
0000
,
0010
0010
0010
0010
,
1001
0100
1000
0100
,
0001
1000
0001
0100
,
1000
1000
1000
0100
,
0001
0000
0001
0000
0001
0000
0100
1000
,
0100
1000
0001
0100
,
0010
0001
1000
0100
,
1000
0001
0010
0100
,
0001
1000
0010
0100
,
0000
1000
0100
0000
0000
0001
0100
0000
,
0000
1000
0000
1000
,
0000
0001
0000
0001
,
0000
0010
0000
0100
,
0000
1000
0000
0100
,
0000
0001
0000
0100
,
0010
0001
1000
1000
,
0010
1000
0001
0001
,
1010
0101
1001
0100
,
0001
0001
0001
0001
,
0001
0000
0001
0000
0001
0100
1000
0000
,
0010
0010
0010
0010
,
0010
0000
0010
0000
1000
0010
0001
0000
,
1000
1000
0001
0001
,
0100
0000
0100
0000
1000
0100
0100
0000
,
0001
0001
1000
0100
,
1001
0000
1001
0000
0001
0100
0100
0000
,
1000
0100
0001
0100
,
0000
0100
0000
0100
,
0000
0000
0000
0000
,
0000
0000
0000
0000
,
1001
0100
0001
0100
,
1001
0100
1000
0100
,
1001
0001
0001
0100
,
1001
1000
1000
0100
,
1001
0001
1001
0001
,
1001
1000
1001
1000
,
1001
0010
1000
0100
,
1000
0010
0001
0100
,
1000
0100
0001
0100
,
0001
0000
0100
0000
1000
1000
0100
0000
,
0001
0100
1000
0100
,
1000
0000
0100
0000
0001
0001
0100
0000
,
1000
0000
0100
0100
,
0001
0000
0000
0100
,
0100
1000
0100
0001
,
0100
1010
1100
1001
,
0000
1000
1000
0000
0000
0001
0100
0000
;

//---------------dance-double - ----------------
#NOTES:
     dance-double:
     :
     Easy:
     6:
     :
00000000
00000000
00000000
00000000
,
00000000
00000000
00000000
00000000
,
00000000
00000000
00000000
00000000
,
00000000
00000000
00000000
00000000
,
00000000
00000000
00000000
00000000
,
00000000
00000000
00000000
00000000
,
00010000
00010000
00010000
00010000
,
00011000
01000000
01000000
01000000
,
00011000
00000100
00000100
00000100
,
00000001
00000100
00000100
00000100
,
00001000
00000000
00010000
00000000
01000000
00000000
10000000
10000000
,
01000000
01000000
01000000
01000000
,
00010000
00001000
00000100
00000001
,
00000100
00000100
00010000
00010000
,
10000000
10000000
01000000
01000000
,
00000000
00010000
00001000
00000000
00000000
00000001
00000100
00000000
,
00000000
00000100
00000000
00000100
,
00000000
00010000
00000000
00010000
,
00000000
01000000
00000000
01000000
,
00000000
00001000
00000000
00001000
,
00000000
00000100
00000000
00000100
,
00001000
00010000
01000000
01000000
,
00010000
00001000
00000100
00000100
,
00011000
01100000
10010000
01000000
,
00011000
00001000
00001000
00001000
,
00010000
00000000
00010000
00000000
00000001
00000100
00001000
00000000
,
00010000
00010000
00010000
00010000
,
00001000
00000000
00001000
00000000
10000000
01000000
00010000
00000000
,
00001000
00001000
00000010
00000010
,
00000001
00000000
00000001
00000000
00001000
00000100
00000100
00000000
,
00010000
01000000
10000000
01000000
,
01010000
00000000
01010000
00000000
10000000
01000000
01000000
00000000
,
00010000
00001000
00000100
00000001
,
00000000
00000100
00000000
00000100
,
00000000
00000000
00000000
00000000
,
00000000
00000000
00000000
00000000
,
00000101
00001000
00010000
01000000
,
11000000
00010000
00001000
00000100
,
00000101
00001000
00010000
01000000
,
11000000
00010000
00001000
00000100
,
00011000
00100000
00011000
00100000
,
00011000
00000010
00011000
00000010
,
00011000
00100000
10000000
01000000
,
00001000
00000010
00000001
00000100
,
00001000
00010000
01000000
10000000
,
00010000
00000000
00001000
00000000
00000001
00000100
00000100
00000000
,
00001000
00010000
01000000
10000000
,
00010000
00000000
00001000
00000000
00000001
00000100
00000100
00000000
,
00010000
00000000
00001000
00001000
,
10000000
00000000
00000000
01000000
,
01000000
00100000
00001000
00010000
,
00000100
00000101
00001000
00011000
,
00000000
10000000
10000000
00000000
00000000
00010000
01000000
00000000
;
