#TITLE:NORI NORI NORI;
#ARTIST:JUDY CRYSTAL;
#BANNER:NORI NORI NORI.png;
#BACKGROUND:NORI NORI NORI-bg.png;
#CDTITLE:./CDTITLES/Dancemania HAPPY PARADISE 2.PNG;
#MUSIC:NORI NORI NORI.ogg;
#SAMPLESTART:36.84;
#SAMPLELENGTH:15;
#DISPLAYBPM:160;
#BPMS:0=158.628,4=160.307;

//---------------dance-single - ----------------
#NOTES:
     dance-single:
     :
     Easy:
     3:
     :
0000
0000
0000
0000
,
0000
0000
0000
0000
,
0000
0000
0000
0000
,
0000
0000
0000
0000
,
0000
0000
0000
0000
,
0010
0001
0010
1000
,
0010
0001
0010
1000
,
0010
0010
0010
0010
,
0100
0000
0001
0001
,
0010
0000
0010
0000
,
0001
1000
0001
0100
,
0010
0000
0010
0000
,
1000
0001
1000
0001
,
0100
0000
0010
0000
,
1000
0000
0001
0000
,
0010
0001
0100
1000
,
0010
0001
1000
0100
,
0010
0000
0000
0000
,
1000
0000
0000
0000
,
0010
0000
0001
0000
,
1000
0010
0100
0001
,
0010
0000
0001
0000
,
1000
0000
0100
0000
,
1001
0000
0100
0000
,
0110
0000
0000
0000
,
1000
1000
0001
0001
,
1000
0001
0010
0100
,
1000
0001
0010
0100
,
0010
0001
0100
1000
,
0001
0001
1000
1000
,
0100
0010
1000
0001
,
0010
0000
0000
0000
,
0100
0000
0000
0000
,
0001
0001
1000
1000
,
0001
1000
0010
0100
,
0001
1000
0010
0100
,
0010
1000
0100
0001
,
1000
1000
0001
0001
,
0100
0010
0001
1000
,
0010
0000
0000
0000
,
0100
0000
0010
1001
,
0000
0000
0000
0000
,
0001
0100
1000
0100
,
0001
0000
1000
0000
,
0001
0100
1000
0100
,
0010
0001
0010
1000
,
0010
0001
0010
1000
,
0010
0010
0010
0010
,
0100
0000
0001
0001
;

//---------------dance-double - ----------------
#NOTES:
     dance-double:
     :
     Easy:
     3:
     :
00000000
00000000
00000000
00000000
,
00000000
00000000
00000000
00000000
,
00000000
00000000
00000000
00000000
,
00000000
00000000
00000000
00000000
,
00000000
00000000
00000000
00000000
,
00100000
10000000
00100000
00010000
,
00100000
00001000
00000010
00001000
,
00010000
00010000
00001000
00001000
,
00011000
00000000
00000000
00000000
,
00100000
00000000
00100000
00000000
,
00100000
10000000
01000000
00010000
,
00000100
00000000
00000010
00000000
,
00000001
00001000
00000001
00001000
,
00000001
00000000
00001000
00000000
,
00010000
00000000
10000000
00000000
,
00100000
00010000
01000000
10000000
,
00100000
00010000
10000000
01000000
,
00100000
10000000
01000000
00010000
,
00001000
00000100
00000001
00000100
,
00000010
00000000
00000001
00000000
,
00000001
00000010
00000100
00001000
,
00100000
00000000
10000000
00000000
,
10000000
00000000
01000000
00000000
,
10010000
00000000
00010000
00000000
,
00011000
00000000
00000000
00000000
,
00000001
00000001
00001000
00001000
,
00100000
00010000
00100000
01000000
,
10000000
00010000
00100000
01000000
,
00100000
00010000
01000000
10000000
,
10000000
10000000
00010000
00010000
,
00000010
00000100
00000001
00001000
,
00000010
00000000
00000000
00000000
,
00010000
00000000
00000000
00000000
,
00000001
00000001
00001000
00001000
,
00100000
00010000
00100000
01000000
,
10000000
10000000
00100000
01000000
,
00100000
10000000
01000000
00010000
,
10000000
10000000
00010000
00010000
,
00000010
00000100
00000001
00001000
,
00000001
00000000
00000000
00000000
,
00000110
00000000
00001000
00001001
,
00000000
00000000
00000000
00000000
,
00000001
00000100
00001000
00000100
,
00000001
00000000
00001000
00000000
,
00010000
01000000
10000000
01000000
,
00100000
10000000
00100000
00010000
,
00100000
00001000
00000010
00001000
,
00010000
00010000
00001000
00001000
,
00011000
00000000
00010000
00001000
;
