#TITLE:Dr. LOVE;
#ARTIST:baby weapon feat.Asuka.M;
#BANNER:Dr. LOVE.png;
#BACKGROUND:Dr. LOVE-bg.png;
#CDTITLE:./CDTITLES/Dance Dance Revolution CLUB VERSION.png;
#MUSIC:Dr. LOVE.ogg;
#SAMPLESTART:63.902;
#SAMPLELENGTH:15;
#DISPLAYBPM:123;
#BPMS:0=123;

//---------------dance-single - ----------------
#NOTES:
     dance-single:
     :
     Easy:
     3:
     :
0000
0000
0000
0000
,
0000
0000
0000
0000
,
0000
0000
0000
0000
,
0000
0000
0000
0000
,
0000
0000
0000
0000
,
0000
0000
0000
0000
,
0010
0000
0100
0000
,
0010
0000
0100
0000
,
0010
0010
0100
0000
,
0100
0100
0010
0000
,
1000
0000
0001
0000
,
0001
0000
1000
0000
,
1000
1000
0001
0000
,
0001
0001
1000
0000
,
0010
0000
0010
1000
0001
0000
0000
0000
,
0010
0000
0010
0001
1000
0000
0000
0000
,
0010
0000
0100
0000
,
0010
0000
0100
0000
,
1000
1000
0001
0001
,
1000
0001
1000
0000
,
0010
0010
1000
1000
,
0001
0001
0001
0001
,
0100
0100
1000
0001
,
0100
0100
1001
0000
,
1000
1000
0001
0001
,
1000
0100
0001
0100
,
1000
1000
1000
1000
,
0100
0100
0001
0001
,
1000
1000
0100
0100
,
0001
1000
0001
0001
,
1000
0100
0001
0100
,
1000
1000
0100
0100
,
1001
0100
0001
0110
,
1000
0100
0001
1000
,
0010
0010
1000
0001
,
1000
1000
0100
0100
,
0010
0010
0100
0100
,
0001
1000
0001
1000
,
0010
0010
1000
1000
,
0001
0001
0100
0100
,
1000
0001
1000
0001
,
1000
1000
0001
0001
,
0100
0100
0100
0100
,
0010
0010
0010
0010
,
1000
1000
1000
1000
,
0001
0001
0001
0001
,
0010
0000
0100
0000
,
0010
0010
0100
0000
,
0010
0000
0010
1000
0001
0000
0000
0000
,
0010
0000
0010
0001
1000
0000
0000
0000
;

//---------------dance-double - ----------------
#NOTES:
     dance-double:
     :
     Easy:
     3:
     :
00000000
00000000
00000000
00000000
,
00000000
00000000
00000000
00000000
,
00000000
00000000
00000000
00000000
,
00000000
00000000
00000000
00000000
,
00000000
00000000
00000000
00000000
,
00000000
00000000
00000000
00000000
,
00100000
00000000
00001000
00000000
,
00100000
00000000
00001000
00000000
,
00100000
00010000
00001000
00000000
,
00000010
00001000
00010000
00000000
,
01000000
00000000
00001000
00000000
,
00000100
00000000
00010000
00000000
,
10000000
10000000
00010000
00000000
,
00001000
00001000
00000001
00000000
,
00000010
00000000
00000010
00010000
00001000
00000000
00000000
00000000
,
00100000
00000000
00100000
00001000
00010000
00000000
00000000
00000000
,
00100000
00000000
01000000
00000000
,
00000010
00000000
00000100
00000000
,
00010000
00010000
00001000
00001000
,
00010000
00000010
00001000
00000000
,
00000010
00000010
00001000
00001000
,
00010000
00010000
00010000
00010000
,
01000000
01000000
10000000
00010000
,
00000100
00000100
00001001
00000000
,
00001000
00001000
00010000
00010000
,
10000000
01000000
00010000
00000100
,
00001000
00001000
00010000
00010000
,
01000000
01000000
00010000
00010000
,
00001000
00001000
00000100
00000100
,
00010000
10000000
00010000
00010000
,
00001000
00000100
00000001
00000100
,
00001000
00001000
01000000
01000000
,
10010000
01000000
00011000
00000110
,
00001000
00000100
00010000
10000000
,
00100000
00100000
00001000
00000001
,
00001000
00001000
00000100
00000100
,
00100000
00100000
01000000
01000000
,
00010000
00001000
00010000
00001000
,
00000010
00000010
00001000
00001000
,
00010000
00010000
01000000
01000000
,
10000000
00010000
00001000
00000001
,
00001000
00001000
00000001
00000001
,
00000100
00000100
00000100
00000000
,
00100000
00100000
00100000
00000000
,
10000000
10000000
10000000
00000000
,
00000001
00000001
00000001
00000000
,
00000010
00000000
00000100
00000000
,
00100000
00100000
01000000
00000000
,
00000010
00000000
00000010
00001000
00010000
00000000
00000000
00000000
,
00100000
00000000
00100000
00010000
00001000
00000000
00000000
00000000
;
