#TITLE:ALL THU THE NIGHT;
#SUBTITLE:;
#ARTIST:jun feat. Lisa Lisa;
#TITLETRANSLIT:;
#SUBTITLETRANSLIT:;
#ARTISTTRANSLIT:;
#GENRE:;
#CREDIT:;
#MUSIC:ALL THU THE NIGHT.ogg;
#BANNER:ALL THU THE NIGHT.png;
#BACKGROUND:ALL THU THE NIGHT-bg.png;
#CDTITLE:./CDTITLES/DanceDanceRevolution II.png;
#SAMPLESTART:41.357;
#SAMPLELENGTH:15.000;
#SELECTABLE:YES;
#OFFSET:0.000;
#BPMS:0.000=140.000;
#STOPS:;
#BGCHANGES:;
#FGCHANGES:;

//--------------- dance-single - ----------------
#NOTES:
     dance-single:
     :
     Beginner:
     3:
     0,0,0,0,0:
0000
0000
0000
0000
,
0000
0000
0000
0000
,
0000
0000
0000
0000
,
0000
0000
0000
0000
,
0000
0000
0000
0000
,
1000
0000
0000
0000
,
1000
0000
0000
0000
,
0001
0000
0000
0000
,
0001
0000
0000
0000
,
1000
0000
0001
0000
,
0010
0000
0000
0000
,
0001
0000
1000
0000
,
0010
0000
0000
0000
,
0001
0000
0010
0000
,
0001
0000
0010
0000
,
1000
0000
1000
0000
,
1000
0000
0000
0000
,
0001
0000
1000
0000
,
0010
0000
0000
0000
,
1000
0000
0001
0000
,
0010
0000
0000
0000
,
1000
0000
0010
0000
,
1000
0000
0010
0000
,
0001
0000
0001
0000
,
0001
0000
0000
0000
,
1000
1000
0000
0000
,
0010
0000
1000
0000
,
0010
0010
0000
0000
,
0100
0000
0001
0000
,
0001
0001
0000
0000
,
0010
0000
0100
0000
,
0010
0000
0010
0000
,
0010
0000
0000
0000
,
0001
0001
0000
0000
,
0010
0000
0001
0000
,
0010
0010
0000
0000
,
0100
0000
1000
0000
,
1000
1000
0000
0000
,
0010
0000
0100
0000
,
0010
0000
0010
0000
,
0010
0000
0000
0000
,
0001
0000
1000
0000
,
0001
0000
1000
0000
,
0010
0000
0001
0000
,
0010
0000
0000
0000
,
0100
0000
0001
0000
,
1000
0000
0001
0000
,
0100
0000
1000
0000
,
0010
0000
0000
0000
,
1000
0000
0000
0000
,
1000
0000
0000
0000
,
1000
0000
0000
0000
,
0000
0000
0000
0000
,
0001
0000
0000
0000
,
0001
0000
0000
0000
,
0001
0000
0000
0000
,
1001
0000
0000
0000
,
1000
1000
0000
0000
,
0010
0000
1000
0000
,
0010
0010
0000
0000
,
0100
0000
0001
0000
,
0001
0001
0000
0000
,
0010
0000
0100
0000
,
0010
0000
0010
0000
,
0010
0000
0000
0000
,
0001
0001
0000
0000
,
0010
0000
0001
0000
,
0010
0010
0000
0000
,
0100
0000
1000
0000
,
1000
1000
0000
0000
,
0010
0000
0100
0000
,
0010
0000
0010
0000
,
0010
0000
0000
0000
,
2002
0000
0000
0000
,
0000
0000
0000
3003
;

//--------------- dance-single - ----------------
#NOTES:
     dance-single:
     :
     Easy:
     6:
     0,0,0,0,0:
0000
0000
0000
0000
,
0000
0000
0000
0000
,
0000
0000
0000
0000
,
0000
0000
0000
0000
,
0000
0000
0000
0000
,
0000
1000
0000
1000
,
0000
0001
0000
0001
,
0000
0100
0000
0100
,
0000
0000
0000
0000
,
1000
0000
0001
0000
,
0100
0100
0100
0000
,
0010
0000
0100
0000
,
0001
0001
0001
0000
,
1000
0000
0010
0000
,
1000
1000
1000
0000
,
0002
0000
0203
0000
,
0320
0000
1030
0000
,
0001
0000
1000
0000
,
0100
0100
0100
0000
,
0010
0000
0100
0000
,
1000
1000
1000
0000
,
0001
0000
0010
0000
,
0001
0001
0001
0000
,
1001
0000
1001
0000
,
1001
0000
0000
0000
,
0010
0001
0010
0000
,
0001
0100
0001
0000
,
0010
0010
1000
0000
,
0100
0100
1000
0000
,
0001
0100
1000
0000
,
0001
0010
1000
0000
,
0002
0000
0013
0000
,
2000
0000
3100
0000
,
0010
0001
0010
0000
,
0001
0100
0001
0000
,
0010
0010
1000
0000
,
0100
0100
1000
0000
,
0001
0100
1000
0000
,
0001
0010
1000
0000
,
0002
0000
0013
0000
,
1001
0000
0000
0000
,
0001
0000
1000
1000
,
0001
0000
0100
0100
,
0010
0000
1000
1000
,
0001
1000
0001
0000
,
1000
0000
1000
0001
,
0001
0000
0100
0010
,
0010
0000
1000
0100
,
0100
0100
0010
0000
,
0002
0000
0000
0000
,
0000
0000
0000
0003
,
0020
0000
0000
0000
,
0000
0000
0000
0030
,
2000
0000
0000
0000
,
0000
0000
0000
3000
,
0001
0000
1000
0000
,
1001
0000
0000
0000
,
0010
0001
0010
0000
,
0001
0100
0001
0000
,
0010
0010
1000
0000
,
0100
0100
1000
0000
,
0001
0100
1000
0000
,
0001
0010
1000
0000
,
0002
0000
0013
0000
,
2000
0000
3100
0000
,
0010
0001
0010
0000
,
0001
0100
0001
0000
,
0010
0010
1000
0000
,
0100
0100
1000
0000
,
0001
0100
1000
0000
,
0001
0010
1000
0000
,
0002
0000
0013
0000
,
1000
0001
1000
0000
,
2002
0000
0000
0000
,
0000
0000
0000
3003
;

//--------------- dance-single - ----------------
#NOTES:
     dance-single:
     :
     Medium:
     9:
     0,0,0,0,0:
0000
0000
0000
0000
,
0000
0000
0000
0000
,
0000
0000
0000
0000
,
0000
0000
0000
0000
,
0000
0000
0000
0000
,
0020
0001
0000
0001
,
0000
0100
0000
0100
,
0000
1000
0000
1000
,
0130
0000
0000
0000
,
1001
0000
0000
0010
0000
1000
0000
0100
,
0000
0001
0000
1000
0000
0001
0000
0100
,
0010
0000
0000
0110
0000
0001
0000
1000
,
0000
0010
0000
0100
0000
0010
0000
1000
,
0001
0000
0000
1001
0000
1000
0000
0010
,
0000
0100
0000
0001
0000
0010
0000
0100
,
0000
0100
0000
1000
0000
1000
0000
1000
,
0000
0010
0000
0100
0000
0100
0000
0100
,
0110
0000
0000
0001
0000
0100
0000
1000
,
0000
0010
0000
0100
0000
0010
0000
1000
,
0001
0000
0000
1001
0000
0010
0000
0100
,
0000
0001
0000
1000
0000
0001
0000
0100
,
0010
0000
0000
0110
0000
0100
0000
0001
,
0000
1000
0000
0010
0000
0001
0000
1000
,
1001
0001
1001
1000
,
1001
0000
0000
0000
,
1000
0000
1000
0000
0100
0000
0100
0010
,
0000
0001
0000
0001
0000
0100
0000
0100
,
0010
0000
0010
0000
0100
0000
0100
0001
,
0000
1000
0000
1000
0000
0001
0000
0001
,
0010
0000
0010
0000
0001
0000
0001
1000
,
0000
0100
0000
0100
0000
0010
0000
0010
,
0002
0100
0100
0100
,
1000
0100
1003
0000
,
0001
0000
0001
0000
0100
0000
0100
0010
,
0000
1000
0000
1000
0000
0100
0000
0100
,
0010
0000
0010
0000
0100
0000
0100
1000
,
0000
0001
0000
0001
0000
1000
0000
1000
,
0010
0000
0010
0000
1000
0000
1000
0001
,
0000
0100
0000
0100
0000
0010
0000
0010
,
2000
0100
0100
0100
,
3001
0000
0000
0000
,
0010
0000
0010
0000
1000
0000
0100
1000
,
0100
0100
0010
0001
,
0100
0000
0100
0000
0010
0000
1000
0001
,
1000
0100
0010
0000
,
1000
0000
0100
0000
1000
0000
0100
0010
,
0100
0000
0010
0000
0100
0000
0010
0001
,
0010
0000
0001
0000
0010
0000
0001
1000
,
0001
1000
0001
0000
,
0002
0000
0000
0000
,
0203
0000
0000
0000
,
0320
0000
0000
0000
,
2030
0000
0000
0000
,
3001
0000
1000
0001
,
1001
0000
0100
0010
,
0110
0000
1001
0000
,
0110
0000
0000
0000
,
1000
0000
1000
0000
0100
0000
0100
0010
,
0000
0001
0000
0001
0000
0100
0000
0100
,
0010
0000
0010
0000
0100
0000
0100
0001
,
0000
1000
0000
1000
0000
0001
0000
0001
,
0010
0000
0010
0000
0001
0000
0001
1000
,
0000
0100
0000
0100
0000
0010
0000
0010
,
0002
0100
0100
0100
,
1000
0100
1003
0000
,
0001
0000
0001
0000
0100
0000
0100
0010
,
0000
1000
0000
1000
0000
0100
0000
0100
,
0010
0000
0010
0000
0100
0000
0100
1000
,
0000
0001
0000
0001
0000
1000
0000
1000
,
0010
0000
0010
0000
1000
0000
1000
0001
,
0000
0100
0000
0100
0000
0010
0000
0010
,
2000
0100
0100
0100
,
3010
0010
0010
0000
,
2002
0000
0000
0000
,
0000
0000
0000
3003
;

//--------------- dance-single - ----------------
#NOTES:
     dance-single:
     :
     Hard:
     11:
     0,0,0,0,0:
0000
0000
0000
0000
,
0000
0000
0000
0000
,
0000
0000
0000
0000
,
0000
0000
0000
0000
,
0000
0000
0000
0000
,
0002
0010
0100
2003
,
0001
0100
3020
1000
,
0001
0230
1000
0001
,
0310
0000
0000
0000
,
1100
0000
0010
0011
0000
1000
0010
0100
,
0000
0001
0010
0100
0010
0001
0100
0010
,
1010
0000
0100
0101
0000
1000
0100
0001
,
0000
0100
0010
0001
1000
0010
0100
0010
,
1010
0000
0001
0101
0000
1000
0100
2000
,
0000
0001
0000
0100
0000
0010
3010
0000
,
0100
0002
0010
0000
1000
0000
0100
0000
,
0010
0010
1000
1003
,
0101
0000
0010
1010
0000
0001
0010
0100
,
0000
1000
0010
0100
0010
1000
0100
0010
,
0011
0000
0100
1100
0000
0001
0100
1000
,
0000
0100
0010
1000
0001
0010
0100
0010
,
0011
0000
1000
1100
0000
0001
0100
0010
,
0110
0000
1000
0100
0000
0001
0010
0000
,
1001
0100
1001
0100
,
1001
0000
0000
0000
,
0110
0010
1000
0010
0000
0100
0001
0010
,
0000
1000
0010
0011
0000
0100
0000
0100
,
1000
0100
0010
0001
0000
0100
0001
0100
,
0000
1000
0010
0110
0000
0001
0000
0001
,
1001
1000
0100
0010
0000
0001
0010
0001
,
0000
0100
0010
0100
0000
0010
1000
0010
,
0200
1000
0010
0001
,
0320
0001
1000
0130
,
0110
0010
0001
0010
0000
0100
1000
0010
,
0000
0001
0010
1010
0000
0100
0000
0100
,
0001
0100
0010
1000
0000
0100
1000
0100
,
0000
0001
0010
0110
0000
1000
0000
1000
,
1001
0001
0100
0010
0000
1000
0010
1000
,
0000
0100
0010
0100
0000
0010
0001
0010
,
0200
0001
0010
1000
,
0301
0000
0000
0000
,
1001
0000
0100
1000
0000
0001
0010
0001
,
0100
0000
0010
1000
0000
0100
0010
0001
,
2000
0100
0010
0100
,
0001
0010
3001
0000
,
1001
0000
0010
0100
0000
0010
0001
0000
,
1000
0010
0000
0100
0010
1000
0100
0000
,
0020
0001
0100
0001
,
1000
0100
1030
0000
,
1000
0010
0000
0010
,
0001
0100
0000
0100
,
0010
1000
0000
1000
,
0100
0000
0001
0000
0000
0000
0001
0010
,
0110
0000
0010
0000
0000
0000
0010
0001
,
1001
0000
0100
0000
0000
0000
0100
1000
,
1010
0000
0100
0000
0011
0000
0100
0001
,
1001
0000
0000
0000
,
0110
0010
0001
0010
0000
0100
1000
0010
,
0000
0001
0010
1010
0000
0100
0000
0100
,
0001
0100
0010
1000
0000
0100
1000
0100
,
0000
0001
0010
0110
0000
1000
0000
1000
,
1001
0001
0100
0010
0000
1000
0010
1000
,
0000
0100
0010
0100
0000
0010
0001
0010
,
0200
0001
0010
1000
,
0320
1000
0001
0130
,
0110
0010
1000
0010
0000
0100
0001
0010
,
0000
1000
0010
0011
0000
0100
0000
0100
,
1000
0100
0010
0001
0000
0100
0001
0100
,
0000
1000
0010
0110
0000
0001
0000
0001
,
1001
1000
0100
0010
0000
0001
0010
0001
,
0000
0100
0010
0100
0000
0010
1000
0010
,
0200
1000
0010
0001
,
1300
0001
1000
0000
,
2002
0000
0000
0000
,
0000
0000
0000
3003
;

//--------------- dance-double - ----------------
#NOTES:
     dance-double:
     :
     Easy:
     6:
     0,0,0,0,0:
00000000
00000000
00000000
00000000
,
00000000
00000000
00000000
00000000
,
00000000
00000000
00000000
00000000
,
00000000
00000000
00000000
00000000
,
00000000
00000000
00000000
00000000
,
00000000
00001000
00000000
00001000
,
00000000
00000001
00000000
00000001
,
00000000
00000010
00000000
00000010
,
00000000
00000000
00000000
00000000
,
00000001
00000000
00001000
00000000
,
00000100
00000100
00010000
00000000
,
00001000
00000000
00010000
00000000
,
00001000
00100000
00100000
00000000
,
00010000
00000000
10000000
00000000
,
01000000
00100000
01000000
00000000
,
00200000
00000000
00302000
00000000
,
02003000
00000000
03100000
00000000
,
10000000
00000000
00010000
00000000
,
01000000
01000000
00001000
00000000
,
00010000
00000000
00001000
00000000
,
00010000
00000010
00000010
00000000
,
00001000
00000000
00000001
00000000
,
00000100
00000010
00000100
00000000
,
00000110
00000000
00001000
00000000
,
00011000
00000000
00000000
00000000
,
00100000
00010000
00100000
00000000
,
00001000
00010000
00001000
00000000
,
00100000
00100000
01000000
00000000
,
10000000
10000000
01000000
00000000
,
00100000
00001000
00010000
00000000
,
00001000
00010000
00000010
00000000
,
00020000
00000000
00030100
00000000
,
00002000
00000000
00003010
00000000
,
00000010
00001000
00000010
00000000
,
00010000
00001000
00010000
00000000
,
00000010
00000010
00000100
00000000
,
00000001
00000001
00000100
00000000
,
00000010
00010000
00001000
00000000
,
00010000
00001000
00100000
00000000
,
00002000
00000000
01003000
00000000
,
01100000
00000000
00000000
00000000
,
00010000
00000000
10000000
10000000
,
01000000
00000000
00100000
00100000
,
00001000
00000000
00010000
00010000
,
00001000
00000100
00000010
00000000
,
00000100
00000000
00000001
00000100
,
00001000
00000000
00010000
01000000
,
10000000
00000000
10000000
00010000
,
01000000
01000000
00100000
00000000
,
02000000
00000000
00000000
00000000
,
00000000
00000000
00000000
03000000
,
00002000
00000000
00000000
00000000
,
00000000
00000000
00000000
00003000
,
00000200
00000000
00000000
00000000
,
00000000
00000000
00000000
00000300
,
00000010
00000000
00000100
00000000
,
00000110
00000000
00000000
00000000
,
00000010
00001000
00000010
00000000
,
00010000
00001000
00010000
00000000
,
00000010
00000010
00000100
00000000
,
00000001
00000001
00000100
00000000
,
00000010
00010000
00001000
00000000
,
00010000
00001000
00100000
00000000
,
00002000
00000000
01003000
00000000
,
00020000
00000000
00130000
00000000
,
00100000
00010000
00100000
00000000
,
00001000
00010000
00001000
00000000
,
00100000
00100000
01000000
00000000
,
10000000
10000000
01000000
00000000
,
00100000
00001000
00010000
00000000
,
00001000
00010000
00000010
00000000
,
00020000
00000000
00030100
00000000
,
00000110
00000010
00000010
00000000
,
00002002
00000000
00000000
00000000
,
00000000
00000000
00000000
00003003
;

//--------------- dance-double - ----------------
#NOTES:
     dance-double:
     :
     Medium:
     9:
     0,0,0,0,0:
00000000
00000000
00000000
00000000
,
00000000
00000000
00000000
00000000
,
00000000
00000000
00000000
00000000
,
00000000
00000000
00000000
00000000
,
00000000
00000000
00000000
00000000
,
00002000
00010000
00000000
00010000
,
00000000
00100000
00000000
00100000
,
00000000
00000010
00000000
00000010
,
00013000
00000000
00000000
00000000
,
00011000
00000000
00000000
00100000
00000000
10000000
00000000
01000000
,
00000000
00010000
00000000
00001000
00000000
00010000
00000000
01000000
,
00100000
00000000
00000000
01100000
00000000
00001000
00000000
00010000
,
00000000
00000010
00000000
00001000
00000000
00000001
00000000
00000100
,
00000010
00000000
00000000
00000110
00000000
00000001
00000000
00000100
,
00000000
00001000
00000000
00010000
00000000
00100000
00000000
01000000
,
00000000
01000000
00000000
00100000
00000000
00010000
00000000
00001000
,
00000000
00000100
00000000
00000010
00000000
00010000
00000000
00001000
,
00011000
00000000
00000000
00000010
00000000
00000001
00000000
00000100
,
00000000
00001000
00000000
00010000
00000000
00001000
00000000
00000100
,
00000010
00000000
00000000
00000110
00000000
00010000
00000000
00001000
,
00000000
00100000
00000000
00010000
00000000
10000000
00000000
01000000
,
00100000
00000000
00000000
01100000
00000000
10000000
00000000
01000000
,
00000000
00010000
00000000
00001000
00000000
00000010
00000000
00000100
,
00000110
00000000
00011000
00000000
,
01100000
00000000
00000000
00000000
,
10000000
00000000
10000000
00000000
01000000
00000000
01000000
00100000
,
00000000
00010000
00000000
00010000
00000000
00001000
00000000
00001000
,
00000010
00000000
00000010
00000000
00000100
00000000
00000100
00000001
,
00000000
00000100
00000000
00001000
00000000
00010000
00000000
00001000
,
00000100
00000000
00000100
00000000
00000010
00000000
00000010
00010000
,
00000000
00001000
00000000
01000000
00000000
00100000
00000000
10000000
,
00020000
01000000
01000000
01000000
,
10000000
01000000
10030000
00000000
,
10000000
00000000
10000000
00000000
00100000
00000000
00100000
01000000
,
00000000
00010000
00000000
00010000
00000000
00001000
00000000
00001000
,
00000100
00000000
00000100
00000000
00000010
00000000
00000010
00000001
,
00000000
00000010
00000000
00001000
00000000
00010000
00000000
00001000
,
00000010
00000000
00000010
00000000
00000100
00000000
00000100
00010000
,
00000000
00001000
00000000
00100000
00000000
01000000
00000000
10000000
,
00020000
00100000
00100000
00100000
,
01030000
00000000
00000000
00000000
,
00100000
00000000
00100000
00000000
10000000
00000000
00010000
00100000
,
00010000
01000000
00100000
00010000
,
00001000
00000000
00001000
00000000
00100000
00000000
00001000
00000100
,
00001000
00010000
00000010
00000000
,
00000100
00000000
00000001
00000000
00000100
00000000
00000010
00001000
,
00000010
00000000
00010000
00000000
00001000
00000000
00100000
00010000
,
00100000
00000000
00010000
00000000
01000000
00000000
00001000
00010000
,
01000000
10000000
00010000
00000000
,
02000000
00000000
00000000
00000000
,
03020000
00000000
00000000
00000000
,
00032000
00000000
00000000
00000000
,
00003020
00000000
00000000
00000000
,
00000031
00000000
00001000
00000100
,
00001100
00000000
00010000
00001000
,
00011000
00000000
01100000
00000000
,
10010000
00000000
00000000
00000000
,
10000000
00000000
10000000
00000000
01000000
00000000
01000000
00100000
,
00000000
00010000
00000000
00010000
00000000
00001000
00000000
00001000
,
00000010
00000000
00000010
00000000
00000100
00000000
00000100
00000001
,
00000000
00000100
00000000
00001000
00000000
00010000
00000000
00001000
,
00000100
00000000
00000100
00000000
00000010
00000000
00000010
00010000
,
00000000
00001000
00000000
01000000
00000000
00100000
00000000
10000000
,
00020000
01000000
01000000
01000000
,
10000000
01000000
10030000
00000000
,
10000000
00000000
10000000
00000000
00100000
00000000
00100000
01000000
,
00000000
00010000
00000000
00010000
00000000
00001000
00000000
00001000
,
00000100
00000000
00000100
00000000
00000010
00000000
00000010
00000001
,
00000000
00000010
00000000
00001000
00000000
00010000
00000000
00001000
,
00000010
00000000
00000010
00000000
00000100
00000000
00000100
00010000
,
00000000
00001000
00000000
00100000
00000000
01000000
00000000
10000000
,
00020000
00100000
00100000
00100000
,
01030000
01000000
01000000
00000000
,
20020000
00000000
00000000
00000000
,
00000000
00000000
00000000
30030000
;

//--------------- dance-double - ----------------
#NOTES:
     dance-double:
     :
     Hard:
     11:
     0,0,0,0,0:
00000000
00000000
00000000
00000000
,
00000000
00000000
00000000
00000000
,
00000000
00000000
00000000
00000000
,
00000000
00000000
00000000
00000000
,
00000000
00000000
00000000
00000000
,
00002000
00100000
01000000
00023000
,
00000010
00000100
00032000
00100000
,
00010000
01003000
00100000
00010000
,
00000100
00000000
00000000
00000000
,
00000011
00000000
00000000
00001100
00000000
00000001
00000100
00000010
,
00001000
00000100
00010000
00000010
00000100
00001000
00010000
00000000
,
10100000
00000000
00000000
01010000
00000000
10000000
01000000
00010000
,
00001000
01000000
00100000
00010000
00001000
00010000
00000010
00000000
,
00001001
00000000
00000000
00000110
00000000
00000001
00000100
00000010
,
00010000
00001000
00100000
00010000
10000000
01000000
00010000
00000000
,
00002000
00000010
00010000
00000010
,
02003000
10000000
00010000
13000000
,
10100000
00000000
00000000
01010000
00000000
10000000
01000000
00100000
,
00010000
01000000
00001000
00100000
01000000
00010000
00001000
00000000
,
00000011
00000000
00000000
00001100
00000000
00000001
00000100
00001000
,
00010000
00000100
00000010
00001000
00010000
00001000
00100000
00000000
,
10010000
00000000
00000000
01100000
00000000
10000000
01000000
00100000
,
00001000
00010000
00000010
00001000
00000001
00000100
00001000
00000000
,
00101000
00010000
00010010
00001000
,
00011000
00000000
00000000
00000000
,
00100000
01000000
10000000
00010000
00000000
01000000
00010000
00100000
,
00000000
00010000
00001000
00000010
00000000
00000100
00000001
00000010
,
00000001
00000001
00000100
00001000
00000000
00010000
00001000
00100000
,
00000000
10000000
00100000
00010000
00000000
00001000
00010000
01000000
,
00100000
00010000
10000000
00100000
00000000
01000000
00100000
00010000
,
00000000
00001000
00010000
00000010
00000000
00000100
00000010
00001000
,
00000020
00000001
00000100
00001000
,
00020030
01000000
00001000
00030010
,
00000010
00000100
00000001
00001000
00000000
00000100
00001000
00000010
,
00000000
00001000
00010000
00100000
00000000
01000000
10000000
00100000
,
10000000
10000000
01000000
00010000
00000000
00001000
00010000
00000010
,
00000000
00000001
00000010
00001000
00000000
00010000
00001000
00000100
,
00000010
00001000
00000001
00000010
00000000
00000100
00000010
00001000
,
00000000
00010000
00001000
00100000
00000000
01000000
00100000
00010000
,
00200000
10000000
01000000
00010000
,
01300000
00000000
00000000
00000000
,
10010000
00000000
01000000
00000000
00001000
00010000
01000000
00000000
,
00100000
00010000
00100000
10000000
00000000
00100000
00010000
00000000
,
10000000
01000000
00100000
00001000
,
00000010
00000001
00001000
00000010
00000100
00000000
00000000
00000000
,
00001001
00000000
00000100
00000000
00010000
00000010
00001000
00000000
,
00000100
00000010
00000100
00010000
00000000
00000010
00001000
00000000
,
00000001
00000100
00001000
00010000
,
00100000
10000000
01000000
00100000
00010000
00000000
00000000
00000000
,
10000000
00010000
00000000
00010000
,
01000000
00001000
00000000
00001000
,
00000010
00000001
00000000
00000001
,
00000100
00000000
00001000
00000000
00000000
00000000
00001000
00010000
,
00011000
00000000
00000010
00000000
00000000
00000000
00000010
00010000
,
00011000
00000000
01000000
00000000
00000000
00000000
01000000
00100000
,
00101000
00000000
00010000
00000000
00010010
00000000
00001000
00010000
,
00011000
00000000
00000000
00000000
,
00000010
00000100
00000001
00001000
00000000
00000100
00001000
00000010
,
00000000
00001000
00010000
00100000
00000000
01000000
10000000
00100000
,
10000000
10000000
01000000
00010000
00000000
00001000
00010000
00000010
,
00000000
00000001
00000010
00001000
00000000
00010000
00001000
00000100
,
00000010
00001000
00000001
00000010
00000000
00000100
00000010
00001000
,
00000000
00010000
00001000
00100000
00000000
01000000
00100000
00010000
,
00200000
10000000
01000000
00010000
,
00302000
00000100
00010000
00103000
,
00100000
01000000
10000000
00010000
00000000
01000000
00010000
00100000
,
00000000
00010000
00001000
00000010
00000000
00000100
00000001
00000010
,
00000001
00000001
00000100
00001000
00000000
00010000
00001000
00100000
,
00000000
10000000
00100000
00010000
00000000
00001000
00010000
01000000
,
00100000
00010000
10000000
00100000
00000000
01000000
00100000
00010000
,
00000000
00001000
00010000
00000010
00000000
00000100
00000010
00001000
,
00000020
00000001
00000100
00001000
,
00000130
00001000
00010000
00000000
,
02200000
00000000
00000000
00000000
,
00000000
00000000
00000000
03300000
;
