#TITLE:20,november;
#ARTIST:dj nagureo;
#BANNER:20,november.png;
#BACKGROUND:20,november-bg.png;
#MUSIC:20,november.ogg;
#SAMPLESTART:24;
#SAMPLELENGTH:15;
#BPMS:0=130;

//---------------dance-single - ----------------
#NOTES:
     dance-single:
     :
     Easy:
     4:
     :
0000
0000
0000
0000
,
0000
0000
0000
0000
,
0000
0000
0000
0000
,
0000
0000
0000
0000
,
0000
0000
0000
0000
,
1001
0100
0001
0100
,
1001
0100
1000
0100
,
1001
0100
0001
0100
,
0100
0100
0010
1001
,
0001
0001
1000
1000
,
0100
0100
1001
1001
,
0001
0001
1000
1000
,
0010
0010
1100
1100
,
0001
0000
0001
0000
0001
0100
1000
0000
,
1000
1000
0001
0001
,
1000
0000
1000
0000
1000
0100
0001
0000
,
0010
0010
0001
0001
,
1000
0000
1000
0000
1000
0100
0001
0000
,
0001
0001
1000
1000
,
0001
0000
0001
0000
0001
0100
1000
0000
,
1000
0010
0001
0100
,
0000
0000
1001
0100
,
1000
0000
0100
0000
0001
0100
1000
0000
,
1000
0000
0100
0000
0001
0100
1000
0000
,
1000
0000
0100
0000
0001
0100
1000
0000
,
0100
0001
0110
0000
,
0100
0000
1001
0000
,
0010
0000
0110
0000
,
0100
0000
1001
0000
,
0100
0100
1000
0001
,
0100
0100
0001
1000
,
0100
0100
1000
0001
,
0010
0010
1000
0001
,
0010
0010
1000
0100
,
0001
0000
0001
0100
1000
0000
1000
0000
,
1000
0000
1000
0100
0001
0000
0001
0000
,
0001
0000
0001
0100
1000
0000
1000
0000
,
0010
0000
0010
1000
0100
0000
0100
0000
,
0100
0000
0100
1000
0010
0000
0010
0000
,
1000
0000
1000
0100
0001
0000
0001
0000
,
0001
0000
0001
0100
1000
0000
1000
0000
,
1000
0000
1000
0100
0001
0000
0000
0000
;

//---------------dance-double - ----------------
#NOTES:
     dance-double:
     :
     Easy:
     4:
     :
00000000
00000000
00000000
00000000
,
00000000
00000000
00000000
00000000
,
00000000
00000000
00000000
00000000
,
00000000
00000000
00000000
00000000
,
00000000
00000000
00000000
00000000
,
10010000
01000000
00010000
01000000
,
00011000
00010000
00001000
00000100
,
00001001
00001000
00000001
00001000
,
00000110
00001000
00010000
01100000
,
10000000
10000000
01000000
01000000
,
00010000
00010000
00000100
00000100
,
00001000
00001000
01000000
01000000
,
00010000
00010000
00000100
00000100
,
00001000
00000000
00001000
00000000
00000010
00000001
00000100
00000000
,
00001000
00001000
00010000
00010000
,
00100000
00000000
00100000
00000000
10000000
01000000
00010000
00000000
,
00001000
00001000
00000010
00000010
,
00000001
00000000
00000001
00000000
00000100
00001000
00010000
00000000
,
00100000
00100000
10000000
10000000
,
01000000
00000000
01000000
00000000
00010000
00001000
00010000
00000000
,
00000001
00001000
00000100
00000100
,
00000000
00000000
00001001
00000100
,
00010000
00000000
01000000
00000000
10000000
01000000
00010000
00000000
,
00001000
00000000
00000100
00000000
00000001
00000100
00001000
00000000
,
00010000
00000000
01000000
00000000
10000000
01000000
00010000
00000000
,
00001000
00000100
00000001
00000010
,
00001000
00000100
00000001
00000010
,
00001000
00000100
00000001
00000010
,
00001000
00000100
00000001
00000010
,
00001000
00001000
00000001
00000001
,
00001000
00001000
00100000
00100000
,
10000000
10000000
01000000
01000000
,
00010000
00000000
00010000
00000000
00001000
00010000
00001000
00010000
,
00001000
00010000
00001000
00010000
00001000
00000000
00000100
00000000
,
00000001
00000000
00000001
00000100
00001000
00000000
00010000
00000000
,
00010000
00000000
00010000
01000000
10000000
00000000
10000000
00000000
,
10000000
00000000
10000000
01000000
00010000
00000000
00010000
00000000
,
00001000
00000000
00001000
00000001
00000100
00000000
00000100
00000000
,
00000100
00000000
00000100
00001000
00010000
00000000
00010000
00000000
,
00010000
00000000
00010000
01000000
10000000
00000000
10000000
00000000
,
10000000
00000000
10000000
01000000
00010000
00000000
00010000
00000000
,
00001000
00000000
00001000
00010000
00100000
00000000
00000000
00000000
;
