#TITLE:msgoon RMX pt. 6;
#SUBTITLE:;
#ARTIST:msgoon;
#TITLETRANSLIT:;
#SUBTITLETRANSLIT:;
#ARTISTTRANSLIT:;
#GENRE:;
#CREDIT:;
#BANNER:msgoon RMX pt. 6-bn.jpg;
#BACKGROUND:msgoon RMX pt. 6.jpg;
#LYRICSPATH:;
#CDTITLE:;
#MUSIC:msgoon rmx pt 6.mp3;
#OFFSET:-0.537387;
#SAMPLESTART:29.329067;
#SAMPLELENGTH:12.000000;
#SELECTABLE:YES;
#DISPLAYBPM:*;
#BPMS:0.000000=150.000000
,12.000000=300.000000
,16.000000=150.000000
,173.000000=300.000000
,176.000000=150.000000
,222.000000=75.000000
,225.000000=150.000000
,270.000000=600.000000
,281.500000=150.000000
,310.000000=300.000000
,313.000000=150.000000
,341.000000=300.000000
,344.000000=150.000000
,372.000000=1200.000000
,374.500000=150.000000
,403.000000=300.000000
,406.000000=150.000000
;
#STOPS:15.000000=0.100000,
15.500000=0.100000,
16.000000=0.200000,
173.500000=0.250000,
174.000000=0.250000,
174.500000=0.250000,
175.000000=0.250000,
222.000000=1.000000,
222.250000=0.200000,
222.500000=0.200000,
222.750000=0.200000,
223.000000=0.200000,
223.250000=0.200000,
223.500000=0.200000,
223.750000=0.200000,
224.000000=0.200000,
224.250000=0.200000,
224.500000=0.200000,
224.750000=0.200000,
241.000000=1.200000,
281.500000=0.300000,
310.500000=0.250000,
311.000000=0.250000,
311.500000=0.250000,
312.000000=0.250000,
341.500000=0.250000,
342.000000=0.250000,
342.500000=0.250000,
343.000000=0.250000,
372.000000=0.200000,
373.000000=0.400000,
373.500000=0.200000,
374.000000=0.200000,
374.500000=0.300000,
403.500000=0.250000,
404.000000=0.250000,
404.500000=0.250000,
405.000000=0.250000
;
#BGCHANGES:0.000=Remix Fiesta V2.avi=1.000=0=0=1=====,
99999=-nosongbg-=1.000=0=0=0 // don't automatically add -songbackground-
;
#KEYSOUNDS:;
#ATTACKS:;

//---------------dance-single - ----------------
#NOTES:
     dance-single:
     :
     Challenge:
     15:
     1.000000,1.000000,0.076216,1.000000,1.000000,1110.000000,13.000000,185.000000,0.000000,0.000000,0.000000,1.000000,1.000000,0.076216,1.000000,1.000000,1110.000000,13.000000,185.000000,0.000000,0.000000,0.000000:
// measure 0
0000
0000
0000
0000
,  // measure 1
0000
0000
0000
0000
,  // measure 2
0000
0000
0000
0000
,  // measure 3
2002
0000
0000
0000
,  // measure 4
0000
3003
0000
0000
1000
0000
0100
1000
0001
0000
0100
0000
0001
0010
0100
1000
,  // measure 5
0001
0010
0000
0000
0001
1000
0100
0010
0001
0000
0100
0000
0001
0010
0100
1000
,  // measure 6
0010
0001
0010
0000
1000
0000
0100
1000
0001
0000
0100
0000
0001
1000
0100
1000
,  // measure 7
0001
0010
0000
0000
0001
1000
0100
0010
0001
0000
0100
0000
0001
0010
0100
1000
,  // measure 8
0001
0010
0100
0000
1000
0000
0100
1000
0001
0000
0010
0000
0001
1000
0100
0010
,  // measure 9
0001
1000
0000
0000
0001
0010
0100
1000
0001
0000
0100
0000
0001
0010
0100
1000
,  // measure 10
0100
1000
0001
0000
1000
0000
0100
1000
0001
0000
0010
0000
0001
1000
0100
1000
,  // measure 11
0001
0010
0000
0000
1000
0010
0001
1000
0010
0100
0001
1000
0001
0010
0100
1000
,  // measure 12
0001
1000
0010
0100
0001
0000
0010
0001
0100
0010
0001
0010
0100
0001
0010
0001
,  // measure 13
1000
0001
0000
0000
0100
0001
0010
0100
1000
0000
0100
0000
1000
0010
0100
0001
,  // measure 14
0100
0000
0001
0000
1000
0000
0010
1000
0100
0010
1000
0010
0100
1000
0010
1000
,  // measure 15
0001
1000
0000
0000
0100
0010
1000
0010
0001
0000
1000
0000
0010
0001
0010
1000
,  // measure 16
0001
0100
0010
1000
0000
0000
0100
0010
0001
0100
0010
0100
0001
0010
0100
0010
,  // measure 17
0001
1000
0000
0000
0100
1000
0010
0100
0001
0000
0010
0000
0001
0010
0100
1000
,  // measure 18
0100
0000
1000
0000
0001
0000
0100
0010
1000
0100
0010
0100
1000
0010
0100
0010
,  // measure 19
1000
0001
0000
0000
0100
0001
1000
0100
1000
0001
1000
0010
0100
0001
0010
0100
,  // measure 20
2000
0000
0000
3000
0001
0100
1000
0100
0002
0003
2000
3000
0001
0010
1000
0010
,  // measure 21
0002
0003
2000
3000
0100
1000
0010
0100
0002
0003
0200
0300
0001
0010
0100
1000
,  // measure 22
0002
0003
2000
3000
0100
0010
1000
0010
0002
0003
2000
3000
0001
0100
0010
0001
,  // measure 23
0020
0030
2000
3000
0100
1000
0001
0010
0001
1000
0010
0100
0001
0010
0001
1000
,  // measure 24
0100
0010
0001
0010
0001
1000
0100
0010
2000
3000
0020
0030
0001
0010
0001
0100
,  // measure 25
0020
0030
0002
0003
0010
1000
0001
1000
0200
0300
0020
0030
0001
0100
0001
1000
,  // measure 26
0002
0003
0200
0300
0010
1000
0100
0010
0002
0003
0020
0030
0001
0100
0010
1000
,  // measure 27
0200
0300
0020
0030
1000
0010
0100
1000
0010
1000
0001
0010
0100
1000
0010
0100
,  // measure 28
0001
1000
0010
0100
0001
0100
0010
0001
0020
0030
2000
3000
0100
0010
0001
1000
,  // measure 29
0020
0030
0200
0300
0001
1000
0010
0001
0020
0030
2000
3000
0001
0010
1000
0010
,  // measure 30
0002
0003
0200
0300
0001
0010
0100
0010
0002
0003
2000
3000
0001
0100
0010
1000
,  // measure 31
0200
0300
0020
0030
1000
0001
1000
0010
0100
1000
0010
1000
0010
0001
0010
0100
,  // measure 32
0001
0100
0010
1000
0001
0100
0001
0010
0200
0300
2000
3000
0001
0010
1000
0010
,  // measure 33
0200
0300
2000
3000
0010
0100
0001
1000
0002
0003
0020
0030
0100
1000
0001
1000
,  // measure 34
0020
0030
0200
0300
0001
1000
0100
0010
0002
0003
2000
3000
0010
0001
0010
1000
,  // measure 35
0002
0003
0020
0030
1000
0010
0001
1000
0010
0001
0010
1000
0100
0001
0100
1000
,  // measure 36
0010
0001
0010
1000
0002
0003
0010
0001
2000
3000
0002
0000
0000
0003
2000
3000
,  // measure 37
0001
1000
0100
0010
0002
0003
0100
0001
0020
0030
0001
0100
0020
0030
0100
0001
,  // measure 38
0020
0030
0001
0100
0010
0100
0001
0010
0100
0000
2000
0000
0000
3000
0200
0300
,  // measure 39
2000
3000
0002
0003
1000
0001
0010
0100
2000
0000
0000
3000
0001
1000
0010
0100
,  // measure 40
0002
0000
0000
0003
1000
0001
0100
0001
2000
3000
0020
0000
0000
0030
0200
0300
,  // measure 41
0001
0010
0100
1000
0020
0030
1000
0100
0020
0030
0100
1000
0020
0030
1000
0100
,  // measure 42
0020
0030
0100
1000
0010
1000
0100
0010
1000
0000
0200
0000
0000
0300
0002
0003
,  // measure 43
2000
3000
0100
2000
0002
0000
0000
0000
0000
0000
0000
0000
3003
0000
0000
0000
,  // measure 44
1001
0000
2000
3000
0002
0003
0020
0030
0200
0300
2000
3000
0010
1000
0001
0010
,  // measure 45
0200
0300
1000
0010
0200
0300
0001
0010
0200
0300
1000
0010
0200
0300
0001
0010
,  // measure 46
0200
0300
1000
0010
0200
0300
0001
0010
0200
0300
1000
0010
0200
0300
0001
0010
,  // measure 47
0100
1000
0001
0100
0001
0100
0010
1000
0100
1000
0010
0100
0002
0000
0003
0000
,  // measure 48
0001
0010
0100
1000
0020
0030
0200
0000
0000
0300
0002
0003
0010
0001
1000
0010
,  // measure 49
0200
0300
0001
0010
0200
0300
1000
0010
0200
0300
0001
0010
0200
0300
1000
0010
,  // measure 50
0100
0001
0100
0001
2000
3000
0002
0000
0000
0003
2000
3000
0100
1000
0010
0100
,  // measure 51
0001
1001
1000
1001
,  // measure 52
1000
0001
2002
3003
0010
0001
0022
0033
,  // measure 53
0010
0000
0100
0000
0220
0000
0330
0000
0010
1000
0010
0001
1000
0001
0100
0010
,  // measure 54
1000
0001
2002
3003
0100
0001
0202
0303
,  // measure 55
0100
0010
0220
0330
0000
0000
0000
0000
,  // measure 56
0000
2002
0000
0000
,  // measure 57
0000
0000
3003
0000
0002
0000
0000
0000
0000
0000
0000
0003
2000
0000
0000
0000
,  // measure 58
0000
0000
0000
3000
0200
0000
0000
0300
0020
0000
0000
0030
0002
0003
2000
3000
,  // measure 59
0200
0300
0020
0030
0002
0003
0200
0300
0020
0030
2000
3000
0002
0003
0020
0030
,  // measure 60
0200
0000
0300
0000
2000
0000
3000
0000
0000
0000
0000
0000
0000
0000
0000
0000
0010
1000
0010
0000
1000
0000
0100
0000
1000
0000
0010
0000
0100
0000
0001
0000
,  // measure 61
0010
0001
0010
0000
0001
0000
0100
0000
0001
0000
0010
0000
0100
0000
1000
0000
0001
0010
0001
0000
1000
0000
0100
0000
1000
0000
0010
0000
0100
0000
0001
0000
,  // measure 62
1000
0010
1000
0000
0001
0000
0100
0000
0001
0000
0010
0000
0100
0000
1000
0000
0001
0100
0001
0000
1000
0000
0001
0000
0100
0000
0010
0000
1000
0000
0001
0000
,  // measure 63
1000
0100
1000
0000
0001
0000
1000
0000
0100
0000
0010
0000
0001
0000
1000
0000
0100
1000
0100
0000
1000
0000
0001
0000
0100
0000
0010
0000
1000
0000
0001
0000
,  // measure 64
0100
0001
0100
0000
0001
0000
1000
0000
0100
0000
0010
0000
0001
0000
1000
0000
0100
1000
0100
0000
0010
0000
0001
0000
0100
0000
0001
0000
1000
0000
0001
0000
,  // measure 65
0100
0001
0100
0000
0010
0000
1000
0000
0100
0000
1000
0000
0001
0000
1000
0000
0001
0010
0001
0000
1000
0000
0010
0000
0100
0000
0001
0000
1000
0000
0001
0000
,  // measure 66
1000
0010
1000
0000
0001
0000
0010
0000
0100
0000
1000
0000
0001
0000
1000
0000
0001
0100
0001
0000
1000
0000
0001
0000
0010
0000
1000
0000
0010
0000
0001
0000
,  // measure 67
1000
0100
1000
0000
0001
0000
1000
0000
0010
0000
0001
0000
0010
0000
1000
0000
0200
0000
0000
0000
0000
0000
0000
0000
0000
0000
0000
0000
0000
0000
0000
0000
,  // measure 68
0000
0000
0000
0000
,  // measure 69
0000
0000
0000
0000
,  // measure 70
0000
0000
0000
0000
0000
0000
0300
0000
1000
0010
0100
0001
2000
3000
0020
0000
,  // measure 71
0000
0030
0200
0300
0001
0010
0100
1000
0002
0003
0100
0010
0002
0003
0010
0100
,  // measure 72
0002
0003
0100
0010
0002
0003
0010
0100
0001
0100
0010
0001
0010
0000
2000
0000
,  // measure 73
0000
3000
0200
0300
0020
0030
0002
0003
1000
0010
0001
0010
2000
0000
0000
3000
,  // measure 74
0001
0010
1000
0010
0002
0000
0000
0003
1000
0001
0100
0001
2000
3000
0002
0000
,  // measure 75
0000
0003
2000
3000
0001
1000
0100
0010
2000
3000
0010
0100
2000
3000
0100
0010
,  // measure 76
2000
3000
0010
0100
2000
3000
0100
0010
1000
0010
0100
1000
0010
0000
0200
0000
,  // measure 77
0000
0300
0002
0003
2000
3000
0100
2000
0002
0000
0000
0000
0000
0000
0000
0000
,  // measure 78
3003
0000
0000
0000
1001
0000
2000
3000
0020
0030
0002
0003
0020
0030
2000
3000
,  // measure 79
0001
0100
0010
0001
0020
0030
1000
0001
0200
0300
0010
0001
0020
0030
1000
0001
,  // measure 80
0200
0300
0010
0001
0020
0030
1000
0001
0200
0300
0010
0001
0020
0030
1000
0001
,  // measure 81
0200
0300
0010
0001
0010
1000
0100
0010
0001
0010
1000
0010
0100
1000
0001
0100
,  // measure 82
0020
0000
0000
0030
0010
1000
0100
0010
2000
3000
0020
0000
0000
0030
0002
0003
,  // measure 83
1000
0100
0010
1000
0020
0030
0001
1000
0200
0300
0010
1000
0020
0030
0001
1000
,  // measure 84
0200
0300
0010
1000
0010
0001
0100
0010
2000
3000
0002
0000
0000
0003
0020
0030
,  // measure 85
0100
1000
0001
2000
0020
0000
0000
0000
0000
0000
0000
0000
3030
0000
0000
0000
,  // measure 86
0010
1000
0001
0100
0001
1000
0001
0100
0010
1000
0001
1000
0100
0010
0100
1000
,  // measure 87
0001
0100
1000
0100
0001
1000
0100
0010
0001
0100
0010
0100
1000
0100
0010
1000
,  // measure 88
0001
0010
1000
0010
0001
1000
0100
0010
0100
0001
0100
0010
0001
0100
1000
0100
,  // measure 89
0001
1000
0001
0000
0100
0010
0100
0000
0001
1000
0001
0100
0010
0100
0001
1000
,  // measure 90
0100
0010
0001
0010
0100
1000
0010
0000
0000
0000
1000
0010
0100
0001
0010
0000
,  // measure 91
0000
0100
0010
0100
1000
0010
0100
0001
0010
0100
1000
0010
0000
0000
0000
0000
,  // measure 92
0000
1000
0010
0001
0010
1000
0100
0010
0001
1000
0000
0000
0001
1000
0100
0010
,  // measure 93
0000
0000
0000
0000
0000
0000
0000
0000
0000
0000
0000
0000
0001
1000
0001
0100
,  // measure 94
1000
0100
0001
1000
0100
1000
0001
0010
0100
1000
0001
1000
0010
0100
0001
0010
,  // measure 95
0100
1000
0001
1000
0010
0100
0001
0100
1000
0100
0001
1000
0010
0001
0010
1000
,  // measure 96
0100
0010
0001
0010
1000
0010
0001
0100
0010
1000
0010
0001
0010
1000
0100
0001
,  // measure 97
1000
0010
0001
1000
0010
0100
0001
1000
0010
0100
0001
0010
0100
1000
0010
1000
,  // measure 98
0010
0001
0010
1000
0100
0001
1000
0010
0001
0010
1000
0010
0001
0100
1000
0001
,  // measure 99
0010
1000
0001
1000
0100
0001
1000
0010
0100
1000
0001
1000
0001
0100
1000
0001
,  // measure 100
0010
0100
0010
1000
0001
1000
0100
0001
1000
0010
0100
0020
0002
0000
0000
0000
,  // measure 101
0000
0033
0011
0000
;
