#VERSION:0.83;
#TITLE:Witch Doctor;
#SUBTITLE:;
#ARTIST:BanYa;
#TITLETRANSLIT:;
#SUBTITLETRANSLIT:;
#ARTISTTRANSLIT:;
#GENRE:;
#ORIGIN:;
#CREDIT:;
#BANNER:Witch Doctor.png;
#BACKGROUND:Witch Doctor-bg.png;
#PREVIEWVID:;
#JACKET:;
#CDIMAGE:;
#DISCIMAGE:;
#LYRICSPATH:;
#CDTITLE:;
#MUSIC:Witch Doctor.ogg;
#OFFSET:-0.063000;
#SAMPLESTART:9.861000;
#SAMPLELENGTH:11.999994;
#SELECTABLE:YES;
#BPMS:0.000=195.000,
145.500=73.125,
147.000=73.105,
151.500=173.672,
155.000=195.000;
#STOPS:83.000=0.154,
86.500=0.154,
130.000=0.154,
133.500=0.154,
137.000=0.154;
#DELAYS:;
#WARPS:;
#TIMESIGNATURES:0.000=4=4;
#TICKCOUNTS:0.000=4;
#COMBOS:0.000=1;
#SPEEDS:0.000=1.000=0.000=0;
#SCROLLS:0.000=1.000;
#FAKES:;
#LABELS:0.000=Song Start;
#BGCHANGES:-10000.000=songbackground=1.000=0=0=1=====,
0.000=Witch Doctor.avi=1.000=0=0=0=StretchNoLoop====,
99999=-nosongbg-=1.000=0=0=0 // don't automatically add -songbackground-
;
#KEYSOUNDS:;
#ATTACKS:
;

//---------------dance-single - ----------------
#NOTEDATA:;
#CHARTNAME:;
#STEPSTYPE:dance-single;
#DESCRIPTION:;
#CHARTSTYLE:;
#DIFFICULTY:Easy;
#METER:4;
#RADARVALUES:0.307179,0.360661,0.065824,0.087765,0.000000,196.000000,190.000000,6.000000,8.000000,0.000000,0.000000,0.000000,0.000000,0.000000,0.307179,0.360661,0.065824,0.087765,0.000000,196.000000,190.000000,6.000000,8.000000,0.000000,0.000000,0.000000,0.000000,0.000000;
#CREDIT:;
#NOTES:
0000
0000
0000
0000
,
0000
0000
0000
0000
,
0000
0000
0000
0000
,
0000
0000
0000
0000
,
0000
0000
0000
0000
,
0000
0000
0000
0000
,
0000
0000
0000
0000
,
0000
0000
0000
0000
,
0100
0001
0010
0100
,
0010
0001
0100
0000
,
0100
1000
0010
0100
,
0010
1000
0100
0000
,
0010
0001
0100
0010
,
0100
0001
0010
0000
,
0010
1000
0100
0010
,
0100
1000
0010
0000
,
0001
1000
0100
0010
,
0001
0100
0001
0000
,
1000
0001
0100
0010
,
1000
0100
1000
0000
,
0001
0000
1000
0000
0010
0000
0000
1000
,
0000
0001
0000
0010
0000
0000
0010
0000
,
0100
0010
0000
0220
,
0000
0000
0000
0330
0000
0000
0010
0000
,
0000
0000
0000
0001
,
0000
0000
0000
1000
,
0000
0000
0000
0100
,
0000
0000
0000
1000
,
0001
1000
0001
0010
,
0100
0010
0100
1000
,
0001
1000
0001
0010
,
0100
0010
0100
1000
,
0001
0000
0010
0000
0000
0001
0000
1000
,
0000
0010
0000
0000
1000
0000
0001
0000
,
0010
0000
0000
1000
0000
0001
0000
0010
,
0000
0001
0000
1000
0000
0010
0000
0100
,
0000
0001
0000
1001
0000
0000
0000
0000
,
0000
0000
0000
0000
,
0000
0000
0000
0010
,
0010
0001
0100
0001
,
1000
0010
1000
0010
,
0010
1000
0100
1000
,
0001
0010
0001
0010
,
0010
0001
1000
0010
,
0010
1000
0001
0010
,
0010
0001
1000
2002
,
3003
0000
0000
2002
,
3003
0000
0000
2002
,
3003
0000
0000
1000
,
1000
0001
0001
0010
,
0001
0010
0001
0100
,
1000
0100
1000
0010
,
0001
0010
0001
0100
,
1000
0100
1000
0010
,
1000
0010
1000
0100
,
0001
0100
0001
0010
,
1000
0010
1000
0100
,
0001
0100
0001
1000
,
0010
0100
0001
1000
,
0010
0100
0001
1000
,
0100
0001
0100
1000
,
0010
0001
0010
0100
,
0001
1000
0010
0100
,
0001
1000
0010
1000
,
0001
1000
0001
0010
,
0100
0010
0100
1001
;

//---------------dance-single - ----------------
#NOTEDATA:;
#CHARTNAME:;
#STEPSTYPE:dance-single;
#DESCRIPTION:;
#CHARTSTYLE:;
#DIFFICULTY:Medium;
#METER:7;
#RADARVALUES:0.565774,0.622449,0.076795,0.098736,0.000000,361.000000,354.000000,7.000000,9.000000,0.000000,0.000000,0.000000,0.000000,0.000000,0.565774,0.622449,0.076795,0.098736,0.000000,361.000000,354.000000,7.000000,9.000000,0.000000,0.000000,0.000000,0.000000,0.000000;
#CREDIT:;
#NOTES:
0000
0000
0000
0000
,
0000
0000
0000
0000
,
0000
0000
0000
0000
,
0000
0000
0000
0000
,
0000
0000
0000
0000
,
0000
0000
0000
0000
,
0000
0000
0000
0000
,
0000
0000
0000
0000
,
1000
0100
0010
0100
1000
0010
0100
0010
,
1000
0100
0010
0100
1000
0000
1000
0000
,
0001
0100
0010
0100
0001
0010
0100
0010
,
0001
0100
0010
0100
0001
0000
0001
0000
,
1000
0100
0010
0001
0010
1000
0010
0001
,
0100
0010
1000
0100
1000
0000
1000
0000
,
0001
0100
0010
1000
0010
0001
0010
1000
,
0100
0010
0001
0100
0001
0000
0001
0000
,
0010
1000
0001
0100
0010
1000
0100
0001
,
0100
1000
0010
0100
0001
0000
0001
0000
,
0010
0001
1000
0100
0010
0001
0100
1000
,
0100
0001
0010
0100
1000
0000
1000
0000
,
1000
0010
1000
0100
1000
0001
0000
0001
,
0010
0001
0100
0001
1000
0000
1000
0001
,
0100
0000
0001
1000
0100
0000
2002
0000
,
0000
0000
3003
1000
,
1010
0000
0000
0001
,
0011
0000
0000
1000
,
1100
0000
0000
0001
,
0101
0000
0001
1000
0100
0010
0001
0000
,
1000
0001
1000
0001
1000
0001
0010
0000
,
0100
0010
0100
0010
0100
0010
0001
0000
,
1000
0001
1000
0010
1000
0001
0010
0000
,
0100
0010
0100
1000
0100
0010
0001
0000
,
1000
0001
1000
0001
0000
0010
0000
0001
,
1000
0001
1000
0000
0010
0000
1000
0001
,
1000
0001
0000
0010
0000
0001
1000
0001
,
1000
0100
0010
0001
1000
0000
1001
0000
,
1000
0001
0000
2002
0000
0000
0000
0000
,
0000
0000
0000
0000
,
0000
0000
3003
0010
,
0001
0100
0001
1000
0100
1000
0001
0100
,
1000
0001
1000
0100
0001
1000
0010
0000
,
1000
0100
1000
0001
0100
0001
1000
0100
,
0001
1000
0001
0100
1000
0001
0010
0000
,
0001
0100
1000
0001
1000
0100
0001
0000
,
1000
0100
0001
1000
0001
0100
1000
0000
,
0100
1000
0001
0000
0100
0001
2000
0000
,
3000
0000
0000
0002
,
0003
0000
0000
0020
,
0030
0000
0000
0200
,
0300
0000
0000
0000
0000
0000
0001
0100
,
0001
0100
0001
0100
0001
0100
0001
1000
,
0001
1000
0001
1000
0001
1000
0001
0010
,
0001
0010
0001
0010
0001
0010
0100
0010
,
0100
0010
0100
0010
0100
0010
1000
0010
,
1000
0010
1000
0010
1000
0010
1000
0001
,
1000
0001
1000
0001
1000
0001
1000
0100
,
1000
0100
1000
0100
1000
0100
0010
0100
,
0010
0100
0010
0100
0010
0100
0001
0100
,
0001
0100
0001
1000
0001
1000
0001
0010
,
0001
0010
0100
0010
0100
0010
1000
0010
,
1000
0010
1000
0001
1000
0001
1000
0100
,
1000
0100
0010
0100
0010
0100
1000
0100
,
1000
0100
1000
0001
1000
0001
1000
0010
,
1000
0010
0100
0010
0100
0010
0001
0010
,
0001
0010
0001
1000
0001
1000
0001
0100
,
0001
0100
0010
0100
0010
0100
0020
0000
,
0000
0000
0000
0030
;

//---------------dance-single - ----------------
#NOTEDATA:;
#CHARTNAME:;
#STEPSTYPE:dance-single;
#DESCRIPTION:;
#CHARTSTYLE:;
#DIFFICULTY:Hard;
#METER:12;
#RADARVALUES:0.865117,1.009852,0.120678,0.252326,0.592417,552.000000,541.000000,11.000000,23.000000,0.000000,0.000000,0.000000,0.000000,0.000000,0.865117,1.009852,0.120678,0.252326,0.592417,552.000000,541.000000,11.000000,23.000000,0.000000,0.000000,0.000000,0.000000,0.000000;
#CREDIT:;
#NOTES:
0000
0000
0000
0000
,
0000
0000
0000
0000
,
0000
0000
0000
0000
,
0000
0000
0000
0000
,
2000
3001
0200
0301
0020
0031
0200
0301
,
2000
3001
0200
0301
0000
0000
0000
0000
,
0002
1003
0200
1300
0020
1030
0200
1300
,
0002
1003
0200
1300
0000
0000
0000
0000
,
1000
0000
0100
0000
0010
0000
0100
0000
1000
0000
0010
0000
0100
0000
0010
1000
,
0010
0000
1000
0000
0100
0000
0010
0000
0001
0010
0001
0000
1000
0010
1000
0000
,
0001
0000
0100
0000
0010
0000
0100
0000
0001
0000
0010
0000
0100
0000
0010
0001
,
0010
0000
0001
0000
0100
0000
0010
0000
1000
0010
1000
0010
1000
0000
0010
0000
,
1000
0000
0100
0000
0010
0000
0001
0000
0010
0000
1000
0000
0010
0000
0001
0100
,
0001
0000
0010
0000
0100
0000
1000
0000
0001
0010
0001
0000
1000
0010
1000
0000
,
0001
0000
0100
0000
0010
0000
1000
0000
0010
0000
0001
0000
0010
0000
1000
0100
,
1000
0000
0010
0000
0100
0000
0001
0000
1000
0100
1000
0100
1000
0000
0001
0000
,
0010
0000
0001
0000
1000
0000
0100
0000
0010
0000
0001
0000
0100
0000
0001
1000
,
0001
0000
0010
0000
0100
0000
1000
0000
0001
0100
0001
0000
1000
0100
1000
0000
,
0010
0000
1000
0000
0001
0000
0100
0000
0010
0000
1000
0000
0100
0000
1000
0001
,
1000
0000
0010
0000
0100
0000
0001
0000
1000
0010
1000
0010
1000
0000
0010
0000
,
1000
0000
0010
0000
1000
0000
0100
0000
1000
0001
1000
0000
0000
0000
0001
0000
,
0010
0000
0001
0000
0100
0000
0001
1000
0001
0000
0000
0000
1000
0000
0001
0000
,
0100
0000
0001
1000
0100
0000
2002
0000
,
0000
0000
3003
0100
,
0110
0000
0000
0000
1000
0000
0001
0000
1000
0001
1000
0000
0100
0000
0000
0000
,
0110
0000
0000
0000
0001
0000
1000
0000
0001
1000
0001
0000
0100
0000
0000
0000
,
0110
0000
0000
0000
1000
0000
0001
0000
1000
0001
1000
0000
0001
0100
0001
0000
,
1000
0100
1000
0000
0001
1000
0001
1000
0001
1000
0001
0000
1000
0000
0001
0000
,
1000
0000
0001
0000
1000
0000
0001
0000
1000
0000
0001
0010
0100
0000
0010
0000
,
0100
0000
0010
0000
0100
0000
0010
0000
0100
0010
0001
0000
1000
0000
0100
0000
,
1000
0000
0001
0000
1000
0000
0010
0000
1000
0000
0001
0010
0100
0000
1000
0000
,
0100
0000
0010
0000
0100
0000
1000
0000
0100
0000
0010
0001
0010
0000
0001
0000
,
1000
0001
0100
0001
0000
0010
1000
0001
,
1000
0100
1000
0000
0010
0001
1000
0001
,
0100
0000
0001
0000
0000
0000
1000
0010
1000
0000
0001
0010
0001
0000
1000
0100
,
1000
0000
0001
0100
0001
0000
1000
0000
0100
0000
0010
0000
0001
0000
0100
0000
,
0010
1000
0010
2020
0000
0000
0000
0000
,
0000
3030
0200
0000
0000
0000
0300
0022
,
0000
0000
0000
0000
0000
0000
0000
0000
0033
0000
0000
0000
1000
0100
1000
0000
,
0001
0100
0001
0000
1000
0010
1000
0010
1000
0010
1000
0000
0001
0100
0001
0000
,
1000
0100
1000
0000
0001
0010
0001
0010
0001
0010
0001
0000
1010
0000
0001
0000
,
1000
0010
1000
0000
0001
0100
0001
0100
0001
0100
0001
0000
1000
0010
1000
0000
,
0001
0010
0001
0000
1000
0100
1000
0100
1000
0100
1000
0000
0101
0000
1000
0000
,
0001
0100
0001
0000
1000
0010
1000
0010
1000
0010
1000
0000
0011
0000
1000
0000
,
0001
0010
0001
0000
1000
0100
1000
0100
1000
0100
1000
0000
0101
0000
1000
0000
,
0001
0100
0001
0000
1100
0000
0001
0000
1000
0100
1000
0000
0002
0000
1003
0000
,
0000
0000
0000
0000
0000
0000
2000
3001
,
0000
0000
0000
0000
0000
0000
0020
0130
,
0000
0000
0000
0000
0000
0000
0200
0310
,
0001
0100
0001
0000
1000
0100
1000
0100
0010
0001
0010
0100
1000
0000
0001
0000
,
0010
0000
0100
0000
1000
0010
1000
0000
0001
0000
0010
0000
0001
0000
1000
0000
,
0100
0000
1000
0000
0001
0000
0100
0000
0010
1000
0010
0000
0100
0000
0001
0000
,
0010
0000
0100
0000
1000
0000
0010
0000
0100
0000
0001
0000
1000
0000
0001
0100
,
0001
0000
1000
0000
0001
0000
0100
0001
0100
0001
0100
0001
1000
0000
0100
1000
,
0010
0000
0100
0000
0010
0000
0100
0000
0001
0000
0010
0000
0100
1000
0001
0000
,
0100
0000
0010
0000
1000
0000
0010
0000
1000
0010
1000
0000
0001
0010
0001
0000
,
1000
0010
1000
0000
0001
0010
0001
0000
1000
0010
1000
0000
0001
0100
0001
0000
,
1000
0100
1000
0000
0001
0010
0001
0010
0001
0010
0001
0010
0001
0000
1000
0000
,
0010
0000
0100
0000
0001
0010
0001
0000
1000
0000
0010
0000
1000
0000
0001
0000
,
0100
0000
0001
0000
1000
0000
0100
0000
0010
0001
0010
0000
0100
0000
1000
0000
,
0010
0000
0100
0000
0001
0000
0010
0000
0100
0000
1000
0000
0001
0000
1000
0100
,
1000
0000
0001
0000
1000
0000
0100
1000
0100
1000
0100
1000
0001
0000
0100
0001
,
0010
0000
0100
0000
0010
0000
0100
0000
1000
0000
0010
0000
0100
0001
1000
0000
,
0100
0000
0010
0000
0001
0000
0010
0000
0001
0010
0001
0000
1000
0010
1000
0000
,
0001
0010
0001
0000
1000
0010
1000
0000
0001
0010
0001
0000
1000
0100
1000
0000
,
0001
0100
0001
0000
1000
0010
1000
0010
1000
0010
1000
0010
0100
0000
0000
0000
;

//---------------dance-single - ----------------
#NOTEDATA:;
#CHARTNAME:Another;
#STEPSTYPE:dance-single;
#DESCRIPTION:;
#CHARTSTYLE:;
#DIFFICULTY:Challenge;
#METER:15;
#RADARVALUES:0.923105,1.244487,0.208443,0.493681,0.937994,589.000000,570.000000,19.000000,45.000000,0.000000,0.000000,0.000000,0.000000,0.000000,0.923105,1.244487,0.208443,0.493681,0.937994,589.000000,570.000000,19.000000,45.000000,0.000000,0.000000,0.000000,0.000000,0.000000;
#CREDIT:;
#NOTES:
// measure 0
0000
0000
0000
0000
,  // measure 1
0000
0000
0000
0000
,  // measure 2
0200
0000
0000
0000
,  // measure 3
0000
0000
0000
0000
0000
0000
0000
0300
,  // measure 4
2010
0000
0000
0000
0000
0000
0000
3000
,  // measure 5
0100
0012
0000
0000
0000
0000
0000
0003
,  // measure 6
2010
0000
0000
0000
0000
0000
0000
3000
,  // measure 7
0001
0000
0000
0001
0000
0000
0001
0000
0000
2002
0000
0000
0000
0000
3003
0000
,  // measure 8
0100
0000
0001
0000
1000
0010
1000
0000
0200
0000
0300
0000
0010
0000
0001
0100
,  // measure 9
0001
0000
1000
0000
0020
0000
0030
0000
0100
0010
0100
0000
0001
0100
0001
0000
,  // measure 10
1000
0001
0200
0300
0001
1000
0001
0100
,  // measure 11
0010
1000
0000
0000
1010
0000
0000
0000
0010
1000
0010
1000
0100
1000
0100
1000
,  // measure 12
0001
0000
1000
0000
0001
0010
0001
0000
0200
0000
0300
0000
0010
0000
1000
0100
,  // measure 13
1000
0000
0001
0000
0020
0000
0030
0000
0100
0010
0100
0000
1000
0100
1000
0000
,  // measure 14
0001
1000
0200
0300
1000
0001
1000
0100
,  // measure 15
0010
0001
0000
0000
0011
0000
0000
0000
0010
0001
0010
0001
0100
0001
0100
0001
,  // measure 16
1000
0000
0001
0000
0010
0000
0000
0000
0100
1000
0000
0000
0010
0000
0100
0001
,  // measure 17
0100
0000
0010
0000
1000
0000
0100
0000
1000
0100
1000
0000
0001
0010
0001
0000
,  // measure 18
1000
0000
0001
0000
0100
0000
0000
0000
0100
0010
0100
0010
1000
0000
0100
0000
,  // measure 19
1000
0001
0000
0000
0100
0010
0000
0000
1000
0010
0100
0001
1000
0000
0001
0000
,  // measure 20
1001
0000
1000
0000
0001
0010
0100
1000
0001
0010
0001
0000
0000
0000
1001
0000
,  // measure 21
0001
0000
1000
0010
0100
0001
1000
0010
1000
0000
0000
0000
1001
0000
1000
0000
,  // measure 22
0010
1010
0000
0100
1001
0000
0002
0000
,  // measure 23
0000
0000
0003
0010
,  // measure 24
1001
0000
0000
0000
0001
1000
0001
1000
0001
1000
0001
1000
0010
0000
0000
0000
,  // measure 25
1001
0000
0000
0000
1000
0001
1000
0001
1000
0001
1000
0001
0010
0000
0000
0000
,  // measure 26
1001
0000
0000
0000
0001
1000
0001
1000
0001
1000
0001
1000
0001
0010
0100
1000
,  // measure 27
0001
0010
0100
0001
0100
1000
0010
0100
0001
1000
0010
0000
1000
0000
0000
0000
,  // measure 28
0010
0000
0100
0000
0010
1000
0100
1000
0001
0010
0100
1000
0001
0000
0000
0000
,  // measure 29
0010
0000
0100
0000
0010
0001
0100
0001
1000
0010
0100
0001
1000
0000
0000
0000
,  // measure 30
0100
0000
0010
0000
0100
1000
0010
1000
0001
0100
0010
1000
0001
0000
0000
0000
,  // measure 31
0100
0000
0010
0000
0100
0001
0010
0001
1000
0100
0010
0001
1000
0000
0000
1000
,  // measure 32
0000
0000
1000
0000
0100
1000
0010
0100
0001
0000
0001
0000
0000
0001
0000
0000
,  // measure 33
0001
0000
0100
0001
0010
0100
1000
0000
1000
0000
0000
1000
0000
0000
1000
0100
,  // measure 34
1000
0010
0100
0001
0000
0000
0001
0010
0001
0000
1000
0010
1000
0000
0001
0100
,  // measure 35
0001
0000
1000
0100
1000
0000
1100
0000
0000
0000
0000
0000
0011
0000
0000
0000
,  // measure 36
1001
0110
0000
2002
0000
0000
0000
0000
,  // measure 37
0000
0000
0000
0000
0000
0000
0000
0003
,  // measure 38
0000
0000
0000
0000
0000
0000
0000
0000
3000
0000
0000
0000
0100
1000
0100
1000
,  // measure 39
0100
1000
0100
1000
0100
1000
0100
1000
0100
1000
0100
1000
0100
1000
0100
1000
,  // measure 40
0100
1000
0100
1000
0100
1000
0100
1000
0100
1000
0100
1000
0001
1000
0100
1000
,  // measure 41
0100
1000
0100
1000
0100
1000
0100
1000
0100
1000
0100
1000
0100
1000
0100
1000
,  // measure 42
0100
1000
0100
1000
0100
1000
0100
1000
0100
1000
0100
1000
0001
1000
0100
1000
,  // measure 43
0100
1000
0100
1000
0100
1000
0100
1000
0100
1000
0100
1000
0001
1000
0100
1000
,  // measure 44
0100
1000
0100
1000
0100
1000
0100
1000
0100
1000
0100
1000
0001
1000
0100
1000
,  // measure 45
0100
1000
0100
1000
0001
1000
0100
1000
0100
1000
0100
1000
0002
0000
0100
0000
,  // measure 46
0000
0100
0000
0100
0100
0103
1000
0020
,  // measure 47
0000
0100
0000
0100
0100
0130
0002
0100
,  // measure 48
0000
0100
0000
0100
0100
0103
2000
0010
,  // measure 49
0010
3010
0200
0001
0001
0301
0010
0001
,  // measure 50
0100
0000
0010
0000
0001
0000
1000
0001
0010
0000
0100
0001
1000
0000
0010
0000
,  // measure 51
1000
0000
0100
0000
0010
0000
0001
0010
0100
0000
0010
0001
0100
0000
0010
0000
,  // measure 52
0001
0000
0010
0000
0100
0000
0010
1000
0010
0000
0001
0010
0100
0000
0001
0000
,  // measure 53
0010
0000
1000
0000
0010
0000
0001
1000
0010
0000
0100
0000
0010
0000
1000
0000
,  // measure 54
0100
0000
0010
0000
1000
0000
0001
1000
0010
0000
0100
1000
0001
0000
0010
0000
,  // measure 55
0001
0000
0100
0000
0010
0000
1000
0010
0100
0000
0010
1000
0100
0000
0010
0000
,  // measure 56
1000
0000
0010
0000
0100
0000
0010
0001
0010
0000
1000
0010
0100
0000
1000
0000
,  // measure 57
0010
0000
0001
0000
0010
0000
1000
0001
0010
0000
0100
0000
2000
0000
3010
0000
,  // measure 58
0002
0000
1003
0000
0002
0000
0013
0010
0100
0000
1000
1000
0002
0000
0013
0000
,  // measure 59
2000
0000
3001
0000
2000
0000
3010
0010
0100
0000
0001
0001
2000
0000
3010
0000
,  // measure 60
0002
0000
0013
0000
0200
0000
1300
1000
0001
0000
0010
0010
0002
0000
0103
0000
,  // measure 61
2000
0000
3010
0000
0200
0000
0301
0001
0100
0000
0010
0010
2000
0000
3100
0000
,  // measure 62
0002
0000
0103
0000
0020
0000
1030
1000
0001
0000
0100
0100
0002
0000
0013
0000
,  // measure 63
2000
0000
3100
0000
0020
0000
0031
0001
1000
0000
0100
0100
2000
0000
3010
0000
,  // measure 64
0002
0000
0013
0000
0200
0000
1300
1000
0100
0000
0010
0010
0002
0000
0103
0000
,  // measure 65
2000
0000
3010
0000
0200
0000
0301
0001
0100
0000
0010
0010
2000
0000
0000
0000
,  // measure 66
0000
0000
0000
0000
,  // measure 67
0000
0000
0000
0000
,  // measure 68
0000
0000
0000
3000
;
