#TITLE:Winter;
#SUBTITLE:;
#ARTIST:BanYa;
#TITLETRANSLIT:;
#SUBTITLETRANSLIT:;
#ARTISTTRANSLIT:;
#GENRE:Classical Crossover;
#CREDIT:;
#BANNER:Winter ver2.png;
#BACKGROUND:Winter-bg ver2.png;
#LYRICSPATH:;
#CDTITLE:;
#MUSIC:Winter ver2.ogg;
#OFFSET:0.004000;
#SAMPLESTART:32.855999;
#SAMPLELENGTH:18.000000;
#SELECTABLE:YES;
#BPMS:0.000000=168.000000
;
#STOPS:
;
#BGCHANGES:-10000.000=songbackground=1.000=0=0=1=====,
0.000=Winter.avi=1.000=0=0=0=StretchNoLoop====,
0.004=Winter.avi=1.000=1=0=1===CrossFade==,
99999=-nosongbg-=1.000=0=0=0 // don't automatically add -songbackground-
;
#KEYSOUNDS:;
#ATTACKS:;

//---------------dance-single - ----------------
#NOTES:
     dance-single:
     :
     Hard:
     6:
     0.561196,0.630397,0.153360,0.000000,0.000000,320.000000,13.000000,0.000000,0.000000,0.000000,0.000000,0.561196,0.630397,0.153360,0.000000,0.000000,320.000000,13.000000,0.000000,0.000000,0.000000,0.000000:
// measure 0
0000
0000
0000
0000
,  // measure 1
0000
0000
0000
0000
,  // measure 2
0000
0000
0000
0000
,  // measure 3
0000
0000
0000
0000
,  // measure 4
0000
0000
0000
0000
,  // measure 5
0000
0000
0000
0000
,  // measure 6
0000
0000
0000
0000
,  // measure 7
1000
0001
0010
0100
1000
0001
1000
0100
,  // measure 8
0010
0001
0100
1000
0100
0001
1000
0100
,  // measure 9
0001
0100
1000
0100
1000
0001
0100
0001
,  // measure 10
0101
0010
1001
0100
,  // measure 11
1010
0100
1001
0010
,  // measure 12
0001
0001
1000
1000
0001
0100
0010
0100
,  // measure 13
0001
1000
0100
0010
0100
1000
0010
0100
,  // measure 14
0001
0100
0010
1000
0001
0100
0010
1000
,  // measure 15
0100
1000
0001
0100
,  // measure 16
0001
0100
0001
0100
0001
0100
0001
0100
,  // measure 17
1000
0100
0001
0100
1000
0100
0001
0100
,  // measure 18
0001
0010
0100
1000
0001
0010
0100
1000
,  // measure 19
0001
0100
0010
1000
0100
0010
0001
0100
,  // measure 20
0010
1000
0100
0010
0001
0100
0010
1000
,  // measure 21
0001
1000
0010
0100
0001
0010
0100
1000
,  // measure 22
0010
0100
0001
0010
0100
1000
0010
0100
,  // measure 23
0001
0000
0000
0000
,  // measure 24
0011
0100
1001
0010
1100
0001
0110
1000
,  // measure 25
0001
0000
0000
0000
,  // measure 26
0010
0100
0001
1000
0001
0100
0010
0100
,  // measure 27
0001
0000
0000
0000
,  // measure 28
1100
0100
1000
0001
0101
0001
1000
0001
,  // measure 29
0100
0000
0000
0000
,  // measure 30
0110
0100
1000
0010
0110
0010
1000
0010
,  // measure 31
1000
0100
1000
0100
1000
0100
1000
0100
,  // measure 32
0010
0001
0010
0001
0010
0001
0010
0001
,  // measure 33
0100
0000
0000
0000
1000
0100
0010
0001
,  // measure 34
0010
0100
1000
0010
0001
0010
0100
1000
,  // measure 35
0100
0001
0100
0010
1000
0010
0001
0010
,  // measure 36
1000
0000
0000
0000
0010
1000
0100
1000
,  // measure 37
0010
0100
0001
0010
0001
0010
0100
1000
,  // measure 38
0001
0010
0100
1000
0001
1000
0010
0100
,  // measure 39
0001
0000
0000
0000
1000
0001
0100
0010
,  // measure 40
0100
0010
1000
0100
0010
0100
1000
0010
,  // measure 41
1000
0100
0010
0001
1000
0100
0010
0001
,  // measure 42
0010
0001
0100
0001
1000
0001
0100
0010
,  // measure 43
1000
0100
0010
0001
1000
0010
1000
0010
,  // measure 44
1000
0001
0100
0010
1000
0100
1000
0100
,  // measure 45
1000
0010
0100
0001
,  // measure 46
0100
0001
0100
0001
1000
0010
1000
0010
,  // measure 47
1000
0001
0100
0010
1000
0001
0100
0010
,  // measure 48
0100
0000
0000
0000
,  // measure 49
0010
0100
0001
1000
0010
0100
0001
1000
,  // measure 50
0100
0000
0000
0000
,  // measure 51
0100
1000
0001
0100
0001
0010
0100
1000
,  // measure 52
0001
0000
0000
0000
,  // measure 53
0010
0001
0010
0001
1000
0010
1000
0010
,  // measure 54
1000
0001
0100
0010
1000
0001
0100
0001
,  // measure 55
0010
0100
1000
0010
0100
0001
1000
0001
,  // measure 56
0100
1001
0000
0000
;

//---------------dance-single - ----------------
#NOTES:
     dance-single:
     :
     Challenge:
     11:
     0.817357,1.000000,0.153360,0.000000,0.725510,472.000000,13.000000,0.000000,0.000000,0.000000,0.000000,0.817357,1.000000,0.153360,0.000000,0.725510,472.000000,13.000000,0.000000,0.000000,0.000000,0.000000:
0000
0000
0000
0000
,
0000
0000
0000
0000
,
0000
0000
0000
0000
,
0000
0000
0000
0000
,
0000
0000
0000
0000
,
0000
0000
0000
0000
,
0000
0000
0000
0000
,
1000
0001
0010
0100
1000
0001
1000
0100
,
0010
0001
0100
1000
0100
0001
1000
0100
,
0001
0100
1000
0100
1000
0001
0100
0001
,
0101
0010
1001
0100
,
1010
0100
1001
0010
,
0001
0001
1000
1000
0001
0100
0010
0100
,
0001
1000
0100
0010
0100
1000
0010
0100
,
0001
0100
0001
0100
0010
1000
0010
1000
0001
1000
0001
1000
0100
0010
0001
1000
,
0100
1000
0001
0100
,
0001
0100
0001
0100
0001
0100
0001
0100
,
1000
0100
0001
0100
1000
0100
0001
0100
,
0001
0010
0100
1000
0001
0010
0100
1000
,
0001
0100
0010
1000
0100
0010
0001
0100
,
0010
1000
0100
0010
0001
0100
0010
1000
,
0001
1000
0010
0100
0001
0010
0100
1000
,
0010
0100
0001
0010
0100
1000
0010
0100
,
0001
0000
1000
0010
1000
0000
0001
0000
0010
0000
0001
0000
0010
0000
0001
0000
,
0011
0100
1001
0010
1100
0001
0110
1000
,
0001
0000
0001
1000
0001
0000
0100
0000
0010
0000
1000
0000
0001
0000
0100
0000
,
0010
0100
0001
1000
0001
0100
0010
0100
,
0001
0000
1000
0100
1000
0000
0001
0000
0100
0000
0010
0000
1000
0000
0100
0000
,
1100
0100
1000
0001
0101
0001
1000
0001
,
0100
0000
0001
0100
0001
0000
0100
0000
0010
0000
1000
0000
0100
0000
0010
0000
,
0110
0100
1000
0010
0110
0010
1000
0010
,
1000
0001
1000
0001
1000
0001
1000
0001
1000
0100
1000
0100
0010
0100
0010
0100
,
0010
0001
0010
0001
0010
0001
0010
0001
1000
0001
1000
0001
0010
0000
0001
0000
,
0100
0000
0000
0000
0000
0000
1000
0100
1000
0000
0010
1000
0010
0000
1000
0001
,
0100
0000
0100
0001
1000
0000
0010
1000
0001
0000
1000
0001
0100
0000
0001
0000
,
1000
0100
1000
0001
0100
0001
0010
0100
1000
0001
0010
0001
1000
0001
0100
0010
,
1000
0000
0000
0000
0000
0000
0001
0010
0001
0000
0100
0001
0100
0000
0001
0100
,
0010
0000
1000
0001
0010
0000
0001
1000
0100
0000
0100
1000
0001
0000
1000
0000
,
0001
0010
0001
0010
0100
1000
0100
1000
0001
0100
0010
1000
0010
1000
0100
1000
,
0001
0000
0000
0000
0000
0000
0100
0001
1000
0000
0001
0000
0100
0000
0010
0000
,
0100
0010
1000
0100
0010
0100
1000
0010
,
1000
0100
0010
0001
1000
0100
0010
0001
,
0010
0001
0010
0001
1000
0100
1000
0100
1000
0001
1000
0001
0100
0001
0100
0010
,
1000
0001
1000
0001
1000
0010
1000
0010
0100
0010
0100
0001
1000
0001
0100
0001
,
1000
0010
1000
0001
0010
0001
1000
0010
1000
0001
1000
0001
0100
0001
0100
0001
,
1000
0010
0100
0001
,
0100
0001
0100
0001
1000
0010
1000
0010
,
1000
0001
0100
0001
0100
0001
0100
0010
1000
0010
0100
0001
0100
0001
1000
0010
,
0100
0000
0000
0000
,
0001
1000
0100
0010
0001
1000
0100
0010
0100
0010
0001
0100
0001
1000
0100
0010
,
0100
0000
0000
0000
,
0100
1000
0001
0100
0001
0010
0100
1000
0001
0010
0001
1000
0010
1000
0001
0010
,
0001
0000
0000
0000
,
0010
0001
0010
0001
1000
0010
1000
0010
1000
0001
1000
0001
0100
0000
0000
0000
,
0100
0001
1000
0001
0100
0010
1000
0100
1000
0001
1000
0001
0010
0000
0000
0000
,
0001
1000
0001
0010
0001
0010
1000
0010
0100
0010
0001
0100
0010
1000
0100
1000
,
0100
1001
0000
0000
;

//---------------dance-single - ----------------
#NOTES:
     dance-single:
     :
     Medium:
     4:
     0.490414,0.564040,0.212344,0.070781,0.000000,267.000000,18.000000,6.000000,0.000000,0.000000,0.000000,0.490414,0.564040,0.212344,0.070781,0.000000,267.000000,18.000000,6.000000,0.000000,0.000000,0.000000:
0000
0000
0000
0000
,
0000
0000
0000
0000
,
0000
0000
0000
0000
,
0000
0000
0000
0000
,
0000
0000
0000
0000
,
0000
0000
0000
0000
,
0000
0000
0000
0000
,
0001
0000
0010
0000
,
0100
0000
1000
0000
,
0001
0010
0100
1000
,
1001
0100
0011
0100
,
1001
0100
1010
0100
,
1000
0000
0010
0100
0000
0001
0010
0100
,
1000
0000
0010
0100
0000
0001
0010
0100
,
1000
0100
1000
0100
0010
0001
0010
0001
,
0200
0000
0000
0300
,
0001
0011
1000
1010
,
0001
0000
0011
0000
1000
0010
1000
0010
,
1000
0010
0100
0001
1000
0010
0100
0001
,
1000
0010
1000
0001
0100
0001
1000
0010
,
1000
0010
0100
0001
1000
0010
0100
0001
,
1000
0010
1000
0010
1000
0001
1000
0001
,
0100
0010
1000
0001
0010
0001
1000
0010
,
0100
0000
0000
0000
,
0110
1001
0110
1000
,
0101
0000
0000
0000
,
1001
0110
1001
0010
,
1100
0000
0000
0000
,
1000
0001
0100
0010
1000
0100
0010
0001
,
0100
0000
0000
0000
,
0001
1000
0100
0010
0001
0100
0010
1000
,
0001
0010
0100
0000
1000
0010
0100
0000
,
0001
0010
0100
1000
0010
0100
0001
1000
,
0100
0000
0000
0000
1000
0100
1000
0001
,
1000
0100
1000
0001
1000
0100
1000
0001
,
0010
0100
1000
0001
0100
0010
1000
0100
,
1000
0000
0000
0000
0001
0100
0001
1000
,
0001
0100
0001
1000
0001
0100
0001
1000
,
0010
0100
0001
1000
0100
0010
0001
0100
,
0001
0000
0000
0000
1000
0100
1000
0001
,
1000
0100
1000
0001
0100
0001
1000
0001
,
0100
0001
1000
0100
0010
0001
0100
0001
,
1000
0000
1001
0000
1000
0001
0100
0010
,
1000
0000
1001
0000
1000
0010
0100
0001
,
1000
0001
0010
0100
1000
0100
0010
0001
,
0200
0000
0000
0300
,
0002
0000
0000
0003
,
1000
0010
0100
0001
1000
0001
0100
0010
,
2000
0000
0000
3000
,
0001
0010
0100
1000
0001
1000
0100
0010
,
0002
0000
0000
0003
,
1000
0001
0100
0010
1000
0010
0100
0001
,
2000
0000
0000
3000
,
0001
1000
0100
0010
0001
0010
0100
1000
,
0010
1000
0001
0100
0010
1000
0001
0010
,
0100
1000
0001
0100
0010
1000
0100
1000
,
0001
1001
0000
0000
;

//---------------dance-single - ----------------
#NOTES:
     dance-single:
     :
     Easy:
     3:
     0.274699,0.331788,0.188750,0.023594,0.000000,145.000000,16.000000,2.000000,0.000000,0.000000,0.000000,0.274699,0.331788,0.188750,0.023594,0.000000,145.000000,16.000000,2.000000,0.000000,0.000000,0.000000:
0000
0000
0000
0000
,
0000
0000
0000
0000
,
0000
0000
0000
0000
,
0000
0000
0000
0000
,
0000
0000
0000
0000
,
0000
0000
0000
0000
,
0000
0000
0000
0000
,
0001
0000
0010
0000
,
0001
0000
0010
0000
,
0001
0010
0001
0010
,
0011
0000
0011
0000
,
0011
0000
0011
0000
,
0100
0000
1000
0000
,
0100
0000
1000
0000
,
0100
1000
0100
1000
,
2200
0000
3300
0000
,
0100
0000
1000
0000
,
0001
0000
0010
0000
,
0100
1000
0100
1000
,
0001
0010
0001
0010
,
0100
1000
0100
1000
,
0001
0010
0001
0010
,
0100
1000
0001
0010
,
0011
0000
0000
0000
,
0011
0001
1000
0100
,
1100
0000
0000
0000
,
1100
1000
0001
0010
,
0011
0000
0000
0000
,
1001
0001
1000
0100
,
0110
0000
0000
0000
,
0110
0010
0100
1000
,
1001
0000
1000
0000
,
0001
0000
0010
0000
,
0100
0000
1000
0100
,
1000
0100
0010
0001
,
1000
0100
1000
0010
,
1000
0000
0010
1000
,
0010
1000
0001
0100
,
0010
1000
0001
1000
,
0100
0000
0010
0001
,
0010
0001
1000
0100
,
1000
0010
0100
0001
,
1000
0100
0010
0010
,
0001
1000
0100
0100
,
1000
0100
0010
0001
,
0100
0000
0000
0000
,
1001
0000
0000
0000
,
0001
1000
0001
1000
,
0100
0000
0000
0000
,
0010
0100
0010
0100
,
1000
0000
0000
0000
,
0100
0010
0100
0010
,
0001
0000
0000
0000
,
1000
0001
1000
0001
,
0010
0100
0010
0100
,
1000
0001
0010
0100
,
1000
1001
0000
0000
;
