#VERSION:0.81;
#TITLE:Windmill;
#SUBTITLE:;
#ARTIST:Yak Won;
#TITLETRANSLIT:;
#SUBTITLETRANSLIT:;
#ARTISTTRANSLIT:;
#GENRE:;
#ORIGIN:;
#CREDIT:;
#BANNER:windmill-bn.jpg;
#BACKGROUND:windmill-bg.jpg;
#PREVIEWVID:;
#JACKET:;
#CDIMAGE:;
#DISCIMAGE:;
#LYRICSPATH:;
#CDTITLE:;
#MUSIC:Windmill.mp3;
#OFFSET:-0.174688;
#SAMPLESTART:7.030019;
#SAMPLELENGTH:12.000000;
#SELECTABLE:YES;
#BPMS:0.000=246.001;
#STOPS:;
#DELAYS:;
#WARPS:;
#TIMESIGNATURES:0.000=4=4;
#TICKCOUNTS:0.000=4;
#COMBOS:0.000=1;
#SPEEDS:0.000=1.000=0.000=0;
#SCROLLS:0.000=1.000;
#FAKES:;
#LABELS:0.000=Song Start;
#BGCHANGES:1.500=Windmill.avi=1.000=0=0=0=StretchNoLoop====,
99999=-nosongbg-=1.000=0=0=0 // don't automatically add -songbackground-
;
#KEYSOUNDS:;
#ATTACKS:
;

//---------------dance-single - ----------------
#NOTEDATA:;
#CHARTNAME:;
#STEPSTYPE:dance-single;
#DESCRIPTION:;
#CHARTSTYLE:;
#DIFFICULTY:Easy;
#METER:6;
#RADARVALUES:0.567805,0.705421,0.153659,0.645366,0.005122,310.000000,15.000000,63.000000,0.000000,0.000000,0.000000,0.000000,0.000000,0.567805,0.705421,0.153659,0.645366,0.005122,310.000000,15.000000,63.000000,0.000000,0.000000,0.000000,0.000000,0.000000;
#CREDIT:;
#NOTES:
// measure 0
0000
0000
0000
0000
,  // measure 1
0000
0000
0000
0000
,  // measure 2
0000
0000
0000
0000
,  // measure 3
0000
0000
0000
0000
,  // measure 4
0000
0000
0000
0000
,  // measure 5
0000
0000
0000
0000
,  // measure 6
0000
0000
0000
0000
,  // measure 7
0001
0001
0001
1000
,  // measure 8
1000
1000
0200
0320
,  // measure 9
0032
0203
0320
2030
,  // measure 10
3100
0100
0100
0010
,  // measure 11
0010
0010
0002
0203
,  // measure 12
0320
2030
3200
0320
,  // measure 13
0031
0001
0001
0100
,  // measure 14
0100
0100
0020
2030
,  // measure 15
3200
0320
0032
0203
,  // measure 16
0301
0001
0001
0010
,  // measure 17
0010
0010
0100
0000
,  // measure 18
0100
1001
0000
0000
,  // measure 19
0000
0000
0000
0000
,  // measure 20
0000
0000
1000
0001
,  // measure 21
1000
0010
0100
0010
,  // measure 22
1000
0001
1000
0010
,  // measure 23
0001
0010
1000
0100
,  // measure 24
1000
0001
0100
0001
,  // measure 25
1000
0001
1000
0100
,  // measure 26
0100
0100
1000
0010
,  // measure 27
1000
0001
0010
0001
,  // measure 28
1000
0001
1000
0010
,  // measure 29
0010
0010
0100
0001
,  // measure 30
0010
0100
1000
0010
,  // measure 31
1000
0001
0100
0010
,  // measure 32
0110
0000
0000
0000
0000
0000
0000
0000
0200
0000
0000
0000
0000
0000
0000
0300
,  // measure 33
0020
0000
0000
0030
2000
0000
0000
0000
0000
0000
0000
3000
0002
0000
0000
0003
,  // measure 34
0200
0000
0300
0001
,  // measure 35
0001
0000
0000
0000
0001
0000
0000
0000
2000
0000
0000
0000
0000
0000
0000
3000
,  // measure 36
0002
0000
0000
0003
0200
0000
0000
0000
0000
0000
0000
0300
0020
0000
0000
0030
,  // measure 37
2000
0000
0000
0000
0000
0000
0000
3000
0002
0000
0000
0003
0100
0000
0000
0000
,  // measure 38
0100
0000
0000
0000
0100
0000
0000
0000
0020
0000
0000
0000
0000
0000
0000
0030
,  // measure 39
0200
0000
0000
0300
0002
0000
0000
0000
0000
0000
0000
0003
2000
0000
0000
3000
,  // measure 40
0020
0000
0000
2000
,  // measure 41
0030
3000
0200
0320
,  // measure 42
0032
0203
0320
2030
,  // measure 43
3200
0000
0310
0100
,  // measure 44
0110
0000
1000
0010
,  // measure 45
1000
0001
0010
0001
,  // measure 46
1000
0100
1000
0001
,  // measure 47
0100
0001
0010
0100
,  // measure 48
0010
0001
1000
0001
,  // measure 49
1000
0010
1000
0100
,  // measure 50
0001
0100
0010
0001
,  // measure 51
0010
0001
1000
0001
,  // measure 52
1000
0010
1000
0001
,  // measure 53
0100
0001
0010
0001
,  // measure 54
0100
0010
1000
0100
,  // measure 55
0010
0001
0010
0100
,  // measure 56
1001
0000
0001
1000
,  // measure 57
0001
0100
0010
0100
,  // measure 58
0001
0000
0001
0101
,  // measure 59
0000
0000
1000
0001
,  // measure 60
1000
0010
0100
0010
,  // measure 61
1000
0000
1000
1010
,  // measure 62
0000
0000
0001
1000
,  // measure 63
0100
1000
0001
0100
,  // measure 64
0001
0000
1000
1010
,  // measure 65
0000
0000
1000
0001
,  // measure 66
0010
0001
1000
0010
,  // measure 67
1010
0000
0100
2002
,  // measure 68
0000
3003
0001
0010
,  // measure 69
0001
1000
0100
1000
,  // measure 70
0001
0010
0001
0100
,  // measure 71
0100
0100
0010
1000
,  // measure 72
0010
0100
0001
0100
,  // measure 73
0010
1000
0010
0100
,  // measure 74
0100
0100
0001
0010
,  // measure 75
0001
1000
0100
1000
,  // measure 76
0001
0100
0001
1000
,  // measure 77
0010
1000
0001
0010
,  // measure 78
0100
1000
0010
0100
,  // measure 79
0001
0000
1000
0100
,  // measure 80
1001
0000
1000
1000
,  // measure 81
1000
0001
0001
0001
,  // measure 82
0200
0320
2030
3200
,  // measure 83
0320
0032
0103
0100
,  // measure 84
0100
0010
0010
0010
,  // measure 85
2000
3200
0320
0032
,  // measure 86
0203
0320
1030
1000
,  // measure 87
1000
0100
0100
0100
,  // measure 88
0020
0032
0203
0320
,  // measure 89
2030
3200
1300
1000
,  // measure 90
1000
0010
0010
0010
,  // measure 91
0100
0000
0001
1000
,  // measure 92
1100
0000
0001
1000
,  // measure 93
0001
0100
0010
0100
,  // measure 94
0101
0000
0000
1100
,  // measure 95
0000
0000
0000
0000
0000
0101
0000
0000
0000
0000
0000
0000
0000
0000
0000
0000
0000
0000
0000
0000
0000
0000
0000
0000
,  // measure 96
1020
0000
0000
0000
,  // measure 97
0000
0000
0000
0000
,  // measure 98
0000
0000
0000
0030
0000
0000
0000
0000
;

//---------------dance-single - ----------------
#NOTEDATA:;
#CHARTNAME:;
#STEPSTYPE:dance-single;
#DESCRIPTION:;
#CHARTSTYLE:;
#DIFFICULTY:Medium;
#METER:10;
#RADARVALUES:0.722927,0.856583,0.266342,0.399512,0.250976,429.000000,26.000000,39.000000,0.000000,0.000000,0.000000,0.000000,0.000000,0.722927,0.856583,0.266342,0.399512,0.250976,429.000000,26.000000,39.000000,0.000000,0.000000,0.000000,0.000000,0.000000;
#CREDIT:;
#NOTES:
// measure 0
0000
0000
0000
0000
,  // measure 1
0000
0000
0000
0000
,  // measure 2
0000
0000
0000
0000
,  // measure 3
0000
0000
0000
0000
,  // measure 4
0000
0000
0000
0000
,  // measure 5
0000
0000
0000
0000
,  // measure 6
0000
0000
0000
0000
,  // measure 7
0001
0010
0001
1000
,  // measure 8
0010
0000
0000
1000
0000
0000
0001
0000
0010
0001
0000
1000
,  // measure 9
0010
0000
1000
0001
0000
0010
0001
0000
1000
0010
0000
1000
,  // measure 10
0001
0100
0001
1000
,  // measure 11
0100
0000
0000
1000
0000
0000
0001
0000
0100
0001
0000
1000
,  // measure 12
0100
0000
1000
0001
0000
0100
0001
0000
1000
0100
0000
1000
,  // measure 13
0001
0010
0001
1000
,  // measure 14
0100
0000
0000
1000
0000
0000
0001
0000
0010
0001
0000
1000
,  // measure 15
0100
0000
1000
0001
0000
0010
0001
0000
1000
0100
0000
1000
,  // measure 16
0001
1000
0001
0100
,  // measure 17
0010
0100
0001
0000
,  // measure 18
0001
0110
0000
0000
,  // measure 19
0000
0000
0000
0000
,  // measure 20
0000
0000
0000
0000
1000
0001
1000
0001
,  // measure 21
1000
0001
0100
0001
0100
0001
0100
0001
,  // measure 22
1000
0100
1000
0100
1000
0100
1000
0001
,  // measure 23
1000
0001
1000
0001
0010
0100
0010
0100
,  // measure 24
0010
0100
0010
0001
0010
0001
0010
0001
,  // measure 25
1000
0010
1000
0010
1000
0020
0200
0000
,  // measure 26
0330
0000
0000
0000
0010
0100
0010
0100
,  // measure 27
0010
0100
0001
0010
0001
0010
0001
0010
,  // measure 28
0100
1000
0100
1000
0100
1000
0002
0003
,  // measure 29
2000
3000
0002
0003
0010
0100
0010
0100
,  // measure 30
0010
0100
1000
0010
1000
0010
1000
0010
,  // measure 31
0100
0001
0100
0001
0100
0001
1000
0000
,  // measure 32
0220
0330
2100
0000
,  // measure 33
0020
3000
0000
0030
2000
0000
0000
0000
0000
0000
0000
3000
0002
0000
0000
0003
,  // measure 34
0200
0000
0300
0101
,  // measure 35
0011
0000
0000
0000
0101
0000
0000
0000
1002
0000
0000
0000
0000
0000
0000
0003
,  // measure 36
0020
0000
0000
0030
0002
0000
0000
0000
0000
0000
0000
0003
0200
0000
0000
0300
,  // measure 37
0002
0000
0000
0000
0000
0000
0000
0000
0000
0000
0000
0000
2003
0000
0000
3000
0000
0000
0100
0000
0000
0000
1000
0000
,  // measure 38
0010
0000
1000
0100
0000
1000
0002
0000
0000
0000
0000
0003
,  // measure 39
0020
0000
0000
0000
0000
0000
0000
0000
0000
0030
0000
0000
0200
0000
0000
0000
0000
0000
0000
0000
0000
0000
0000
0000
0000
0000
0000
0000
0000
0000
0000
0000
0300
0000
0000
0000
2000
0000
0000
0000
0000
0000
0000
0000
3000
0000
0000
0000
,  // measure 40
0002
0000
0000
2000
,  // measure 41
0003
3000
0002
0023
,  // measure 42
0230
2300
3020
0230
,  // measure 43
0302
0000
0000
0003
0010
0000
0011
0000
,  // measure 44
1001
0000
1000
1000
,  // measure 45
1000
0010
0010
0010
,  // measure 46
0100
0100
0100
0001
,  // measure 47
0001
0001
1000
1000
,  // measure 48
1000
0001
0001
0001
,  // measure 49
0010
0010
0010
0001
,  // measure 50
0001
0001
1000
1000
,  // measure 51
1000
0100
0100
0100
,  // measure 52
1000
1000
1000
0010
,  // measure 53
0010
0010
0100
0100
,  // measure 54
0100
0001
0001
0001
,  // measure 55
0010
0010
0010
0011
,  // measure 56
1001
0000
0001
1000
,  // measure 57
0001
0100
0010
0100
,  // measure 58
0101
0000
0100
1001
,  // measure 59
0000
0000
1000
0001
,  // measure 60
1000
0010
0100
0010
,  // measure 61
1010
0000
0010
1001
,  // measure 62
0000
0000
0010
0001
,  // measure 63
0100
0010
1000
0100
,  // measure 64
1100
0000
0100
1001
,  // measure 65
0000
0000
0100
1000
,  // measure 66
0010
0100
0001
0010
,  // measure 67
0011
0000
0100
2002
,  // measure 68
0000
0000
3003
0000
0001
1000
0001
1000
,  // measure 69
0001
1000
0010
1000
0010
1000
0010
1000
,  // measure 70
0010
0100
0010
0100
0010
0100
0001
0000
,  // measure 71
0001
0000
0001
0000
1000
0001
1000
0001
,  // measure 72
1000
0001
0010
0001
0010
0001
0010
0001
,  // measure 73
0010
0000
0000
0100
0000
0000
0010
0000
0000
0100
0000
0000
0010
0000
0000
0100
0000
0000
1000
0000
0000
0000
0010
0000
,  // measure 74
0100
0000
0000
0000
0001
0000
0010
0000
0000
0000
0100
0000
1000
0000
0000
0010
0000
0000
1000
0000
0000
0010
0000
0000
,  // measure 75
1000
0010
0100
0001
0100
0001
0100
0001
,  // measure 76
0010
0000
0000
0001
0000
0000
0010
0000
0000
0001
0000
0000
0010
0000
0000
0001
0000
0000
0010
0000
0000
0000
0001
0000
,  // measure 77
0100
0000
0000
0000
0010
0000
1000
0000
0000
0000
0100
0000
0010
0000
0000
0100
0000
0000
0010
0000
0000
0100
0000
0000
,  // measure 78
0010
0100
1000
0001
1000
0001
1000
0001
,  // measure 79
1000
0000
0100
0010
0000
0001
0100
0000
0010
1000
0000
0000
,  // measure 80
1001
0000
1000
0010
,  // measure 81
1000
0001
0010
0001
,  // measure 82
1000
0000
0010
1000
0000
0001
0010
0000
0001
1000
0000
0010
,  // measure 83
1000
0000
0001
0010
0000
0001
1000
0000
0000
0100
0000
0000
,  // measure 84
1000
0001
0100
0001
,  // measure 85
1000
0000
0100
1000
0000
0001
0100
0000
0001
1000
0000
0100
,  // measure 86
1000
0000
0001
0100
0000
0001
1000
0000
0000
0010
0000
0000
,  // measure 87
1000
0001
0100
0001
,  // measure 88
1000
0000
0010
1000
0000
0001
0100
0000
0001
1000
0000
0010
,  // measure 89
1000
0000
0001
0100
0000
0001
1000
0000
0000
1000
0000
0000
,  // measure 90
1000
0001
0001
0001
,  // measure 91
1001
0000
1010
0002
,  // measure 92
0200
0303
0100
0100
,  // measure 93
0100
0010
0010
0010
,  // measure 94
2010
0000
3000
1002
,  // measure 95
0003
0000
0210
0000
0000
0000
0000
0000
0000
0300
0000
0000
,  // measure 96
0102
0000
0000
0000
,  // measure 97
0000
0000
0000
0000
,  // measure 98
0000
0000
0000
0003
0000
0000
0000
0000
;

//---------------dance-single - ----------------
#NOTEDATA:;
#CHARTNAME:;
#STEPSTYPE:dance-single;
#DESCRIPTION:;
#CHARTSTYLE:;
#DIFFICULTY:Hard;
#METER:13;
#RADARVALUES:0.861952,0.856583,0.686342,0.409756,0.302195,482.000000,67.000000,40.000000,0.000000,0.000000,0.000000,0.000000,0.000000,0.861952,0.856583,0.686342,0.409756,0.302195,482.000000,67.000000,40.000000,0.000000,0.000000,0.000000,0.000000,0.000000;
#CREDIT:;
#NOTES:
// measure 0
0000
0000
0000
0000
,  // measure 1
0000
0000
0000
0000
,  // measure 2
0000
0000
0000
0000
,  // measure 3
0000
0000
0000
0000
,  // measure 4
0000
0000
0000
0000
,  // measure 5
0000
0000
0000
0000
,  // measure 6
0000
0000
0000
0000
,  // measure 7
1001
0011
0101
1001
,  // measure 8
1010
0000
0000
1100
0000
0000
1000
0000
0100
1000
0000
0001
,  // measure 9
1000
0000
0100
1000
0000
0001
0100
0000
0010
1000
0000
0100
,  // measure 10
1000
1100
1001
0001
,  // measure 11
0101
0000
0000
1001
0000
0000
1000
0000
0010
1000
0000
0001
,  // measure 12
1000
0000
0010
1000
0000
0001
0010
0000
0100
1000
0000
0010
,  // measure 13
1000
1010
1001
0001
,  // measure 14
0011
0000
0000
1001
0000
0000
0100
0000
1000
0001
0000
0100
,  // measure 15
0010
0000
1000
0001
0000
0100
0010
0000
1000
0001
0000
0100
,  // measure 16
0101
1001
1100
1010
,  // measure 17
1001
0011
1001
0000
,  // measure 18
1010
0120
0030
0000
,  // measure 19
0000
0000
0000
0000
,  // measure 20
0000
0000
0000
0000
1000
0001
1000
0001
,  // measure 21
1000
0001
0100
0001
0100
0001
0100
0001
,  // measure 22
0010
0000
0000
0100
0000
0000
0010
0000
0000
0100
0000
0000
0010
0000
0000
0100
0000
0000
1000
0000
0000
0000
0010
0000
,  // measure 23
0100
0000
0000
0000
0001
0000
0010
0000
0000
0000
0100
0000
1000
0000
0000
0001
0000
0000
1000
0000
0000
0001
0000
0000
,  // measure 24
1000
0001
0100
0001
0100
0001
0100
0001
,  // measure 25
1000
0000
0000
0000
0100
0000
0001
0000
0000
0000
0100
0000
0010
0000
0000
0002
0000
0000
0020
0000
0000
0000
0000
0000
,  // measure 26
0033
0000
0000
0000
1000
0100
1000
0100
,  // measure 27
1000
0100
0010
0100
0010
0100
0010
0100
,  // measure 28
1000
0010
1000
0010
1000
0010
0002
0003
,  // measure 29
0020
0030
2000
3000
0001
1000
0001
1000
,  // measure 30
0001
1000
0001
0100
0001
0100
0001
0100
,  // measure 31
0001
0010
0100
1000
0001
0010
0001
0000
,  // measure 32
2002
3003
2100
0000
,  // measure 33
3200
2300
0000
3002
,  // measure 34
0023
0000
0000
0000
0000
0000
0000
0000
0000
0000
0000
0000
0030
0000
0000
0000
0000
0001
0100
0000
0000
0000
0000
0001
,  // measure 35
0010
0000
0000
0000
0000
0001
1000
0000
0000
0000
0000
0000
2001
0000
0000
0000
0000
0000
0000
0000
0000
0000
3000
0000
,  // measure 36
0020
0000
0030
0200
0000
0000
0000
0000
0300
0020
0000
0030
,  // measure 37
2000
0000
0000
0000
0000
3000
0002
0000
0003
0100
0000
1000
,  // measure 38
0100
0000
0001
0010
0000
0100
2000
0000
0000
0000
0000
3000
,  // measure 39
0020
0000
0030
0002
0000
0000
0000
0000
0003
0020
0000
0030
,  // measure 40
2000
0000
0000
0000
0000
0000
0000
0000
3000
0200
0000
0000
,  // measure 41
0000
0000
0000
0300
0000
0000
0020
0000
0030
0002
0000
0003
,  // measure 42
0200
0000
0300
0020
0000
0030
0200
0000
0300
0002
0000
0003
,  // measure 43
0020
0000
0000
0000
0000
0000
0000
0000
0000
0000
0030
0000
0100
0000
0000
0000
0000
1000
0010
0000
0000
0000
0000
0000
,  // measure 44
1001
0000
0000
0000
0010
0001
0100
0001
,  // measure 45
0010
0001
0100
0010
0100
0001
0100
0010
,  // measure 46
1000
0001
0100
0001
1000
0001
0100
0010
,  // measure 47
0001
1000
0001
0010
1000
0100
0001
0100
,  // measure 48
1000
0100
0010
0001
0100
0001
0010
0001
,  // measure 49
1000
0010
0100
0010
1000
0010
0001
0010
,  // measure 50
0100
0001
0010
0100
1000
0010
1000
0001
,  // measure 51
0010
0100
0010
0001
0100
0010
0100
0001
,  // measure 52
1000
0100
0010
0100
1000
0010
0100
0010
,  // measure 53
1000
0001
0010
0100
1000
0010
0100
0001
,  // measure 54
0100
1000
0100
0001
1000
0100
0001
0100
,  // measure 55
0010
0001
1000
0100
0010
0001
1000
0000
,  // measure 56
1001
0000
0001
0010
,  // measure 57
0100
0000
0000
0000
0000
0000
1000
0000
0000
0000
0000
0000
0010
0000
0000
0000
0000
0000
0100
0000
0000
0000
0000
0001
,  // measure 58
0100
0000
0100
1001
,  // measure 59
0000
0000
1000
0100
,  // measure 60
0010
0000
0000
0000
0000
0000
0001
0000
0000
0000
0000
0000
0100
0000
0000
0000
0000
0000
0010
0000
0000
0000
0000
1000
,  // measure 61
0010
0000
0010
1001
,  // measure 62
0000
0000
0001
0010
,  // measure 63
0001
0000
0000
0000
0000
0000
1000
0000
0000
0000
0000
0000
0010
0000
0000
0000
0000
0000
1000
0000
0000
0000
0000
0010
,  // measure 64
0100
0000
1000
1001
,  // measure 65
0000
0000
1000
0100
,  // measure 66
1000
0000
0000
0000
0000
0000
0001
0000
0000
0000
0000
0000
0100
0000
0000
0000
0000
0000
0001
0000
0000
0000
0000
0100
,  // measure 67
0010
0000
0001
2002
,  // measure 68
0000
0000
3003
0000
0100
0010
1000
0010
,  // measure 69
1000
0100
1000
0010
0100
0010
1000
0001
,  // measure 70
0010
0100
1000
0010
0100
0001
0100
0000
,  // measure 71
0101
0000
1001
0000
0100
0010
1000
0001
,  // measure 72
1000
0100
1000
0010
0100
0001
1000
0010
,  // measure 73
0001
0000
0000
0010
0000
0000
1000
0000
0000
0100
0000
0000
0010
0000
0000
0001
0000
0000
1000
0000
0000
0000
0100
0000
,  // measure 74
0010
0000
0000
0000
0001
0000
0010
0000
0000
0000
0100
0000
1000
0000
0000
0100
0000
0000
0010
0000
0000
0001
0000
0000
,  // measure 75
0010
0100
0001
1000
0010
1000
0010
0100
,  // measure 76
0001
0000
0000
0010
0000
0000
0001
0000
0000
0010
0000
0000
0100
0000
0000
1000
0000
0000
0001
0000
0000
0000
0010
0000
,  // measure 77
0100
0000
0000
0000
1000
0000
0001
0000
0000
0000
0010
0000
0100
0000
0000
1000
0000
0000
0100
0000
0000
0010
0000
0000
,  // measure 78
0100
0010
0001
1000
0001
0010
0001
1000
,  // measure 79
0100
1000
0010
0100
0001
0100
0010
0000
,  // measure 80
1001
0000
1001
0011
,  // measure 81
0101
1001
1010
1100
,  // measure 82
1000
0000
0100
1000
0000
0001
1000
0000
0100
1000
0000
0001
,  // measure 83
0100
0000
0010
1000
0000
0100
1000
0000
0000
1100
0000
0000
,  // measure 84
1001
0001
0101
1001
,  // measure 85
1000
0000
0010
1000
0000
0001
1000
0000
0010
1000
0000
0001
,  // measure 86
0010
0000
0100
1000
0000
0010
1000
0000
0000
1010
0000
0000
,  // measure 87
1001
0001
0011
1001
,  // measure 88
0100
0000
1000
0001
0000
0100
0010
0000
1000
0001
0000
0100
,  // measure 89
0010
0000
1000
0001
0000
0100
0101
0000
0000
1001
0000
0000
,  // measure 90
1100
1010
1001
0011
,  // measure 91
1001
0000
0011
0020
,  // measure 92
0200
0330
1100
1001
,  // measure 93
0011
0101
1001
1010
,  // measure 94
0012
0000
0000
0000
0000
0003
2001
0000
,  // measure 95
3000
0000
0000
0000
1200
0000
0000
0000
0000
0000
0000
0000
0000
0000
0000
0000
0000
0000
0000
0000
0000
0300
0000
0000
,  // measure 96
2001
0000
0000
0000
,  // measure 97
0000
0000
0000
0000
,  // measure 98
0000
0000
0000
3000
0000
0000
0000
0000
;

//---------------dance-single - ----------------
#NOTEDATA:;
#CHARTNAME:;
#STEPSTYPE:dance-single;
#DESCRIPTION:;
#CHARTSTYLE:;
#DIFFICULTY:Challenge;
#METER:16;
#RADARVALUES:0.980488,1.000000,0.614634,0.542927,0.773415,557.000000,60.000000,53.000000,0.000000,0.000000,0.000000,0.000000,0.000000,0.980488,1.000000,0.614634,0.542927,0.773415,557.000000,60.000000,53.000000,0.000000,0.000000,0.000000,0.000000,0.000000;
#CREDIT:;
#NOTES:
// measure 0
0000
0000
0000
0000
,  // measure 1
0000
0000
0000
0000
,  // measure 2
0000
0000
0000
0000
,  // measure 3
0000
0000
0000
0000
,  // measure 4
0000
0000
0000
0000
,  // measure 5
0000
0000
0000
0000
,  // measure 6
0000
0000
0000
0000
,  // measure 7
1000
1010
1100
1001
,  // measure 8
0101
0000
0000
0011
0000
0000
0001
0000
0010
0100
0000
1000
,  // measure 9
0001
0000
0100
0010
0000
1000
0100
0000
0001
0100
0000
1000
,  // measure 10
0001
0101
0011
1001
,  // measure 11
1010
0000
0000
1100
0000
0000
1000
0000
0100
0001
0000
0100
,  // measure 12
0010
0000
1000
0100
0000
0001
0100
0000
1000
0001
0000
0010
,  // measure 13
0001
1001
0101
0110
,  // measure 14
1010
0000
0000
1001
0000
0000
0010
0000
0001
0100
0000
0010
,  // measure 15
1000
0000
0100
0010
0000
0001
0010
0000
0100
1000
0000
0010
,  // measure 16
1000
1010
1100
1001
,  // measure 17
0101
0011
1001
0000
,  // measure 18
1010
0210
0300
0000
,  // measure 19
0000
0000
0000
0000
,  // measure 20
0000
0000
0000
0000
1000
0100
1000
0010
,  // measure 21
0100
0001
1000
0100
1000
0100
0001
0100
,  // measure 22
0010
0001
0100
1000
0100
0010
1000
0010
,  // measure 23
0100
0001
0010
0100
0010
0001
1000
0100
,  // measure 24
1000
0100
0010
0001
1000
0100
0010
0100
,  // measure 25
1000
0000
0001
0000
0010
0000
0001
0000
1000
0000
0100
0000
1000
0010
1000
0010
,  // measure 26
1000
0010
1000
0010
2000
0000
0000
3000
0001
0000
0100
0000
0001
0000
0010
0000
,  // measure 27
0100
1000
0001
0100
0001
0100
1000
0100
,  // measure 28
0010
0001
0010
1000
0001
0100
0020
0030
,  // measure 29
0200
0300
0002
0003
1000
0100
0001
0100
,  // measure 30
1000
0010
0001
0010
1000
0100
0010
0001
,  // measure 31
1000
0001
1000
0001
1000
0001
1000
0001
1000
0001
1000
0001
0100
0000
0000
0000
,  // measure 32
2002
3003
2100
0000
,  // measure 33
3020
0230
0000
0302
,  // measure 34
2003
0000
0000
0000
0000
0000
0000
0000
0000
0000
0000
0000
3000
0000
0000
0000
0000
0100
1000
0000
0000
0000
0000
0010
,  // measure 35
0100
0000
0000
0000
0000
0001
0010
0000
0000
0000
0000
0000
1002
0000
0000
0000
0000
0000
0000
0000
0000
0000
0000
0000
,  // measure 36
0023
0230
0000
2300
,  // measure 37
3002
0000
0000
0000
0000
0000
0203
0000
0000
1300
0000
0100
,  // measure 38
0001
0000
1000
0010
0000
0100
0002
0000
0000
0000
0000
0003
,  // measure 39
2000
0000
0000
0000
0000
0000
0000
0000
3000
0000
0000
0000
0200
0000
0000
0000
0000
0000
0000
0000
0000
0000
0000
0000
0000
0000
0000
0000
0000
0000
0000
0000
0300
0000
0000
0000
0020
0000
0000
0000
0000
0000
0000
0000
0000
0030
0000
0000
,  // measure 40
2000
0000
0000
0000
0000
0000
0000
0000
0000
0000
0000
3000
0020
0000
0000
0000
,  // measure 41
0000
0000
0000
0000
0030
0000
0000
0000
0002
0000
0000
0003
2000
0000
0000
3000
,  // measure 42
0020
0000
0000
0030
0200
0000
0000
0300
0002
0000
0000
0003
0020
0000
0000
0030
,  // measure 43
0200
0000
0000
0000
0000
0000
0000
0000
0000
0000
0000
0000
0000
0000
0000
0000
0000
0000
0000
0000
0000
0300
0000
0000
1000
0000
0000
0000
0000
0000
0000
0000
0000
0000
1000
0000
0001
0000
0000
0000
0000
0000
0000
0000
0000
0000
0000
0000
,  // measure 44
1001
0000
0000
0000
1000
0010
0100
0001
,  // measure 45
0100
0010
1000
0100
1000
0001
1000
0100
,  // measure 46
0010
0001
0010
0100
0010
0001
1000
0001
,  // measure 47
0100
0001
0010
0100
1000
0001
1000
0010
,  // measure 48
0100
0001
1000
0010
0100
0010
1000
0100
,  // measure 49
0010
0000
0001
0000
0010
0000
0100
0000
1000
0000
0100
0000
0010
0001
0010
0100
,  // measure 50
1000
0100
0010
0000
0001
0000
1000
0000
0010
0000
0100
0000
0001
0000
0100
0000
,  // measure 51
0010
1000
0001
0100
0010
1000
0100
1000
,  // measure 52
0010
1000
0100
1000
0001
1000
0001
0100
,  // measure 53
0010
1000
0001
0010
0001
1000
0100
0010
,  // measure 54
0001
0010
0100
1000
0100
1000
0010
0100
,  // measure 55
0001
1000
0100
0010
0100
1000
0001
0000
,  // measure 56
1001
0000
0010
0100
,  // measure 57
0010
0000
0000
0000
0000
0000
1000
0000
0000
0000
0000
0000
0001
0000
0000
0000
0000
0000
1000
0000
0000
0000
0000
0001
,  // measure 58
0010
0000
0100
1001
,  // measure 59
0000
0000
0010
0100
,  // measure 60
0010
0000
0000
0000
0000
0000
0001
0000
0000
0000
0000
0000
1000
0000
0000
0000
0000
0000
0001
0000
0000
0000
0000
1000
,  // measure 61
0010
0000
0100
1001
,  // measure 62
0000
0000
0100
0010
,  // measure 63
0100
0000
0000
0000
0000
0000
0001
0000
0000
0000
0000
0000
1000
0000
0000
0000
0000
0000
0001
0000
0000
0000
0000
1000
,  // measure 64
0100
0000
0100
1001
,  // measure 65
0000
0000
0100
0010
,  // measure 66
0100
0000
0000
0000
0000
0000
1000
0000
0000
0000
0000
0000
0001
0000
0000
0000
0000
0000
1000
0000
0000
0000
0000
0001
,  // measure 67
0100
0000
0000
0000
0000
0000
0000
0000
0100
0000
0000
0000
0001
1000
0001
1000
,  // measure 68
0001
0000
0000
1000
0000
0000
0001
0000
0000
1000
0000
0000
0002
0000
0000
0000
0000
0000
0000
0000
0000
0003
0000
0000
1000
0000
0000
0000
0010
0000
0000
0000
0100
0000
0000
0000
0001
0000
0000
0000
0100
0000
0000
0000
0001
0000
0000
0000
,  // measure 69
1000
0001
0100
0001
0010
0100
1000
0100
1000
0001
1000
0100
,  // measure 70
1000
0000
0010
0000
0100
0000
0001
0000
0100
0000
0001
0000
0010
0000
0100
0000
1000
0000
1000
0100
0000
0000
0000
0000
,  // measure 71
0010
0001
0000
0000
0000
0000
1000
0001
0000
0000
0000
0000
0001
0000
1000
0000
0010
0000
1000
0000
0100
0000
1000
0000
,  // measure 72
0001
1000
0100
0010
1000
0010
0001
0010
0100
0010
0001
0010
,  // measure 73
0001
0100
0010
0001
0010
1000
0001
0100
0010
0002
0003
0020
,  // measure 74
2030
3000
0002
0023
0030
2000
3010
0100
1000
0100
0010
0001
,  // measure 75
0010
0100
0010
0001
0010
0100
1000
0100
0010
0100
1000
0100
,  // measure 76
0010
0001
0010
0100
1000
0010
1000
0001
0100
0020
0030
2000
,  // measure 77
3002
0003
0200
0302
0003
0020
0130
1000
0100
0001
0100
1000
,  // measure 78
0100
0010
0001
0100
1000
0100
0001
1000
0100
0010
0100
1000
,  // measure 79
0001
0010
0001
0010
0001
0010
0001
0010
0001
0010
0001
0010
0200
0000
0000
0000
,  // measure 80
2000
3300
1000
1010
,  // measure 81
1100
1001
0101
0011
,  // measure 82
0001
0000
0010
0100
0000
1000
0001
0000
0100
0010
0000
1000
,  // measure 83
0100
0000
0001
0100
0000
1000
0001
0000
0000
0101
0000
0000
,  // measure 84
0011
1001
1010
1100
,  // measure 85
1000
0000
0100
0001
0000
0100
0010
0000
1000
0100
0000
0001
,  // measure 86
0100
0000
1000
0001
0000
0010
0001
0000
0000
1001
0000
0000
,  // measure 87
0101
0110
1010
1001
,  // measure 88
0010
0000
0001
0100
0000
0010
1000
0000
0100
0010
0000
0001
,  // measure 89
0010
0000
0100
1000
0000
0010
1000
0000
0000
1010
0000
0000
,  // measure 90
1100
1001
0101
0011
,  // measure 91
1000
0010
1000
0010
1000
0010
1000
0010
0200
0000
0000
0300
0002
0000
0000
0000
,  // measure 92
0200
0303
0101
1001
,  // measure 93
1100
1010
1001
0011
,  // measure 94
2001
0000
0000
0000
0000
3000
1020
0000
,  // measure 95
0030
0000
0000
0000
0210
0000
0000
0000
0000
0000
0000
0000
0000
0000
0000
0000
0000
0000
0000
0000
0300
0000
0000
0100
,  // measure 96
0002
0000
0000
0000
,  // measure 97
0000
0000
0000
0000
,  // measure 98
0000
0000
0000
0003
0000
0000
0000
0000
;
