#VERSION:0.83;
#TITLE:Waltz of Doge;
#SUBTITLE:;
#ARTIST:Cashew;
#TITLETRANSLIT:;
#SUBTITLETRANSLIT:;
#ARTISTTRANSLIT:;
#GENRE:;
#ORIGIN:;
#CREDIT:;
#BANNER:Waltz of Doge-banner.png;
#BACKGROUND:Waltz of Doge-background.png;
#PREVIEWVID:;
#JACKET:;
#CDIMAGE:;
#DISCIMAGE:;
#LYRICSPATH:;
#CDTITLE:;
#MUSIC:Waltz of Doge.ogg;
#OFFSET:0.105000;
#SAMPLESTART:4.709734;
#SAMPLELENGTH:12.000000;
#SELECTABLE:YES;
#BPMS:0.000=250.000,
260.000=125.000,
272.000=250.000;
#STOPS:;
#DELAYS:;
#WARPS:;
#TIMESIGNATURES:0.000=4=4;
#TICKCOUNTS:0.000=4;
#COMBOS:0.000=1;
#SPEEDS:0.000=1.000=0.000=0;
#SCROLLS:0.000=1.000;
#FAKES:;
#LABELS:0.000=Song Start;
#BGCHANGES:0.000=Waltz of Doge.avi=1.000=0=0=0=StretchNoLoop====,
99999=-nosongbg-=1.000=0=0=0 // don't automatically add -songbackground-
;
#KEYSOUNDS:;
#ATTACKS:
;

//---------------dance-single - ----------------
#NOTEDATA:;
#CHARTNAME:;
#STEPSTYPE:dance-single;
#DESCRIPTION:;
#CHARTSTYLE:;
#DIFFICULTY:Hard;
#METER:13;
#RADARVALUES:0.777563,0.839550,0.187688,0.403529,0.000000,580.000000,560.000000,20.000000,43.000000,0.000000,0.000000,0.000000,0.000000,0.000000,0.777563,0.839550,0.187688,0.403529,0.000000,580.000000,560.000000,20.000000,43.000000,0.000000,0.000000,0.000000,0.000000,0.000000;
#CREDIT:;
#DISPLAYBPM:0.000000;
#NOTES:
// measure 0
0000
0000
0000
0000
,  // measure 1
0000
0000
0000
0000
,  // measure 2
0000
0000
0000
0000
,  // measure 3
0000
0000
0000
0000
,  // measure 4
0000
0000
0000
0000
,  // measure 5
1000
0010
1000
0010
1000
0010
0100
0001
,  // measure 6
0100
0001
0100
0001
0010
0001
0010
0001
,  // measure 7
0010
0001
1000
0010
1000
0010
0100
0001
,  // measure 8
2000
0000
3000
0100
0010
0001
0010
0100
,  // measure 9
1000
0001
0100
0010
2000
0000
3000
0010
,  // measure 10
0100
0001
1000
0100
1000
0001
0100
0010
,  // measure 11
1000
0100
1000
0100
1000
0100
0010
0001
,  // measure 12
0010
0001
0010
0001
0100
0001
0100
0001
,  // measure 13
0100
0001
1000
0100
1000
0001
0100
0010
,  // measure 14
2000
0000
3000
0100
1000
0001
1000
0100
,  // measure 15
0010
0001
0100
0001
2000
0000
3000
0001
,  // measure 16
0100
0010
1000
0100
1000
0010
0100
0001
,  // measure 17
0010
0100
1000
0001
0010
0001
1000
0010
,  // measure 18
0001
0010
0100
0001
1000
0100
0010
0001
,  // measure 19
0100
0001
1000
0001
0100
0010
1000
0010
,  // measure 20
0100
0001
0100
0001
1000
0100
0010
0001
,  // measure 21
0010
0100
1000
0001
1000
0100
0010
0001
,  // measure 22
0100
0010
1000
0010
0001
0010
0100
0001
,  // measure 23
0010
0100
1000
0001
0100
0001
0010
0100
,  // measure 24
1000
0010
0100
0010
0001
0010
1000
0001
,  // measure 25
0100
0001
0010
0100
1000
0001
0010
0001
,  // measure 26
0010
0100
1000
0100
0010
0001
0100
0001
,  // measure 27
0100
0010
1000
0100
0010
0001
0100
0010
,  // measure 28
1000
0100
2000
0000
0002
0000
3003
0000
,  // measure 29
1001
0001
0001
0011
,  // measure 30
0010
0010
0110
0100
,  // measure 31
0100
1100
1000
1000
,  // measure 32
0100
0010
1000
0010
0100
1000
0010
0100
,  // measure 33
0001
1000
0100
0010
0001
0100
0001
0010
,  // measure 34
0100
1000
0010
0100
0001
0010
0100
1000
,  // measure 35
0100
1100
1001
0100
,  // measure 36
0101
1001
0010
1010
,  // measure 37
1001
0010
0011
1001
,  // measure 38
0001
0100
0010
1000
0010
0001
0010
0100
,  // measure 39
0010
1000
0001
0100
0010
1000
0010
0001
,  // measure 40
0010
0100
0002
0000
2000
0000
3003
0000
,  // measure 41
0000
0000
0000
0000
,  // measure 42
0000
0000
2000
0000
,  // measure 43
3000
0020
0000
0030
,  // measure 44
0002
0000
0003
0200
,  // measure 45
0000
0300
2000
0000
,  // measure 46
3000
0000
0001
0010
0001
1000
0010
1000
,  // measure 47
0002
0000
0003
0020
,  // measure 48
0000
0030
2000
0000
,  // measure 49
3000
0200
0000
0300
,  // measure 50
0010
0010
0010
1000
,  // measure 51
0010
0100
0001
1000
,  // measure 52
0001
0010
0100
0010
,  // measure 53
2000
0000
3000
0020
,  // measure 54
0000
0030
0002
0000
,  // measure 55
0003
0200
0000
0300
,  // measure 56
2000
0000
3000
0020
,  // measure 57
0000
0030
0001
0001
,  // measure 58
0001
0100
0100
0100
,  // measure 59
0002
0000
0003
0020
,  // measure 60
0000
0030
2000
0000
,  // measure 61
3000
0200
0000
0300
,  // measure 62
0002
0000
0003
0020
,  // measure 63
0000
0000
0030
0000
0200
0300
2000
3000
,  // measure 64
0020
0030
0002
0003
0020
0030
2000
0000
,  // measure 65
3001
0000
0000
0000
,  // measure 66
0000
0000
0000
0000
,  // measure 67
0000
0000
0000
0000
,  // measure 68
0001
0010
0001
0010
0001
0010
0100
1000
,  // measure 69
0100
1000
0100
1000
0010
1000
0010
1000
,  // measure 70
0010
1000
0001
0010
0001
0010
0100
1000
,  // measure 71
0002
0000
0003
0100
0010
1000
0010
0100
,  // measure 72
0001
1000
0100
0010
0002
0000
0003
0010
,  // measure 73
0100
1000
0001
0100
0001
1000
0100
0010
,  // measure 74
0001
0100
0001
0100
0001
0100
0010
1000
,  // measure 75
0010
1000
0010
1000
0100
1000
0100
1000
,  // measure 76
0100
1000
0001
0100
0001
1000
0100
0010
,  // measure 77
0002
0000
0003
0100
0001
1000
0001
0100
,  // measure 78
0010
1000
0100
1000
0002
0000
0003
1000
,  // measure 79
0100
0010
0001
0100
0001
0010
0100
1000
,  // measure 80
0010
0100
0001
1000
0010
1000
0001
0010
,  // measure 81
1000
0010
0100
1000
0001
0100
0010
1000
,  // measure 82
0100
1000
0001
1000
0100
0010
0001
0010
,  // measure 83
0100
1000
0100
1000
0001
0100
0010
1000
,  // measure 84
0010
0100
0001
1000
0001
0100
0010
1000
,  // measure 85
0100
0010
0001
0010
1000
0010
0100
1000
,  // measure 86
0010
0100
0001
1000
0100
1000
0010
0100
,  // measure 87
0001
0010
0100
0010
1000
0010
0001
1000
,  // measure 88
0100
1000
0010
0100
0001
1000
0010
1000
,  // measure 89
0010
0100
0001
0100
0010
1000
0100
1000
,  // measure 90
0100
0010
0001
0100
0010
1000
0100
0010
,  // measure 91
0001
0100
0002
0000
2000
0000
3003
0000
,  // measure 92
1000
0001
1000
0100
0010
0001
0100
0010
,  // measure 93
0100
0001
0010
0100
1000
0001
1000
0010
,  // measure 94
0001
0010
0100
0001
0100
0010
0001
0010
,  // measure 95
1000
0001
1000
0010
1000
0100
1000
0010
,  // measure 96
0100
0001
1000
0010
0100
0010
0001
0010
,  // measure 97
1000
0001
0100
1000
0001
0010
1000
0001
,  // measure 98
0010
0011
1010
0100
,  // measure 99
1100
0101
0010
0011
,  // measure 100
1100
0100
1010
0101
,  // measure 101
0001
1000
0001
1000
0001
1000
0100
1000
,  // measure 102
0100
1000
0100
1000
0010
0100
0001
0100
,  // measure 103
0010
1000
0002
0000
2000
0000
0000
0000
,  // measure 104
0000
0000
0000
0000
,  // measure 105
0000
3003
0000
0000
;

//---------------dance-single - ----------------
#NOTEDATA:;
#CHARTNAME:;
#STEPSTYPE:dance-single;
#DESCRIPTION:;
#CHARTSTYLE:;
#DIFFICULTY:Medium;
#METER:10;
#RADARVALUES:0.652885,0.839550,0.009384,0.581832,0.000000,487.000000,486.000000,1.000000,62.000000,0.000000,0.000000,0.000000,0.000000,0.000000,0.652885,0.839550,0.009384,0.581832,0.000000,487.000000,486.000000,1.000000,62.000000,0.000000,0.000000,0.000000,0.000000,0.000000;
#CREDIT:;
#NOTES:
// measure 0
0000
0000
0000
0000
,  // measure 1
0000
0000
0000
0000
,  // measure 2
0000
0000
0000
0000
,  // measure 3
0000
0000
0000
0000
,  // measure 4
0000
0000
0000
0000
,  // measure 5
0002
0010
0013
2000
,  // measure 6
0100
3100
0002
0100
,  // measure 7
0103
2000
0010
3010
,  // measure 8
0002
0003
0100
0001
,  // measure 9
1000
0100
2000
3000
,  // measure 10
0100
1000
0001
0100
,  // measure 11
0002
0010
0013
2000
,  // measure 12
0010
3010
0002
0100
,  // measure 13
0103
2000
0100
3100
,  // measure 14
0002
0003
0010
0001
,  // measure 15
1000
0010
2000
3000
,  // measure 16
0010
1000
0001
0100
,  // measure 17
0001
0010
0001
0010
0001
0010
0001
1000
,  // measure 18
0001
1000
0001
1000
0100
1000
0100
1000
,  // measure 19
0100
1000
0001
1000
0001
1000
0001
1000
,  // measure 20
0100
0010
0001
1000
0001
1000
0100
0010
,  // measure 21
0001
1000
0001
1000
0100
0010
0001
1000
,  // measure 22
0100
1000
0010
0100
0001
1000
0100
0010
,  // measure 23
0001
0100
0001
0100
0001
0100
0001
1000
,  // measure 24
0001
1000
0001
1000
0010
1000
0010
1000
,  // measure 25
0010
1000
0010
0100
0010
0100
0010
0100
,  // measure 26
0001
1000
0100
1000
0001
1000
0100
0010
,  // measure 27
0001
1000
0010
1000
0001
0100
0001
0100
,  // measure 28
0001
0100
0002
0000
2000
0000
3003
0000
,  // measure 29
0001
0001
0001
1000
,  // measure 30
1000
1000
0010
0010
,  // measure 31
0010
0100
0100
0100
,  // measure 32
0001
0100
0010
0100
0001
1000
0100
0010
,  // measure 33
0100
1000
0001
0100
0010
1000
0100
1000
,  // measure 34
0010
0100
0001
1000
0001
1000
0001
1000
,  // measure 35
0002
0100
1003
2000
,  // measure 36
0010
3001
0002
0010
,  // measure 37
1003
2000
0100
3001
,  // measure 38
1000
0100
1000
0001
0100
0001
1000
0010
,  // measure 39
1000
0010
0100
0010
0001
0010
1000
0001
,  // measure 40
0100
0010
1000
0000
1001
0000
0000
0000
,  // measure 41
0000
0000
0000
0000
,  // measure 42
0000
0000
2000
3000
,  // measure 43
0100
0002
0003
0100
,  // measure 44
0020
0030
0100
0002
,  // measure 45
0003
0100
2000
3000
,  // measure 46
0100
0010
0100
0001
,  // measure 47
0200
0300
1000
0200
,  // measure 48
0300
0010
0200
0300
,  // measure 49
0001
0200
0300
0010
,  // measure 50
0001
0001
0001
1000
,  // measure 51
1000
1000
0010
0100
,  // measure 52
0001
0010
0100
1000
,  // measure 53
0002
0003
0100
2000
,  // measure 54
3000
0100
0020
0030
,  // measure 55
0100
2000
3000
0100
,  // measure 56
0002
0003
0100
2000
,  // measure 57
3000
0100
0010
0100
,  // measure 58
1000
0100
0001
0100
,  // measure 59
2000
3000
0100
0020
,  // measure 60
0030
0100
2000
3000
,  // measure 61
0100
0002
0003
0100
,  // measure 62
2000
3000
0100
0020
,  // measure 63
0030
0000
0100
0000
2000
3000
0200
0300
,  // measure 64
0002
0003
0200
0300
0020
0030
2000
3000
,  // measure 65
0200
0300
0000
0000
,  // measure 66
0000
0000
0000
0000
,  // measure 67
0000
0000
0000
0000
,  // measure 68
2000
0100
3100
0002
,  // measure 69
0010
0013
2000
0010
,  // measure 70
3010
0002
0100
0103
,  // measure 71
2000
3000
0100
0010
,  // measure 72
0001
0100
0002
0003
,  // measure 73
0100
0010
1000
0100
,  // measure 74
2000
0100
3100
0002
,  // measure 75
0100
0103
2000
0010
,  // measure 76
3010
0002
0010
0013
,  // measure 77
2000
3000
0100
1000
,  // measure 78
0001
0100
0002
0003
,  // measure 79
1000
0100
0010
0001
,  // measure 80
1000
0010
1000
0010
1000
0010
1000
0001
,  // measure 81
1000
0001
1000
0001
0100
0001
0100
0001
,  // measure 82
0100
0001
1000
0001
1000
0001
1000
0001
,  // measure 83
0100
0010
1000
0001
1000
0001
0100
0010
,  // measure 84
1000
0001
1000
0001
0100
0010
1000
0001
,  // measure 85
0100
0001
0010
0100
1000
0001
0100
0010
,  // measure 86
1000
0100
1000
0100
1000
0100
1000
0001
,  // measure 87
1000
0001
1000
0001
0010
0001
0010
0001
,  // measure 88
0010
0001
0010
0100
0010
0100
0010
0100
,  // measure 89
1000
0001
0100
0001
1000
0001
0100
0010
,  // measure 90
1000
0001
0010
0001
1000
0100
1000
0100
,  // measure 91
1000
0100
2000
0000
0002
0000
3003
0000
,  // measure 92
1000
1000
1000
0001
,  // measure 93
0001
0001
0100
0100
,  // measure 94
0100
0010
0010
0010
,  // measure 95
1000
0001
0100
0001
1000
0001
1000
0100
,  // measure 96
1000
0001
0010
0100
1000
0010
0100
0001
,  // measure 97
0010
0100
1000
0010
1000
0010
1000
0010
,  // measure 98
0100
0010
0100
0010
1000
0000
0100
0010
,  // measure 99
0100
0010
0001
0000
0100
0010
0100
0010
,  // measure 100
1000
0000
0100
0010
0100
0010
0001
0000
,  // measure 101
1000
0010
0100
0010
1000
0001
0010
0100
,  // measure 102
0010
0001
0010
0100
1000
0010
0100
0001
,  // measure 103
0010
0100
2000
0000
0002
0000
0000
0000
,  // measure 104
0000
0000
0000
0000
,  // measure 105
0000
3003
0000
0000
;

//---------------dance-single - ----------------
#NOTEDATA:;
#CHARTNAME:;
#STEPSTYPE:dance-single;
#DESCRIPTION:;
#CHARTSTYLE:;
#DIFFICULTY:Easy;
#METER:8;
#RADARVALUES:0.481285,0.839550,0.037538,0.328453,0.000000,359.000000,355.000000,4.000000,35.000000,0.000000,0.000000,0.000000,0.000000,0.000000,0.481285,0.839550,0.037538,0.328453,0.000000,359.000000,355.000000,4.000000,35.000000,0.000000,0.000000,0.000000,0.000000,0.000000;
#CREDIT:;
#DISPLAYBPM:250.000000;
#NOTES:
// measure 0
0000
0000
0000
0000
,  // measure 1
0000
0000
0000
0000
,  // measure 2
0000
0000
0000
0000
,  // measure 3
0000
0000
0000
0000
,  // measure 4
0000
0000
0000
0000
,  // measure 5
0010
0010
0010
0100
,  // measure 6
0100
0100
1000
1000
,  // measure 7
1000
0001
0100
0010
,  // measure 8
2000
3000
0010
0100
,  // measure 9
0001
1000
0200
0300
,  // measure 10
1000
0010
0100
0001
,  // measure 11
0100
0100
0100
0010
,  // measure 12
0010
0010
1000
1000
,  // measure 13
1000
0010
0100
0001
,  // measure 14
2000
3000
0001
0100
,  // measure 15
0010
1000
0200
0300
,  // measure 16
1000
0010
0100
0001
,  // measure 17
0010
0100
0010
1000
,  // measure 18
0010
0001
1000
0100
,  // measure 19
1000
0001
0010
1000
,  // measure 20
0010
0100
0010
0001
,  // measure 21
0100
0010
0001
0010
,  // measure 22
1000
0001
0010
1000
,  // measure 23
0010
0100
0010
1000
,  // measure 24
0010
0001
1000
0100
,  // measure 25
1000
0001
0010
1000
,  // measure 26
0010
0100
0010
0001
,  // measure 27
1000
0010
0100
0001
,  // measure 28
0100
0010
0110
0000
,  // measure 29
1000
0010
0001
0010
,  // measure 30
0100
0010
1000
0010
,  // measure 31
0001
0010
0100
0010
,  // measure 32
1000
0010
0001
0010
,  // measure 33
1000
0001
0010
1000
,  // measure 34
0010
0100
1000
0010
,  // measure 35
1000
1000
1000
0010
,  // measure 36
0010
0010
0001
0001
,  // measure 37
0001
0010
0010
0010
,  // measure 38
0100
0001
0010
0100
,  // measure 39
1000
0010
0100
0001
,  // measure 40
0010
0100
0110
0000
,  // measure 41
0000
0000
0000
0000
,  // measure 42
0000
0000
0002
0003
,  // measure 43
1000
0200
0300
0010
,  // measure 44
0002
0003
0100
0002
,  // measure 45
0003
1000
0200
0300
,  // measure 46
0010
1000
0010
0001
,  // measure 47
0200
0300
0010
2000
,  // measure 48
3000
0100
2000
3000
,  // measure 49
0001
0200
0300
0010
,  // measure 50
1000
1000
1000
0001
,  // measure 51
0001
0001
0100
0010
,  // measure 52
0001
0010
1000
0100
,  // measure 53
0020
0030
0001
2000
,  // measure 54
3000
0100
0020
0030
,  // measure 55
0001
0200
0300
0001
,  // measure 56
2000
3000
0100
0020
,  // measure 57
0030
0001
1000
1000
,  // measure 58
1000
0001
0001
0001
,  // measure 59
0200
0300
0010
0002
,  // measure 60
0003
0010
2000
3000
,  // measure 61
0001
0020
0030
1000
,  // measure 62
0020
0030
0100
2000
,  // measure 63
3000
0010
0100
0001
,  // measure 64
0010
0100
1000
0001
,  // measure 65
1001
0000
0000
0000
,  // measure 66
0000
0000
0000
0000
,  // measure 67
0000
0000
0000
0000
,  // measure 68
0010
0010
0010
0100
,  // measure 69
0100
0100
0001
0001
,  // measure 70
0001
1000
0100
0010
,  // measure 71
0002
0003
0010
0100
,  // measure 72
1000
0001
0200
0300
,  // measure 73
0001
0010
0100
1000
,  // measure 74
0100
0100
0100
0010
,  // measure 75
0010
0010
0001
0001
,  // measure 76
0001
0010
0100
1000
,  // measure 77
0002
0003
1000
0100
,  // measure 78
0010
0001
0200
0300
,  // measure 79
0001
0010
0100
1000
,  // measure 80
0010
0100
0010
0001
,  // measure 81
0010
1000
0001
0100
,  // measure 82
0001
1000
0010
0001
,  // measure 83
0010
0100
0010
1000
,  // measure 84
0100
0010
1000
0010
,  // measure 85
0001
1000
0010
0001
,  // measure 86
0010
0100
0010
0001
,  // measure 87
0010
1000
0001
0100
,  // measure 88
0001
1000
0010
0001
,  // measure 89
0010
0100
0010
1000
,  // measure 90
0001
0010
0100
1000
,  // measure 91
0100
0010
0110
0000
,  // measure 92
0001
0010
1000
0010
,  // measure 93
0100
0010
0001
0010
,  // measure 94
1000
0010
0100
0010
,  // measure 95
0001
0010
1000
0010
,  // measure 96
0001
1000
0010
0001
,  // measure 97
0010
0100
0001
0010
,  // measure 98
0002
1000
1003
2000
,  // measure 99
0010
3010
0020
0100
,  // measure 100
0130
0200
0001
0301
,  // measure 101
1000
0100
1000
0100
1000
0100
1000
0100
,  // measure 102
1000
0100
1000
0100
1000
0010
0100
0001
,  // measure 103
1000
0100
0020
0000
0002
0000
0000
0000
,  // measure 104
0000
0000
0000
0000
,  // measure 105
0000
0033
0000
0000
;

//---------------dance-single - ----------------
#NOTEDATA:;
#CHARTNAME:;
#STEPSTYPE:dance-single;
#DESCRIPTION:;
#CHARTSTYLE:;
#DIFFICULTY:Beginner;
#METER:6;
#RADARVALUES:0.442407,0.493853,0.037538,0.290916,0.000000,330.000000,326.000000,4.000000,31.000000,0.000000,0.000000,0.000000,0.000000,0.000000,0.442407,0.493853,0.037538,0.290916,0.000000,330.000000,326.000000,4.000000,31.000000,0.000000,0.000000,0.000000,0.000000,0.000000;
#CREDIT:;
#NOTES:
0000
0000
0000
0000
,
0000
0000
0000
0000
,
0000
0000
0000
0000
,
0000
0000
0000
0000
,
0000
0000
0000
0000
,
1000
0100
1000
0001
,
0100
0001
1000
0100
,
1000
0001
0100
0001
,
0020
0030
0100
1000
,
0001
0100
0020
0030
,
0100
0001
1000
0100
,
1000
0010
1000
0001
,
0010
0001
1000
0010
,
1000
0001
0010
0001
,
0200
0300
0010
1000
,
0001
0010
0200
0300
,
0010
0001
1000
0010
,
0100
0001
1000
0001
,
0100
0001
1000
0001
,
1000
0001
0100
0001
,
1000
0100
0010
0001
,
0100
0001
1000
0100
,
1000
0001
0100
0010
,
1000
0001
1000
0010
,
0100
0010
1000
0001
,
1000
0010
0100
0010
,
1000
0100
1000
0010
,
0100
0001
1000
0100
,
0010
0001
1001
0000
,
1000
0010
1000
0010
,
0100
0001
1000
0100
,
1000
0001
0100
0010
,
1000
0100
1000
0100
,
0010
0001
0100
0001
,
1000
0100
1000
0001
,
1000
0100
1000
0001
,
0100
0001
1000
0010
,
1000
0001
0010
0001
,
1000
0100
0010
0001
,
0100
0010
1000
0100
,
1000
0001
1001
0000
,
0000
0000
0000
0000
,
0000
0000
2000
3000
,
0000
0002
0003
0000
,
0020
0030
0000
0200
,
0300
0000
0020
0030
,
0001
0010
0100
1000
,
0020
0030
0000
2000
,
3000
0000
0002
0003
,
0000
0200
0300
0000
,
0001
0010
0001
1000
,
0010
1000
0010
0100
,
0001
1000
0100
0010
,
0002
0003
0000
0200
,
0300
0000
0002
0003
,
0000
0020
0030
0000
,
0200
0300
0000
2000
,
3000
0000
0001
0100
,
0001
1000
0100
1000
,
0020
0030
0000
0200
,
0300
0000
0002
0003
,
0000
2000
3000
0000
,
0200
0300
0000
0020
,
0030
0000
0001
0100
,
0001
1000
0100
1000
,
0010
0000
0000
0000
,
0000
0000
0000
0000
,
0000
0000
0000
0000
,
0001
0100
0001
1000
,
0100
1000
0001
0100
,
0001
1000
0100
1000
,
0020
0030
0100
0001
,
1000
0100
0020
0030
,
0100
1000
0001
0100
,
0001
0010
0001
1000
,
0010
1000
0001
0010
,
0001
1000
0010
1000
,
0200
0300
0010
0001
,
1000
0010
0200
0300
,
0010
1000
0001
0010
,
0100
1000
0001
1000
,
0100
1000
0001
1000
,
0001
1000
0100
1000
,
0001
0100
0010
1000
,
0100
1000
0001
0100
,
0001
1000
0100
0010
,
0001
1000
0001
0010
,
0100
0010
0001
1000
,
0001
0010
0100
0010
,
0001
0100
0001
0010
,
0100
1000
0001
0100
,
0010
1000
1001
0000
,
0001
0010
0001
0010
,
0100
1000
0001
0100
,
0001
1000
0100
0010
,
0001
0100
0001
0100
,
0010
1000
0100
1000
,
0001
0100
0001
1000
,
0100
0100
0100
0010
,
0010
0010
0001
0001
,
0001
0100
0100
0100
,
0001
0010
0100
1000
,
0001
0100
0010
1000
,
0001
1000
2002
0000
,
0000
0000
0000
0000
,
0000
3003
0000
0000
;

//---------------dance-single - ----------------
#NOTEDATA:;
#CHARTNAME:;
#STEPSTYPE:dance-single;
#DESCRIPTION:;
#CHARTSTYLE:;
#DIFFICULTY:Challenge;
#METER:14;
#RADARVALUES:0.819123,1.234633,0.187688,0.356607,0.187688,611.000000,591.000000,20.000000,38.000000,0.000000,0.000000,0.000000,0.000000,0.000000,0.819123,1.234633,0.187688,0.356607,0.187688,611.000000,591.000000,20.000000,38.000000,0.000000,0.000000,0.000000,0.000000,0.000000;
#CREDIT:;
#NOTES:
0000
0000
0000
0000
,
0000
0000
0000
0000
,
0000
0000
0000
0000
,
0000
0000
0000
0000
,
0000
0000
0000
0000
,
1000
0100
1000
0100
1000
0010
0100
0001
,
0100
0001
1000
0100
0010
0001
1000
0010
,
0100
0001
0010
0100
1000
0001
0100
0010
,
2000
0000
3000
0010
0100
0001
1000
0100
,
0010
0001
0100
0010
0002
0000
0003
0010
,
0100
0001
0100
0010
1000
0100
0010
0001
,
0010
0001
0010
0001
0010
0100
1000
0001
,
1000
0001
0100
0010
1000
0010
1000
0010
,
1000
0001
0010
0100
1000
0001
0100
0010
,
2000
0000
3000
0010
0100
0001
1000
0100
,
0010
0001
0100
0010
0002
0000
0003
0010
,
0100
0010
1000
0100
0010
0001
1000
0001
,
1000
0010
1000
0000
0010
0000
0100
0000
0001
0000
1000
0000
0001
0000
1000
0000
,
0100
0000
1000
0000
0001
0000
1000
0000
0100
0010
0100
0000
1000
0000
0001
0000
,
0100
0010
1000
0001
0100
0001
1000
0001
,
0010
0100
0010
0001
0100
0010
0001
1000
,
0001
0010
0100
0001
0010
0100
1000
0001
,
1000
0100
0001
0100
1000
0010
0100
0001
,
1000
0100
1000
0000
0001
0000
0100
0000
0010
0000
1000
0000
0001
0000
1000
0000
,
0010
0000
1000
0000
0001
0000
1000
0000
0010
0100
0010
0000
1000
0000
0010
0000
,
0100
0001
1000
0010
0100
0010
1000
0001
,
0100
0010
1000
0100
1000
0001
0100
0001
,
0010
0100
1000
0001
0100
1000
0001
0010
,
0100
0010
2000
0000
0002
0000
3003
0000
,
1000
0100
0000
0000
1000
0100
0000
0000
1000
0100
0000
0000
1000
0001
0000
0000
,
1000
0001
0000
0000
1000
0001
0000
0000
1000
0010
0000
0000
1000
0010
0000
0000
,
1000
0010
0000
0000
0100
0010
0000
0000
0100
0010
0000
0000
0100
0010
0000
0000
,
1000
0100
0001
0100
1000
0001
0100
1000
,
0100
0001
0010
0100
1000
0010
1000
0100
,
0010
1000
0010
0001
0010
0100
1000
0010
,
0100
0101
1001
0100
,
1100
1001
0010
0011
,
1001
0010
1010
1001
,
1000
0001
0010
1000
0001
0100
1000
0010
,
0100
0001
1000
0010
0001
0010
0100
0010
,
1000
0100
0020
0000
0002
0000
0033
0000
,
0000
0000
0000
0000
,
0000
0000
2200
3000
,
0000
0020
0030
0000
,
0002
0003
0000
2000
,
3000
0000
0020
0030
,
0000
0000
0001
0010
0001
0010
0001
0010
,
0002
0003
0000
0020
,
0030
0000
2000
3000
,
0000
0002
0003
0000
,
0010
0010
0010
1000
,
1000
1000
0010
1000
,
0001
0010
1000
0001
,
0020
0030
0000
0002
,
0003
0000
0020
0030
,
0000
2000
3000
0000
,
0020
0030
0000
0002
,
0003
0000
0001
0001
,
0001
1000
1000
1000
,
0020
0030
0000
2000
,
3000
0000
0020
0030
,
0000
0002
0003
0000
,
0020
0030
0000
2000
,
3000
0000
0010
1000
,
0001
1000
0010
0001
,
0310
0000
0000
0000
,
0000
0000
0000
0000
,
0000
0000
0000
0000
,
0001
0010
0001
0010
0100
1000
0010
1000
,
0010
1000
0010
0100
0001
1000
0001
1000
,
0100
0010
1000
0010
0001
1000
0010
0001
,
0020
0000
0030
0001
0010
1000
0001
0010
,
1000
0010
0100
1000
0020
0000
0030
1000
,
0100
0010
0100
1000
0010
0100
0001
1000
,
0100
1000
0100
1000
0001
0100
0010
1000
,
0010
1000
0100
1000
0001
0100
0001
0100
,
0001
0010
1000
0010
0001
1000
0010
0001
,
0020
0000
0030
0001
0010
1000
0001
0010
,
1000
0010
0100
1000
0020
0000
0030
1000
,
0010
0001
0010
0100
0001
0100
0010
1000
,
0001
0010
0001
0000
0010
0000
0100
0000
1000
0000
0001
0000
0010
0000
0001
0000
,
0100
0000
0001
0000
1000
0000
0001
0000
1000
0010
1000
0000
0010
0000
0100
0000
,
0001
1000
0010
1000
0100
1000
0001
1000
,
0001
0100
0001
0010
0100
1000
0010
0100
,
0010
1000
0100
0010
1000
0010
0001
1000
,
0100
0010
0001
0100
0001
0010
0100
1000
,
0001
0100
0001
0000
1000
0000
0100
0000
0010
0000
0001
0000
0100
0000
0001
0000
,
0010
0000
0001
0000
1000
0000
0001
0000
1000
0100
1000
0000
0001
0000
0100
0000
,
0010
1000
0100
1000
0010
1000
0001
1000
,
0100
0010
0001
0100
0001
1000
0100
1000
,
0010
0100
0001
1000
0100
0001
1000
0010
,
0100
0010
0002
0000
2000
0000
3003
0000
,
0010
0100
0010
0000
1000
0000
0010
0000
0001
0000
1000
0000
0001
0000
1000
0000
,
0010
0000
1000
0000
0001
0000
1000
0000
0010
0100
0010
0000
0001
0000
0010
0000
,
1000
0001
1000
0001
0010
0001
1000
0001
,
1000
0010
1000
0001
0100
0010
1000
0001
,
0010
0100
1000
0001
0010
0001
0100
0010
,
1000
0100
1000
0010
1000
0010
0100
0001
,
1000
1010
1001
0011
,
0110
0101
1001
1100
,
0110
1010
1001
0011
,
0001
0010
0001
0010
0001
0010
0001
0010
0001
1000
0001
1000
,
0001
1000
0001
1000
0001
1000
0010
0100
0001
0010
0100
1000
,
0001
0100
0010
2000
0000
0000
0002
0000
0000
0000
0000
0000
,
0000
0000
0000
0000
,
0000
3003
0000
0000
;
