#TITLE:Vook;
#SUBTITLE:;
#ARTIST:BanYa;
#TITLETRANSLIT:;
#SUBTITLETRANSLIT:;
#ARTISTTRANSLIT:;
#GENRE:;
#CREDIT:;
#BANNER:Vook-banner.png;
#BACKGROUND:Vook-bg.png;
#LYRICSPATH:;
#CDTITLE:;
#MUSIC:Vook.ogg;
#OFFSET:-0.030157;
#SAMPLESTART:31.350000;
#SAMPLELENGTH:18.000000;
#SELECTABLE:YES;
#BPMS:0.000000=184.000000
;
#STOPS:
;
#BGCHANGES:-10000.000=songbackground=1.000=0=0=1=====,
-0.055=Vook.avi=1.000=1=0=1===CrossFade==,
0.000=Vook.avi=1.000=0=0=0=StretchNoLoop====,
99999=-nosongbg-=1.000=0=0=0 // don't automatically add -songbackground-
;
#KEYSOUNDS:;
#ATTACKS:;

//---------------pump-halfdouble - ----------------
#NOTES:
     pump-halfdouble:
     :
     Medium:
     8:
     0.542060,0.627134,0.154245,0.000000,0.025707,354.000000,15.000000,0.000000,0.000000,0.000000,0.000000,0.542060,0.627134,0.154245,0.000000,0.025707,354.000000,15.000000,0.000000,0.000000,0.000000,0.000000:
000000
000000
000000
000000
,
000000
000000
000000
000000
,
000000
000000
000000
000000
,
000000
000000
000000
000000
,
010010
000000
000000
000000
000000
000000
000010
010000
,
000000
000000
000000
000000
,
001100
000000
000000
000000
000000
000000
000100
001000
,
000000
000000
000000
000000
,
100000
000000
000100
001000
100000
000000
001000
000000
,
000100
100000
000100
001000
010000
000100
000001
000100
,
000010
000000
000010
001000
000010
000000
010000
000000
,
000100
010000
001000
100000
001000
010000
000100
001000
,
000100
000000
010000
001000
010000
000000
000010
000000
,
001000
010000
001000
000100
100000
001000
000010
001000
,
010000
000000
010100
001000
000100
000000
010000
000000
,
000100
001000
000010
010000
000100
100000
001000
010000
,
000010
000000
100000
100000
010000
000000
001000
000000
,
000100
010000
000010
001000
000100
010000
000100
010000
,
000100
000000
001010
000010
001000
000000
000100
000000
,
001000
000100
000010
001000
010000
000010
001000
000010
,
010000
000000
000100
010000
001000
000000
010000
000000
,
000100
010000
001000
010000
000100
001000
000100
010000
,
001000
000000
011000
000010
010000
000000
000100
000000
,
001000
000010
100000
001000
000010
000100
010000
000100
,
001000
000000
000000
000000
,
000100
010000
000000
000000
000000
000000
000000
000000
,
010000
000100
000010
001000
100000
001000
010000
000010
,
001000
100000
001000
000100
010000
000100
000000
000000
,
100000
000000
000000
000000
,
100000
000001
000000
000000
000000
000000
000000
000000
,
000001
000000
000000
000000
,
100000
001000
000010
000000
000001
000100
010000
000000
,
010000
000100
000001
000000
000010
000001
000010
000000
,
000010
000100
001000
000000
010000
100000
001000
000000
,
000001
000100
001000
000000
000001
010000
000010
000000
,
000010
001000
010000
000100
000001
000100
000001
000010
,
000100
001000
000100
000000
010000
000010
001000
000100
,
001100
000000
000000
000000
000000
000000
000000
010000
,
001010
010100
000000
000000
,
010000
000100
000001
001000
010000
000010
001000
000100
,
010010
100000
001000
000100
,
000001
000010
000100
001000
,
110000
001000
000100
010000
,
000010
001000
000100
001000
,
000110
000010
010000
001000
,
000100
010000
000010
001000
,
001010
000010
001000
000100
,
010000
000000
000100
000000
010000
000100
010000
000000
000010
000000
001000
000000
000010
001000
000010
000000
,
001000
000000
000100
001000
100000
000000
001000
000000
,
000100
000010
001000
010000
100000
010000
000100
001000
,
010000
000000
100000
001000
000010
000000
000001
000000
,
000100
010000
001000
100000
001000
000100
000010
001000
,
100000
000000
010000
001000
000010
000000
010000
000000
,
001000
010000
000100
001000
100000
001000
000010
001000
,
010000
000000
110000
000100
001000
000000
010000
000000
,
010000
001000
000010
000100
000001
000100
100000
001000
,
000010
000000
000010
010000
000010
000000
001000
000000
,
000100
010000
000010
000100
100000
000100
000001
000100
,
010000
000000
001010
000010
001000
000000
000100
000000
,
001000
000100
100000
001000
010000
000010
001000
000010
,
010000
000000
000100
010000
001000
000000
010000
000000
,
000010
010000
100000
010000
000010
000001
000010
000001
,
000010
000000
010010
001000
100000
000000
000100
000000
,
001000
000010
100000
001000
100000
000010
001000
000100
,
010000
000000
000000
000000
,
001000
000100
000000
000000
000000
000000
000000
000000
,
010000
001000
010000
000010
001000
000010
010000
000010
,
100000
010000
001000
000100
010000
000100
000000
000000
,
000001
000000
000000
000000
,
000100
001000
000000
000000
000000
000000
000000
000000
,
001000
000000
000000
000000
,
010000
001000
010000
000010
010000
000000
000000
000000
000010
000100
000010
000000
010000
000000
000000
000000
;

//---------------dance-single - ----------------
#NOTES:
     dance-single:
     :
     Hard:
     11:
     0.829984,1.000000,0.133679,0.000000,0.601555,552.000000,13.000000,0.000000,0.000000,0.000000,0.000000,0.829984,1.000000,0.133679,0.000000,0.601555,552.000000,13.000000,0.000000,0.000000,0.000000,0.000000:
0000
0000
0000
0000
,
0000
0000
0000
0000
,
0000
0000
0000
0000
,
0000
0000
0000
0000
,
1001
0000
0100
1000
0001
0000
0001
1000
,
0000
0000
0000
0000
0000
0000
0000
0000
0001
1000
0001
1000
0001
1000
0001
1000
,
1001
0000
0010
0001
1000
0010
1000
0001
,
0000
0000
0000
0000
,
0100
0000
0001
0001
1000
0000
0001
0000
,
0001
0000
1000
0010
1000
0000
0100
0000
1000
0000
0001
0000
0100
0000
0001
0000
,
0010
0000
0001
0100
0001
0000
1000
0000
,
0001
0000
1000
0010
0100
0000
0001
0000
1000
0000
0001
0000
0010
0000
0100
0000
,
1000
0000
1000
0010
1000
0000
0001
0000
,
0100
0000
1000
0100
1000
0000
0001
0000
1000
0000
0100
0000
0001
0000
0100
0000
,
1000
0000
1001
0100
0001
0000
1000
0000
,
0010
0000
0100
0001
1000
0000
0100
0000
1000
0000
0010
0000
0100
0000
0010
0000
,
0001
0000
1000
1000
0001
0000
0100
0000
,
0010
0000
1000
0010
1000
0000
0001
0000
1000
0000
0100
0000
0010
0000
0001
0000
,
1000
0000
0101
0001
0100
0000
0010
0000
,
0100
0000
0001
0100
1000
0000
0100
0000
1000
0000
0001
0000
0100
0000
0001
0000
,
1000
0000
0001
1000
0010
0000
1000
0000
,
0010
0000
1000
0001
0100
0000
1000
0000
0001
0000
0010
0000
0001
0000
1000
0000
,
0010
0000
1010
0001
0100
0000
0010
0000
,
0100
0000
0001
1000
0001
0000
0100
0000
0001
1000
0001
1000
0010
1000
0000
0000
,
0001
1000
0010
1000
0001
0100
0001
1000
,
0010
0100
0000
0000
0000
0000
0000
0000
,
0100
0010
0001
0010
1000
0001
0010
0100
,
1000
0100
0001
0100
1000
0001
0000
0000
,
1000
0001
1000
0001
1000
0001
1000
0001
1000
0001
1000
0001
1000
0001
1000
0001
,
1001
0100
0001
1000
0100
1000
0010
1000
,
0010
1000
0010
1000
0010
1000
0010
1000
0001
0010
0001
0010
0001
0010
0001
0010
,
0100
1000
0001
0100
0010
1000
0000
0000
0001
0010
0100
0000
1000
0000
0001
0000
,
1000
0010
1000
0000
0100
0000
1000
0000
0001
0010
0001
0000
0100
0000
0001
0000
,
1000
0001
0010
0000
0001
0000
0100
0000
0001
1000
0100
0000
1000
0000
0001
0000
,
0010
0001
0010
0000
0001
0000
1000
0000
0010
1000
0010
0000
1000
0000
0001
1000
,
0001
1000
0010
0100
0010
0100
0001
1000
0001
1000
0001
1000
0001
1000
0001
1000
,
0100
1000
0100
0000
1000
0000
0001
0000
0100
0001
0100
0000
0010
0000
1000
0000
,
0011
0000
0000
0000
0000
0000
0000
1000
,
0011
1100
0000
0000
,
0100
0000
0010
0000
0100
0000
0010
0000
1000
0001
1000
0001
1000
0001
1000
0001
,
1000
0100
1000
0100
1000
0000
0000
0000
0001
0100
0001
0100
0001
0000
0000
0000
,
1000
0010
1000
0010
1000
0000
0000
0000
1000
0001
1000
0001
1000
0000
0000
0000
,
0001
0100
0001
0100
0010
0000
0000
0000
0100
0010
0100
0010
0100
0000
0000
0000
,
0010
1000
0010
1000
0001
0000
0000
0000
0010
0001
0010
0001
1000
0000
0000
0000
,
0001
0010
0100
1000
0010
0000
0000
0000
0010
0100
0010
0100
0001
0000
0000
0000
,
0100
0001
0100
0001
1000
0000
0000
0000
0010
1000
0001
1000
0001
0000
0000
0000
,
1000
0100
1000
0010
1000
0000
0000
0000
0001
0010
0001
0010
0001
0000
0000
0000
,
1000
0000
0001
0000
1000
0001
1000
0000
0100
0000
1000
0000
0100
1000
0001
0000
,
0100
0000
0001
0001
1000
0000
0001
0000
,
0001
0000
1000
0010
1000
0000
0001
0000
1000
0000
0010
0000
0100
0000
0001
0000
,
0010
0000
0001
0100
0001
0000
1000
0000
,
0001
0000
1000
0010
0100
0000
0001
0000
0100
0000
0001
0000
0010
0000
0100
0000
,
1000
0000
1000
0010
1000
0000
0001
0000
,
0100
0000
1000
0100
1000
0000
0001
0000
1000
0000
0100
0000
0001
0000
0100
0000
,
1000
0000
1001
0100
0001
0000
1000
0000
,
0010
0000
0100
0001
1000
0000
0100
0000
1000
0000
0010
0000
0100
0000
0010
0000
,
0001
0000
1000
1000
0001
0000
0100
0000
,
0010
0000
1000
0010
1000
0000
0001
0000
1000
0000
0100
0000
0010
0000
0001
0000
,
1000
0000
0101
0001
0100
0000
0010
0000
,
0100
0000
0001
0100
1000
0000
0100
0000
1000
0000
0001
0000
0100
0000
0001
0000
,
1000
0000
0001
1000
0010
0000
1000
0000
,
0010
0000
1000
0001
0100
0000
1000
0000
0001
0000
0010
0000
0001
0000
1000
0000
,
0010
0000
1010
0001
0100
0000
0010
0000
,
0100
0000
0001
1000
0001
0000
0100
0000
0001
1000
0001
1000
0010
1000
0000
0000
,
0001
1000
0010
1000
0001
0100
0001
1000
,
0010
0100
0000
0000
0000
0000
0000
0000
,
0100
0010
0001
0010
1000
0001
0010
0100
,
1000
0100
0001
0100
1000
0001
0000
0000
,
1000
0001
1000
0001
1000
0001
1000
0001
1000
0001
1000
0001
1000
0001
1000
0001
,
1001
0100
0001
1000
0100
1000
0010
1000
,
0010
1000
0010
1000
0010
1000
0010
1000
0001
0010
0001
0010
0001
0010
0001
0010
,
0100
1000
0001
0100
0010
1000
0000
0000
0001
0010
0100
0000
1000
0000
0001
0000
;

//---------------dance-single - ----------------
#NOTES:
     dance-single:
     :
     Medium:
     7:
     0.542060,0.627134,0.154245,0.000000,0.025707,354.000000,15.000000,0.000000,0.000000,0.000000,0.000000,0.542060,0.627134,0.154245,0.000000,0.025707,354.000000,15.000000,0.000000,0.000000,0.000000,0.000000:
0000
0000
0000
0000
,
0000
0000
0000
0000
,
0000
0000
0000
0000
,
0000
0000
0000
0000
,
1001
0000
0000
0000
0000
0000
0001
1000
,
0000
0000
0000
0000
,
0110
0000
0000
0000
0000
0000
0010
0100
,
0000
0000
0000
0000
,
0100
0000
0001
0001
1000
0000
0001
0000
,
0010
0001
0010
0100
1000
0010
0100
0001
,
0010
0000
0001
0100
0001
0000
1000
0000
,
0001
0010
0100
1000
0100
0010
0001
0010
,
0001
0000
1000
0010
1000
0000
0001
0000
,
0100
1000
0100
0001
1000
0010
0001
0010
,
1000
0000
1001
0100
0001
0000
1000
0000
,
0010
0100
0001
1000
0001
1000
0100
0010
,
0001
0000
1000
1000
0001
0000
0100
0000
,
0001
1000
0100
0010
0001
1000
0001
1000
,
0001
0000
0101
0001
0100
0000
0010
0000
,
0100
0010
1000
0100
1000
0001
0100
0001
,
1000
0000
0001
0010
0100
0000
0010
0000
,
0001
1000
0010
1000
0001
0010
0001
1000
,
0010
0000
1010
0001
0100
0000
0010
0000
,
0100
0001
1000
0100
1000
0001
0100
0010
,
1000
0000
0000
0000
,
0001
1000
0000
0000
0000
0000
0000
0000
,
0100
0010
0001
0010
1000
0001
0010
0100
,
1000
0100
0001
0100
1000
0001
0000
0000
,
1000
0000
0000
0000
,
0001
1000
0000
0000
0000
0000
0000
0000
,
0100
0000
0000
0000
,
0100
0001
0010
0000
0001
1000
0100
0000
,
0010
0001
0100
0000
0010
1000
0100
0000
,
1000
0001
0010
0000
0001
1000
0100
0000
,
0100
0001
1000
0000
0100
1000
0001
0000
,
1000
0010
1000
0001
0100
0010
1000
0100
,
1000
0010
1000
0000
0001
0100
0001
0010
,
0011
0000
0000
0000
0000
0000
0000
1000
,
0011
1100
0000
0000
,
1000
0010
0100
0001
0010
0001
1000
0010
,
1001
0100
1000
0001
,
0010
0100
0010
0100
,
1100
0010
0001
1000
,
0001
0100
0010
0100
,
1010
0010
0001
0100
,
0001
1000
0001
0100
,
0101
0100
1000
0010
,
1000
0000
0001
0000
1000
0001
1000
0000
0100
0000
1000
0000
0100
1000
0001
0000
,
0100
0000
0001
0001
1000
0000
0001
0000
,
0010
0001
0010
0100
1000
0010
0100
0001
,
0010
0000
0001
0100
0001
0000
1000
0000
,
0001
0010
0100
1000
0100
0010
0001
0010
,
0001
0000
1000
0010
1000
0000
0001
0000
,
0100
1000
0100
0001
1000
0010
0001
0010
,
1000
0000
1001
0100
0001
0000
1000
0000
,
0010
0100
0001
1000
0001
1000
0100
0010
,
0001
0000
1000
1000
0001
0000
0100
0000
,
0001
1000
0100
0010
0001
1000
0001
1000
,
0001
0000
0101
0001
0100
0000
0010
0000
,
0100
0010
1000
0100
1000
0001
0100
0001
,
1000
0000
0001
0010
0100
0000
0010
0000
,
0001
1000
0010
1000
0001
0010
0001
1000
,
0010
0000
1010
0001
0100
0000
0010
0000
,
0100
0001
1000
0100
1000
0001
0100
0010
,
1000
0000
0000
0000
,
0010
1000
0000
0000
0000
0000
0000
0000
,
1000
0010
1000
0001
0100
0001
1000
0001
,
1000
0010
0100
0001
1000
0001
0000
0000
,
1000
0000
0000
0000
,
0001
0010
0000
0000
0000
0000
0000
0000
,
0100
0000
0000
0000
,
1000
0100
0001
0100
1000
0000
0000
0000
0001
1000
0001
0000
1000
0000
0000
0000
;

//---------------dance-single - ----------------
#NOTES:
     dance-single:
     :
     Easy:
     5:
     0.474486,0.547569,0.102830,0.041132,0.000000,309.000000,10.000000,4.000000,0.000000,0.000000,0.000000,0.474486,0.547569,0.102830,0.041132,0.000000,309.000000,10.000000,4.000000,0.000000,0.000000,0.000000:
// measure 0
0000
0000
0000
0000
,  // measure 1
0000
0000
0000
0000
,  // measure 2
0000
0000
0000
0000
,  // measure 3
0000
0000
0000
0000
,  // measure 4
1001
0000
0000
0000
0000
0000
1000
0001
,  // measure 5
0000
0000
0000
0000
,  // measure 6
0110
0000
0000
0000
0000
0000
0010
0100
,  // measure 7
0000
0000
0000
0000
,  // measure 8
1001
0000
1000
0010
1000
0000
1000
0000
,  // measure 9
1000
0010
1000
0001
0010
0001
1000
0010
,  // measure 10
1000
0000
0001
0010
0001
0000
0001
0000
,  // measure 11
0001
0010
0001
1000
0010
1000
0001
0010
,  // measure 12
0001
0000
1000
0010
1000
0000
0001
0000
,  // measure 13
1000
0010
1000
0001
1000
0010
1000
0001
,  // measure 14
0010
0000
0001
0010
0001
0000
1000
0000
,  // measure 15
0001
0010
0001
1000
0001
0010
0001
1000
,  // measure 16
0010
0000
1000
0010
1000
0000
1000
0000
,  // measure 17
1000
0010
1000
0001
0100
0001
1000
0010
,  // measure 18
1000
0000
0001
0010
0001
0000
0001
0000
,  // measure 19
0001
0010
0001
1000
0100
1000
0001
0010
,  // measure 20
0001
0000
1000
0010
1000
0000
0001
0000
,  // measure 21
1000
0010
1000
0100
1000
0010
1000
0001
,  // measure 22
0010
0000
0001
0010
0001
0000
1000
0000
,  // measure 23
0001
0010
0001
0100
0001
0010
0001
1000
,  // measure 24
0010
0000
0000
0000
,  // measure 25
1000
0001
0000
0000
0000
0000
0000
0000
,  // measure 26
1000
0010
0100
0001
1000
0100
0010
0001
,  // measure 27
0010
0100
1000
0001
0100
0010
0000
0000
,  // measure 28
1000
0000
0000
0000
,  // measure 29
0001
1000
0000
0000
0000
0000
0000
0000
,  // measure 30
0100
0000
0000
0000
,  // measure 31
1001
0000
0000
0000
,  // measure 32
2000
3000
0000
0000
,  // measure 33
0020
0030
0000
0000
,  // measure 34
0200
0300
0000
0000
,  // measure 35
0002
0003
0000
0000
,  // measure 36
1001
0000
0000
0000
,  // measure 37
1001
0000
0000
0000
,  // measure 38
0100
0110
0000
0000
,  // measure 39
0000
0000
0000
0000
,  // measure 40
1000
0010
1000
0000
0001
0010
0001
0000
,  // measure 41
1000
0100
1000
0000
0001
0100
0001
0000
,  // measure 42
0010
0001
0100
0000
0010
1000
0100
0000
,  // measure 43
1000
0001
0010
0000
0001
1000
0010
0000
,  // measure 44
0100
0010
0100
0000
0010
0100
0010
0000
,  // measure 45
1000
0001
0100
0000
0001
1000
0100
0000
,  // measure 46
1000
0001
1000
0000
0001
1000
0001
0000
,  // measure 47
1001
0000
0000
0000
,  // measure 48
1001
0000
0001
0010
0001
0000
0001
0000
,  // measure 49
0001
0010
0001
1000
0001
0100
0001
0010
,  // measure 50
0001
0000
1000
0010
1000
0000
1000
0000
,  // measure 51
1000
0010
1000
0001
1000
0100
1000
0010
,  // measure 52
1000
0000
0001
0010
0001
0000
1000
0000
,  // measure 53
0001
0010
0001
0100
0001
1000
0001
0010
,  // measure 54
0001
0000
1000
0010
1000
0000
0001
0000
,  // measure 55
1000
0010
1000
0100
1000
0001
1000
0010
,  // measure 56
1000
0000
0001
0010
0001
0000
0001
0000
,  // measure 57
0001
1000
0001
0100
0001
1000
0001
0100
,  // measure 58
0001
0000
1000
0010
1000
0000
1000
0000
,  // measure 59
1000
0001
1000
0100
1000
0001
1000
0100
,  // measure 60
1000
0000
0001
0010
0001
0000
1000
0000
,  // measure 61
0001
0100
0001
1000
0001
0100
0001
1000
,  // measure 62
0001
0000
1000
0010
1000
0000
0001
0000
,  // measure 63
1000
0100
1000
0001
1000
0100
1000
0001
,  // measure 64
1000
0000
0000
0000
,  // measure 65
0001
1000
0000
0000
0000
0000
0000
0000
,  // measure 66
0001
0010
0100
1000
0001
0100
0010
1000
,  // measure 67
0010
0100
0001
1000
0100
0010
0000
0000
,  // measure 68
0001
0000
0000
0000
,  // measure 69
1000
0001
0000
0000
0000
0000
0000
0000
,  // measure 70
0100
0000
0000
0000
,  // measure 71
1001
0000
0000
0000
;

//---------------dance-single - ----------------
#NOTES:
     dance-single:
     :
     Beginner:
     3:
     0.174811,0.219028,0.030849,0.000000,0.000000,116.000000,3.000000,0.000000,0.000000,0.000000,0.000000,0.174811,0.219028,0.030849,0.000000,0.000000,116.000000,3.000000,0.000000,0.000000,0.000000,0.000000:
0000
0000
0000
0000
,
0000
0000
0000
0000
,
0000
0000
0000
0000
,
0000
0000
0000
0000
,
0010
0000
0000
0000
,
0000
0000
0000
0000
,
0100
0000
0000
0000
,
0000
0000
0000
0000
,
0010
0000
0010
0000
,
1000
0000
0001
0000
,
0010
0000
0010
0000
,
0001
0000
1000
0000
,
0100
0000
0100
0000
,
1000
0000
0001
0000
,
0100
0000
0100
0000
,
0001
0000
1000
0000
,
0010
0000
0010
0000
,
1000
0000
0001
0000
,
0010
0000
0010
0000
,
0001
0000
1000
0000
,
0100
0000
0100
0000
,
1000
0000
0001
0000
,
0100
0000
0100
0000
,
0001
0000
1000
0000
,
0001
0000
0001
0000
,
0001
0000
0000
0000
,
1000
0000
0001
0000
,
0100
0000
0010
0000
,
1000
0000
1000
0000
,
1000
0000
0000
0000
,
0001
0000
1000
0000
,
0100
0000
0010
0000
,
0001
0000
0000
0000
,
0001
0000
0000
0000
,
1000
0000
0000
0000
,
1000
0000
0000
0000
,
0001
0000
0000
0000
,
1001
0000
0000
0000
,
1000
0000
0000
0000
,
0001
0000
0000
0000
,
0100
0000
0100
0000
,
0010
0000
0010
0000
,
0100
0000
0100
0000
,
0010
0000
0010
0000
,
1000
0000
1000
0000
,
0001
0000
0001
0000
,
1000
0000
1000
0000
,
1001
0000
0000
0000
,
0010
0000
0010
0000
,
0001
0000
1000
0000
,
0010
0000
0010
0000
,
1000
0000
0001
0000
,
0100
0000
0100
0000
,
0001
0000
1000
0000
,
0100
0000
0100
0000
,
1000
0000
0001
0000
,
0010
0000
0010
0000
,
0001
0000
1000
0000
,
0010
0000
0010
0000
,
1000
0000
0001
0000
,
0100
0000
0100
0000
,
0001
0000
1000
0000
,
0100
0000
0100
0000
,
1000
0000
0001
0000
,
1000
0000
1000
0000
,
1000
0000
0000
0000
,
0001
0000
1000
0000
,
0100
0000
0010
0000
,
0001
0000
0001
0000
,
0001
0000
0000
0000
,
1000
0000
0001
0000
,
0101
0000
0000
0000
;

//---------------dance-single - ----------------
#NOTES:
     dance-single:
     :
     Challenge:
     14:
     0.866709,1.000000,0.082264,0.380471,0.555281,545.000000,8.000000,37.000000,0.000000,0.000000,0.000000,0.866709,1.000000,0.082264,0.380471,0.555281,545.000000,8.000000,37.000000,0.000000,0.000000,0.000000:
0000
0000
0000
0000
,
0000
0000
0000
0000
,
0000
0000
0000
0000
,
0000
0000
0000
0000
,
1001
0000
1000
0010
0001
0010
1000
0001
,
0000
0000
0000
0000
0000
0000
0000
0000
0001
0010
0001
0010
0001
0010
0001
0010
,
0001
0100
0001
0100
0001
0000
0010
0000
1000
0000
0010
0000
0001
0000
1000
0000
,
1000
0010
1000
0001
1000
0000
0000
0000
0002
0000
0013
0000
2002
0000
3003
0000
,
0100
0001
1000
0100
1000
0001
0100
0001
,
1000
0000
0001
0010
0001
0000
1000
0000
0010
0000
0100
0000
0001
0000
0010
0000
,
0001
0100
0001
0100
0001
1000
0100
1000
,
0001
0000
1000
0010
1000
0000
0001
0000
0010
0000
0100
0000
1000
0000
0001
0000
,
0010
0001
1000
0010
1000
0001
0010
0001
,
1000
0000
0001
0100
0001
0000
1000
0000
0010
0000
0100
0000
0001
0000
1000
0000
,
0100
0010
0001
0010
0001
1000
0010
1000
,
0001
0000
1000
0100
1000
0000
0001
0000
1000
0100
1000
0100
1000
0000
1000
0001
,
0100
0000
0001
0000
1000
0000
0100
1000
0100
0000
1000
0000
0010
0000
0100
0000
,
0001
0000
1000
0010
1000
0000
0010
0000
0100
0000
0001
0000
0010
0000
0001
0000
,
0100
0000
0010
0000
1000
0000
0001
0100
0001
0000
0010
0000
0001
0000
0100
0000
,
0010
0000
0100
0001
0100
0000
0001
0000
1000
0000
0001
0000
0100
0000
0010
0000
,
1000
0000
0001
0000
0010
0000
0100
1000
0100
0000
1000
0000
0010
0000
0100
0000
,
0001
0000
1000
0010
1000
0000
0100
0000
1000
0000
0001
0000
1000
0000
0100
0000
,
1000
0000
0001
0000
0100
0000
0001
0010
0001
0000
0100
0000
0001
0000
1000
0000
,
0100
0000
1000
0100
1000
0000
0001
0000
0100
0001
1000
0100
0010
0000
0001
0000
,
2020
0030
0200
0300
0020
0030
0002
3003
,
2000
0002
0000
3000
1000
1000
1003
0000
,
0001
0100
0001
0010
1000
0010
0100
0010
,
0001
0010
0100
1000
0100
0010
0001
0010
0100
0000
1000
0000
0001
0000
0000
0000
,
2020
0030
0200
0300
0020
0030
0002
3003
,
2000
0002
0000
3000
1000
1000
1003
0000
,
0010
1000
0010
0100
0010
1000
0010
0100
0010
1000
0010
0100
0010
1000
0010
0100
,
0020
0000
0000
0000
,
1030
1000
1000
0000
0000
0000
0000
0000
,
0001
0001
0001
0000
0000
0000
0000
0000
,
0100
0100
0100
0000
0000
0000
0000
0000
,
0002
0000
2003
0000
,
3020
0000
0000
0000
0000
0000
0030
1000
,
0011
0000
0000
0000
,
0100
1001
0000
0000
,
0020
0000
0000
0000
0000
0000
0000
0030
,
1000
0100
1000
0100
1000
0000
0000
0000
0001
0100
0001
0100
0001
0000
0000
0000
,
1000
0010
1000
0010
1000
0000
0000
0000
0001
0010
0001
0010
0001
0000
1000
0000
,
0010
1000
0010
1000
0010
0000
0000
0000
1000
0001
1000
0001
1000
0000
0000
0000
,
0010
0100
0010
0100
0010
0000
0000
0000
0100
0001
0100
0001
0100
0000
0001
0000
,
0010
0100
1000
0100
0010
0000
0000
0000
0001
0100
0010
1000
0100
0010
0001
0100
,
0010
1000
0100
0010
0001
0000
0000
0000
1000
0100
0010
0001
0100
0010
1000
0100
,
0010
0001
0100
0010
1000
0000
0000
0000
0001
0100
0010
1000
0100
0010
0001
1000
,
0010
0100
0001
0010
0100
1000
0001
0100
0010
1000
0100
0010
0001
1000
0010
0100
,
0001
1000
0001
0100
0001
1000
0100
1000
,
0001
0000
1000
0010
1000
0000
0001
0000
0010
0000
0100
0000
1000
0000
0010
0000
,
1000
0100
1000
0100
1000
0001
0100
0001
,
1000
0000
0001
0010
0001
0000
1000
0000
0010
0000
0100
0000
0001
0000
1000
0000
,
0010
1000
0001
0010
0001
1000
0010
1000
,
0001
0000
1000
0100
1000
0000
0001
0000
0010
0000
0100
0000
1000
0000
0001
0000
,
0100
0010
1000
0010
1000
0001
0010
0001
,
1000
0000
0001
0100
0001
0000
1000
0000
0001
0100
0001
0100
0001
0000
0001
1000
,
0100
0000
1000
0000
0001
0000
0100
0001
0100
0000
0001
0000
0010
0000
0100
0000
,
1000
0000
0001
0010
0001
0000
0010
0000
0100
0000
1000
0000
0010
0000
1000
0000
,
0100
0000
0010
0000
0001
0000
1000
0100
1000
0000
0010
0000
1000
0000
0100
0000
,
0010
0000
0100
1000
0100
0000
1000
0000
0001
0000
1000
0000
0100
0000
0010
0000
,
0001
0000
1000
0000
0010
0000
0100
0001
0100
0000
0001
0000
0010
0000
0100
0000
,
1000
0000
0001
0010
0001
0000
0100
0000
0001
0000
1000
0000
0001
0000
0100
0000
,
0001
0000
1000
0000
0100
0000
1000
0010
1000
0000
0100
0000
1000
0000
0001
0000
,
0100
0000
0001
0100
0001
0000
1000
0000
0100
1000
0001
0100
0010
0000
1000
0000
,
0022
0030
0200
0300
0020
0030
2000
3003
,
0002
2000
0000
0003
0001
0001
3001
0000
,
1000
0100
1000
0010
0001
0010
0100
0010
,
1000
0010
0100
0001
0100
0010
1000
0010
0100
0000
0001
0000
1000
0000
0000
0000
,
0022
0030
0200
0300
0020
0030
2000
3003
,
0002
2000
0000
0003
0001
0001
3001
0000
,
0010
0001
0010
0100
0010
0001
0010
0100
0010
0001
0010
0100
0010
0001
0010
0100
,
0020
0000
0000
0000
,
0000
0000
0000
0000
,
0030
0000
0000
0000
;
